<?xml version="1.0" standalone="no"?>
<!DOCTYPE svg PUBLIC "-//W3C//DTD SVG 1.1//EN" "http://www.w3.org/Graphics/SVG/1.1/DTD/svg11.dtd" >
<svg xmlns="http://www.w3.org/2000/svg">
<metadata>
This is a custom SVG webfont generated by Font Squirrel.
Copyright   : Copyright c Iconian FontsShyFonts Type Foundry 2000
</metadata>
<defs>
<font id="webfontcOXHQekW" horiz-adv-x="815" >
<font-face units-per-em="2048" ascent="1638" descent="-410" />
<missing-glyph horiz-adv-x="768" />
<glyph unicode=" "  horiz-adv-x="768" />
<glyph unicode="&#x09;" horiz-adv-x="768" />
<glyph unicode="&#xa0;" horiz-adv-x="768" />
<glyph unicode="!" horiz-adv-x="532" d="M76 170q0 35 14 57.5t39 40.5q18 14 53 25q31 8 58 6q37 -4 67.5 -14.5t50.5 -42.5q16 -20 23 -60q6 -29 2 -65q-2 -27 -21 -56q-18 -31 -38 -45q-20 -16 -54 -26q-29 -10 -57 -6q-37 4 -59 20q-20 16 -43 45q-16 20 -27 57q-8 27 -8 64zM186 563q4 41 16.5 123t20.5 123 q12 37 17 65q8 47 10 66l6 66q2 16 2 31.5v33.5q6 49 18 98q18 76 27 97q8 18 33 51q18 25 38.5 39t45 20t49.5 0q20 -8 29 -14q4 -4 20 -25q6 -8 14 -28l13 -31q4 -18 8 -59q2 -20 2 -62q-12 -106 -43 -211l-63 -209q-16 -35 -35 -98q-8 -25 -35 -98q-16 -45 -47 -92.5 t-68 -75.5q-31 4 -47 24q-20 27 -22 54q-4 18 -9 55q-4 28 0 57z" />
<glyph unicode="&#x22;" horiz-adv-x="759" d="M203 1016q0 57 2 88q2 35 12 76q6 20 12.5 39.5t10.5 35.5q4 6 9 18.5t7 16.5q2 6 10 17.5t10 17.5q4 6 23 31q8 10 33 22q4 2 10 4t8 4q12 4 21 5q20 2 35 -7t24 -24q12 -20 16.5 -32.5t8.5 -33.5q6 -58 6 -104q0 -31 -4 -92q-8 -49 -11 -78q-2 -41 -12 -82t-28 -76 q-18 -34 -56 -55q-9 -6 -18 -6h-21q-20 2 -37 16q-10 8 -26 33q-12 18 -19 39q-4 14 -12 39q-14 51 -14 88zM498 946v74l4 39q6 22 6 43q2 16 5 45t3 43q4 45 12 90q2 14 15 39q8 16 24 33q12 12 33 22q16 8 41 4q45 -12 66 -45q18 -31 28 -73q8 -39 8 -89q0 -16 -1 -43.5 t-1 -40.5q-2 -12 -5 -38.5t-5 -38.5q-6 -40 -18 -80q-12 -39 -33 -72q-18 -29 -57 -57q-4 0 -9 -4q-2 -2 -8 -2l-16 -4h-6q-23 0 -31 6q-16 12 -22.5 20t-14.5 29q-4 10 -8 31q-10 36 -10 69z" />
<glyph unicode="#" horiz-adv-x="1054" d="M143 711q0 29 21 53q18 20 45 33q29 12 57 18l58 8l6 49l6 50q-10 -2 -35 -2h-31q-23 -2 -41 12q-10 8 -30 29q-12 18 -18.5 38.5t-2.5 44.5q8 29 31 48q25 20 47 28q37 12 57 17q6 2 24.5 5t29.5 5q2 16 14 53q8 23 29 51q20 27 39 39q23 14 55 15q16 0 32.5 -6.5 t30.5 -20.5q12 -12 19 -29q8 -18 4 -37l-6 -61q14 0 26.5 -1t26.5 -1q8 0 25.5 -1t25.5 -1q4 14 12 47q6 27 16.5 49.5t28.5 38.5q20 18 46 21q22 -3 43 -13q18 -8 38 -24q35 -27 41 -76l-2 -19v-18v-14q25 -3 50 -13q27 -10 47 -24q23 -16 32 -35q12 -22 13 -49 q0 -20 -9 -37q-10 -20 -20 -29q-14 -10 -33 -20q-16 -8 -35 -8h-57l-8 -101q16 -4 45 -8q23 -2 45 -12q18 -8 35 -25q12 -12 12 -41q-4 -29 -14 -47l-29 -41l-39 -28q-16 -10 -43 -15l-18 -2h-19h-2q0 -4 -2 -11t-2 -11q-4 -16 -4 -23q0 -4 -2 -12t-2 -12q-4 -20 -6 -23 q-12 -29 -43 -51q-33 -23 -64 -29q-31 0 -51 17q-18 16 -29 40q-8 25 -12 53.5t0 55.5q-35 0 -53 2h-55l-4 -59q-4 -29 -16.5 -43.5t-33.5 -28.5q-16 -14 -40.5 -24.5t-47.5 -10.5q-25 6 -43 27q-18 23 -26 43q-10 25 -13 51q0 8 -1 26.5t-3 26.5h-39q-27 0 -39 4 q-18 0 -34 11q-20 12 -29 20q-14 16 -20 31q-7 19 -7 37zM555 823h53q35 0 54 2q4 33 4 49q0 8 1 24.5t1 25.5h-105z" />
<glyph unicode="$" horiz-adv-x="956" d="M86 555q-2 12 6 31q6 12 17 20q16 12 26 14.5t31 2.5q33 -4 47 -9q20 -6 45 -16q12 -8 49 -16q23 -6 45 -19q18 -4 70 -14q45 -8 72 -8q2 0 9 1t11 1q10 0 23 4q8 2 16 10t10 18q2 20 -8 46q-8 20 -27 34q-27 23 -36 27q-29 12 -43 16q-10 4 -109 31q-29 8 -56.5 16.5 t-52.5 14.5q-31 12 -41 20q-18 12 -34.5 33t-22.5 41q-6 25 -4 49q4 23 23 47q10 14 38 39q23 20 46 31q33 16 47 24q47 23 102 43q47 16 107 27q16 70 22 107q8 53 25 106q10 33 16 47q8 16 29 45q14 20 37 33q22 12 49 12q16 -2 53 -10q29 -6 43 -27q20 -14 31 -41 q10 -29 8 -53q-2 -10 -4 -28.5t-4 -26.5q-2 -20 -15 -53q-12 -25 -18 -51q-8 -37 -12 -54q35 -4 77 -26q18 -10 72 -43q33 -25 55 -54q25 -34 25 -73q0 -18 -10 -32.5t-27 -21.5q-20 -8 -33 -10q-14 -2 -34 2q-16 2 -48 2q-27 0 -47 6q-45 6 -47 7q-27 6 -47 4q-4 0 -8 1 t-8 1q-6 0 -19 4l-12 -13q2 -10 14.5 -22t20.5 -16q4 -2 12 -7.5t12 -7.5q16 -8 23 -14l74 -43q39 -25 69 -51q29 -20 54 -64q23 -37 18 -82q-10 -57 -41 -96q-35 -45 -76 -74q-37 -25 -94 -53q-49 -25 -102 -37q-4 -33 -4 -49v-47v-49q0 -33 -3 -49q-8 -41 -12 -64 q-6 -33 -24 -63q-8 -18 -27 -33q-16 -14 -35 -23q-18 -10 -39 -12q-14 -2 -41 -2q-33 0 -55 14q-25 15 -37 43q-2 8 -2 27q0 16 2 25q4 45 8 67q8 45 11 68q6 23 14 67l12 70q-90 12 -170 63q-76 47 -123 132q-9 15 -12 30q-4 21 -2 33z" />
<glyph unicode="%" horiz-adv-x="1298" d="M152 49q6 35 24 70q18 33 39 65l191 297l190 295q-39 -29 -88 -45q-53 -16 -96 -14q-59 -2 -114.5 26.5t-82.5 79.5q-31 55 -37 107q-8 70 0 114q8 51 29 113q18 55 55 105q31 49 88 81q53 31 113 37q72 12 127 -12q53 -25 88 -74q35 -51 47 -112q12 -70 0 -125 q0 -6 -3 -25.5t-5 -30.5q-3 -28 -12 -55l155 244l162 237l18 27q12 16 20.5 24.5t24.5 20.5q8 6 29 10q27 -2 51 -12q27 -10 45.5 -28.5t26.5 -41.5q10 -25 6 -53q-10 -49 -26 -84q-6 -12 -41 -78q-14 -27 -48 -75l-49 -74l-121 -178l-122 -178l-207 -306 q-154 -227 -203 -305q-20 -27 -43 -73l-41 -74q-12 -23 -31 -33q-23 -14 -45 -10q-31 4 -49 14t-37 33q-16 18 -22 45q-8 33 -6 51zM387 989q0 -6 4 -18q2 -8 12 -13q8 -4 19 -2q22 0 37 13q14 10 22 28q12 25 15 39l6 37q0 12 4 33q4 16 0 35q-4 10 -19 20q-12 10 -30 6 q-10 0 -20.5 -6t-16.5 -16q-12 -16 -12 -21q-2 -8 -7 -20q-8 -29 -8 -47q0 -23 -6 -47v-21zM690 184q-10 63 2 119q-2 63 23 131q27 72 69 117q49 51 107 78q66 29 133 20q57 2 106 -24q53 -29 76 -76q27 -51 33 -103q6 -57 -2 -108q-8 -61 -33 -117q-25 -61 -61.5 -108 t-96 -84t-118.5 -39q-66 -12 -117 14q-49 25 -80 72q-33 47 -41 108zM913 262q4 -25 17 -35q16 -14 39 -10q10 -2 24 8q8 6 17 23q2 10 6 26q2 8 2 25l4 18v19q4 16 4 28.5t-4 28.5q-4 14 -12 23q-10 10 -24.5 10t-27 -6t-22.5 -17q-8 -8 -12 -24q-6 -25 -6 -27 q-9 -39 -5 -90z" />
<glyph unicode="&#x26;" horiz-adv-x="1124" d="M137 489q0 43 17 89q15 43 43 79q29 39 63 68q25 20 78 49q-10 10 -26.5 32.5t-20.5 27.5q-20 25 -41 63q-12 23 -25 72q-10 39 0 80q4 43 17 71q20 45 34 66q18 27 50 57q37 37 57 51q59 45 131 70t145 25q59 0 109 -9q47 -8 102 -28q43 -18 48 -21q20 -10 42.5 -28.5 t32.5 -36.5q14 -25 15 -47q0 -20 -15 -50q-12 -23 -28 -47l-37 -37q-18 -18 -45 -18q-39 0 -70 8q-45 12 -68 17l-35.5 4t-35.5 6q-49 8 -72 8q-25 0 -45 -12q-4 -2 -9 -6.5t-9 -6.5q-9 -6 -13 -18q-4 -39 4 -68q9 -34 37 -55q27 -16 70 -26l72 -17q25 -4 69 -12 q41 -8 74 -10q6 20 18 34q12 16 29 29q8 6 37 16q16 6 37 3q33 0 57 -13q29 -14 43 -35q16 -23 23 -53q6 -33 2 -57q-12 -129 -37 -252l-53 -252q-12 -41 -21 -63q-16 -45 -26 -66q-20 -41 -33 -59q-16 -25 -45 -54q-18 -14 -60 -34q-20 -10 -65 -22.5t-66 -14.5l-67 -6 q-47 -2 -101 10q-61 14 -92 30q-49 25 -84 52q-27 20 -72 65q-34 34 -61 74q-23 31 -45 86q-20 47 -29 92q-8 41 -4 100zM410 475q-6 -47 24 -88q27 -37 70 -59q43 -25 88 -37q47 -12 96 -12l21 2l18 2h16q6 39 13.5 76.5t13.5 72.5l25 150q-14 4 -47 8q-8 0 -23.5 2 t-24.5 2q-49 -4 -82 -4q-41 0 -88 -10q-33 -8 -73 -33q-33 -21 -47 -72z" />
<glyph unicode="'" horiz-adv-x="454" d="M190 1020q0 63 3 90q3 37 12 74q12 49 20 73q10 29 15 37q2 6 8 17.5t10 17.5q10 18 21 33q12 15 30 24q25 10 43 11q23 -4 39 -17q14 -10 25 -32q16 -35 18 -39q8 -29 10 -41q8 -29 17 -86q4 -29 0 -88l-12 -80q-10 -49 -23 -76q-8 -18 -16 -39q-4 -6 -10.5 -19.5 t-8.5 -19.5q-8 -16 -24 -33q-12 -12 -33 -22q-4 -2 -21 -8q-6 -2 -18 -2q-49 12 -70 49q-27 45 -30 80q-5 30 -5 96z" />
<glyph unicode="(" horiz-adv-x="901" d="M119 598q10 129 37 223q31 111 80 215q52 108 122 203q76 100 168 168q43 31 95 53q47 20 104 15q31 -3 55 -19q27 -16 41 -39q16 -29 23 -51q6 -31 4 -59q-2 -12 -14.5 -24.5t-20.5 -16.5q-4 -2 -11 -6.5t-11.5 -6.5t-11.5 -6t-11 -6q-84 -37 -155.5 -104.5 t-114.5 -151.5q-46 -89 -68 -184q-18 -78 -29 -193q-4 -49 -4 -76q0 -51 2 -77q2 -39 13 -76q12 -45 24 -70q33 -63 92 -112q53 -45 119 -82q27 -16 60 -31l59 -29q16 -6 22.5 -20.5t6.5 -32.5q-2 -27 -19 -51q-18 -29 -35 -43q-29 -25 -45 -33q-23 -10 -53 -14 q-53 -8 -108 8q-57 16 -97 45q-86 51 -149.5 133t-104.5 168q-39 86 -57 186q-18 95 -8 197z" />
<glyph unicode=")" horiz-adv-x="899" d="M170 37q0 12 6 29q4 10 21 22l14 7l14 7q20 8 31 11q51 20 86 47q47 35 74 65q27 29 59 80q28 43 49 86q49 94 76 195q25 90 35 205q6 88 -14 167q-23 84 -72 146q-45 55 -114.5 102t-139.5 70q-4 2 -11.5 5t-11.5 5q-16 8 -24 17q-12 12 -17 20q-6 12 -6 27q2 29 19 53 q12 18 41 41q29 20 51 29q28 9 55 12q66 12 129 -4q57 -14 113 -54q52 -37 92 -86q45 -55 70 -104q59 -109 87.5 -240t16.5 -260q-12 -139 -63 -266q-55 -135 -123 -254q-12 -20 -40 -61t-34 -52q-35 -53 -90 -108q-47 -47 -109 -80q-59 -31 -131 -25q-25 2 -51 17 q-29 14 -45 31q-18 18 -30.5 42.5t-12.5 55.5z" />
<glyph unicode="*" horiz-adv-x="851" d="M133 733q8 29 29 55q14 20 43 41q37 29 53 37q29 16 51 33l-43 35l-43 37q-20 23 -30 45q-14 27 -17 51q8 29 17 43q12 20 28 35q25 20 39 26q25 10 43 11q16 0 33 -6q14 -6 29 -17l22 -22q10 -12 23 -25l2 12q3 31 12 62q10 37 22 57q14 25 43 47q27 20 58 17 q20 0 37 -9q18 -10 32 -20q12 -10 23 -31q6 -12 6 -39l-6 -43q0 -6 -2 -20.5t-2 -22.5q37 29 59 41q33 16 70 21q14 -2 39 -15q12 -6 33 -26q10 -10 22 -35q8 -16 8 -41q-4 -31 -10 -45q-8 -20 -33 -35q-27 -14 -82 -47l-82 -51l66 -45l66 -45q18 -10 24 -37q6 -25 0 -47 l-12 -41q-6 -23 -20.5 -39.5t-34.5 -30.5q-16 -10 -43 -14q-35 0 -58 14q-31 20 -49 35v-14q0 -10 -2 -15q-2 -20 -18 -43q-12 -16 -37 -35q-45 -33 -95 -34q-29 2 -47 20.5t-24 44.5q-8 33 -8 55v54q-8 -4 -24.5 -16.5t-25.5 -16.5q-23 -12 -26 -12q-16 -4 -29 -2 q-23 -2 -47 8q-6 2 -39 24q-16 10 -31 33q-12 18 -12 43z" />
<glyph unicode="+" d="M98 705q12 40 43 61t68 31t76 12q40 3 73 6l2 21q4 47 11 69q10 39 26 70q18 35 45 55.5t70 20.5q23 0 39 -9q20 -10 33 -22q8 -8 20 -33q8 -16 8 -39q-4 -49 -4 -69q0 -45 -4 -70h10q2 0 6.5 -1t6.5 -1q20 0 69 -4q41 -4 72 -18.5t51 -39.5q23 -25 19 -67 q-2 -20 -13 -39q-8 -16 -26 -35q-16 -16 -35 -24q-25 -10 -41 -11q-47 0 -69.5 -2t-69.5 -2q-6 -55 -6 -59q0 -31 -7 -62q-2 -23 -18 -45q-12 -16 -37 -34q-27 -23 -43 -29q-27 -10 -51 -10q-41 10 -57 34q-20 33 -27 62q-8 45 -8 74v69h-60q-39 0 -59 2q-27 0 -47 13 q-23 12 -37 32q-12 14 -23 43q-9 25 -6 50z" />
<glyph unicode="," horiz-adv-x="483" d="M59 -74q3 31 13 62q10 35 20 57q4 10 31 57q20 37 33 54q10 12 19 24.5l18 24.5q12 18 43 49q20 20 47 37q25 14 59 18q23 -2 47 -16q20 -12 31 -39q4 -14 8 -47q2 -23 0 -47q-6 -35 -18 -70q-12 -37 -31 -65q-25 -41 -43 -62q-23 -29 -47 -55l-13.5 -13.5l-15.5 -15.5 q-4 -4 -9 -10t-10 -10t-10 -9q-20 -16 -32 -22q-16 -8 -39 -8q-6 2 -15 2q-10 0 -16 2q-25 4 -33 10q-14 10 -22 25q-6 10 -11 32q-4 25 -4 35z" />
<glyph unicode="-" horiz-adv-x="960" d="M172 705q16 39 45 59q31 22 68 31q37 10 75 12q12 0 36 1t36 3h45q31 0 45 -2q6 0 22.5 -1t22.5 -1h47q29 0 91 -4q57 -4 90 -8q29 -8 43 -15q25 -10 39 -22q18 -14 26 -35q10 -25 8 -45q-6 -20 -18 -39q-10 -16 -31 -33q-14 -12 -39 -22q-14 -6 -43 -11q-106 -8 -241 -8 q-59 0 -119 1t-121 1q-53 10 -86 45q-18 18 -31 43q-12 27 -10 50z" />
<glyph unicode="." horiz-adv-x="507" d="M108.5 162q6.5 35 20.5 59q14 27 41 49q25 20 53 33q31 12 62 12q33 4 59 -8q33 -14 49 -31q22 -22 31 -49q10 -29 6 -59q-4 -41 -16 -70q-16 -37 -39 -61q-20 -27 -58 -47q-35 -18 -67 -19q-43 -4 -70 15q-33 23 -47 43q-18 27 -24 63q-7 35 -0.5 70z" />
<glyph unicode="/" horiz-adv-x="841" d="M53 72q2 57 25 112q18 49 47 109q12 20 22.5 39.5l18.5 35l20 40.5q43 88 60 116q25 45 69 140l68 139l131 237l141 232l35 51q12 18 41 47q27 27 49 37q27 12 62 8q16 -4 26 -8q6 -2 25 -16q12 -10 18 -21q4 -8 4 -29q0 -37 -12 -67q-6 -16 -13 -31.5t-13 -32.5 q-12 -23 -33 -67.5t-33 -67.5l-244 -489q-133 -258 -272 -477q-14 -23 -32.5 -47.5t-39.5 -45.5q-14 -14 -47 -30q-27 -14 -55 -9q-35 6 -53.5 33t-14.5 62z" />
<glyph unicode="0" horiz-adv-x="1087" d="M147 659q10 119 43 228q37 123 91 217q27 55 57 98q35 49 78 90q45 41 94 68q49 25 111 29q92 0 165 -35q70 -33 121 -90q49 -55 84 -134q34 -77 49 -159q16 -84 19 -168q2 -74 -8 -164q-12 -113 -43 -219.5t-97 -206.5q-25 -43 -69.5 -92t-87.5 -76q-51 -33 -103 -49 q-53 -18 -112 -14q-61 0 -109 20q-49 23 -88 57q-45 41 -72 82q-31 47 -51 92q-41 92 -63 207q-21 104 -9 219zM412 522v-67q2 -23 10 -64q8 -37 20 -57q16 -27 39 -41q29 -18 62 -21q29 -2 61 13q27 12 53 34q20 16 41 50q18 28 31 55q31 90 41 156q16 98 21 145 q0 10 1 35.5t1 40.5v84q-4 55 -11 82q-10 45 -26 71q-20 35 -47 54q-29 20 -76 26q-37 -4 -60 -20q-27 -20 -45 -47q-16 -23 -30 -62q-2 -6 -11.5 -27.5t-13.5 -31.5q-27 -90 -39 -180.5t-18 -165.5q-4 -37 -4 -62z" />
<glyph unicode="1" horiz-adv-x="552" d="M174 1206q2 27 16 62q14 37 31 55q20 23 47 41q23 16 62 22l30 -12q14 -6 29 -14q41 -25 66 -51q29 -31 47 -70q25 -47 30 -80q8 -39 9 -86q-2 -8 -2 -24v-23q-8 -119 -17 -176l-24 -176q-16 -119 -27 -178q-16 -92 -25 -177q0 -29 -2 -43t-2 -43q0 -27 -2 -40l-6 -41 q-4 -37 -10 -52q-12 -33 -21 -47q-14 -29 -32 -45q-18 -14 -47 -22q-43 -6 -74 10q-35 18 -51 47q-12 29 -15 47q-4 33 -4 51v52q4 33 4 51q4 51 17 157q12 98 20 156l25 164q4 25 7 51.5t6 59t5 51.5q0 12 4 45q2 16 2 47t-2 45q-3 22 -12 43q-6 6 -14.5 13t-16.5 16 q-20 20 -28 32q-12 18 -19 39q-6 23 -4 43z" />
<glyph unicode="2" horiz-adv-x="1124" d="M186 1018q0 35 2 53q6 47 31 84q23 35 60 68q27 25 73 53q40 25 80 43q80 35 172 51q98 16 178 14q59 -2 101 -41q41 -37 61 -88q23 -47 33 -104q10 -66 8 -115q-4 -74 -31 -137q-35 -82 -63 -129l-92 -129l-94 -129q-47 -66 -84 -127q-37 -57 -60 -135q102 16 195 37 q106 25 192 35q23 2 49 -13q16 -8 33 -33q16 -20 25 -38q10 -27 8 -50q-29 -31 -70 -55q-37 -22 -80 -37q-66 -23 -84 -28q-57 -16 -84 -25q-106 -27 -190 -41q-94 -14 -193 -12q-33 0 -59 16q-23 14 -39 41t-22 57q-6 27 -2 62q4 41 12 78q6 25 27 73q16 39 36 72l41 68 l111 161l111 160l43 70q29 49 41 74q14 29 28 75q12 43 19 78q2 8 -2.5 24.5t-8.5 22.5q-6 10 -16 17q-6 4 -25 4q-20 0 -61 -8q-33 -6 -59 -19q-18 -6 -56 -22q-25 -10 -47 -37l-8 -19l-6 -16l-4 -16q-4 -14 -21 -39q-10 -14 -30 -29q-27 -16 -37 -20q-20 -6 -41 -7 q-29 -4 -54 13q-23 14 -32 43q-15 24 -15 51z" />
<glyph unicode="3" horiz-adv-x="1103" d="M172 1059q12 43 35 69q27 33 53 58q33 31 64 49l65 45l23.5 12t20.5 11.5t26 13.5q49 25 73 35q41 16 74 24q45 10 78 10q53 0 104 -22q47 -20 86 -59t60 -84q23 -49 20 -103q-6 -59 -34 -117q-25 -51 -62 -106q57 -6 106.5 -39t75.5 -78q31 -49 39 -106q10 -61 -2 -117 q-6 -63 -26 -115q-23 -57 -51.5 -106t-71.5 -98q-47 -55 -84 -84q-51 -45 -96.5 -74t-106.5 -53q-66 -25 -113 -33q-57 -8 -114 -6q-37 2 -66 20.5t-49 46.5q-20 25 -33 62q-12 31 -8 71q0 16 6 35t23 27q8 4 35 8q18 2 34 4l64 6q37 4 57 8q53 10 111 35q43 16 100 58 q22 15 43 36q29 29 39 43q6 10 27 50q10 20 14 55q2 6 2 20q0 10 -4 23q-2 8 -12 18q-8 8 -21 9q-72 0 -158 -17q-80 -14 -151 -51l-51 -27q-20 -10 -51 -20q-28 3 -50 18q-27 18 -39 37q-27 31 -30 43q-10 27 -10 53q2 43 36 80q31 33 70 60l44 27.5t48 29.5l94 55 q35 25 74 70q35 41 37 90l6 18q2 2 2 8.5t2 8.5l-8 6q-53 -10 -96 -35l-90 -53l-76 -47q-31 -20 -80 -43q-8 0 -25 4q-4 2 -22 10q-12 6 -21 15q-10 8 -18 16l-29 37q-16 18 -12 45z" />
<glyph unicode="4" horiz-adv-x="1028" d="M92 657v50q6 59 25 118q16 51 43 115q25 61 55 117q25 43 68 108l14 23q14 23 22 33q14 18 43 51q25 29 41 45q20 20 52 31q27 2 53 -11q25 -12 43 -30q16 -20 32.5 -45t12.5 -56q-12 -55 -39 -98l-51 -92l-60 -109q-28 -52 -49 -110q41 -8 119 -17q76 -8 121 -14 q10 45 12 82q2 14 4 42t4 42l7 82l6 84q2 27 10 90q6 47 20 90q6 20 19 39q16 25 29 33q27 18 36 20q23 6 41 4q33 -4 54 -18q29 -20 39 -35q15 -22 24 -49q6 -18 6 -55l-6 -107q-4 -70 -8 -104q-2 -18 -5 -54.5t-5 -54.5t-5.5 -53t-5.5 -53q-2 -10 -2 -31v-31 q39 -23 58 -49q23 -35 16 -78q-10 -43 -29 -72q-20 -33 -59 -49q0 -6 -2 -14t-2 -14.5t-2 -14.5t-4 -14l-4 -66l-4 -63q0 -43 -2 -64q0 -14 -2.5 -29.5t-4.5 -31.5q-4 -29 -12 -59q-8 -29 -27 -54q-20 -29 -40 -43q-23 -16 -58 -20q-43 -6 -76 10q-37 18 -49 59 q-16 37 -12 82q2 14 2 43t2 43l12 95q4 14 9 47q2 8 5 24.5t3 22.5q-3 12 0 24q2 8 2 25q-25 4 -35 4h-37q-65 0 -129 6q-70 6 -123 23q-25 6 -57 16q-18 6 -55 23q-25 10 -52 30q-25 18 -39 41q-12 22 -12 45z" />
<glyph unicode="5" horiz-adv-x="1114" d="M164 637l12 125q6 59 19 125q16 82 22 123q10 74 21 120q10 51 32 95q23 45 70 73q51 33 90 45q53 16 96 25q66 14 119 16q59 2 121 0l65 -6q35 -4 60 -24q29 -18 41 -54q12 -34 6 -67q0 -25 -8 -41q-10 -20 -27 -31q-18 -8 -41 -8q-27 0 -41 -2q-14 0 -40.5 -2t-39 -2 t-39 -2t-40.5 -2q-20 -4 -40 -8.5t-38 -6.5q-39 -6 -76 -24q-14 -66 -25 -133q-4 -33 -10 -66l-12 -65q23 25 76 65q31 23 86 49q49 23 92 31q57 10 96 8q74 -4 133 -28q66 -29 105 -82q18 -20 32 -58q16 -41 21 -63q8 -45 8 -67.5t-4 -67.5q-6 -61 -33 -129 q-20 -53 -63 -117q-29 -43 -86 -105q-55 -57 -99 -94q-33 -29 -106 -78q-59 -41 -117 -65q-57 -27 -125 -39q-63 -12 -127 -6q-35 4 -61 20q-27 18 -45 45q-16 25 -27 60q-6 20 -6 65q4 33 18 60q16 29 50 35q18 4 55 8q39 4 57 2h55q16 0 54 8q37 12 53 22q25 14 47 35 q14 12 43 41l39 41q10 10 20.5 22.5l18.5 22.5q14 18 35 49q20 33 28 52q12 28 19 55l2 18q0 4 -4 29q-2 14 -21 16q-18 -2 -51 -14t-47 -22l-45 -31q-20 -16 -43 -31l-86 -70l-86 -67q-28 -22 -62 -37q-31 -14 -65 -14q-41 4 -66 24q-23 20 -41 58q-12 31 -20 67 q-10 39 -4 74z" />
<glyph unicode="6" horiz-adv-x="1042" d="M131 479q14 123 45 228q41 135 76 221q23 51 43 104q29 70 45 105q29 61 53 100q41 66 68 94q20 20 57 39q25 12 66 16q23 6 41 0t30 -18q14 -14 22.5 -30.5t8.5 -37.5q2 -12 2 -32v-33q-29 -70 -53 -113l-57 -110q-8 -16 -16.5 -30.5t-14.5 -26l-15 -29.5q-4 -8 -36 -90 q53 29 120.5 41t124.5 10q68 0 136 -29q63 -27 106 -82q39 -55 51 -119q12 -68 4 -131q-10 -104 -55 -196q-43 -86 -117 -170q-34 -40 -73 -74q-37 -31 -86 -57q-45 -25 -97 -37q-53 -12 -100 -10q-45 0 -86 14q-49 16 -78 37q-37 25 -67 55q-29 29 -52 68q-51 80 -75 151 q-29 88 -21 172zM410 334q-2 -20 8 -39q8 -14 28.5 -24.5t36.5 -12.5q29 -4 41 -4q47 -2 97 16q45 18 81 56q35 39 54 84q20 49 22 96q2 18 0 39q-4 27 -10 39q-6 14 -22.5 26.5t-36.5 10.5q-37 0 -74 -17q-34 -15 -68 -37q-41 -23 -63 -45q-27 -27 -47 -63l-31 -62 q-16 -32 -16 -63z" />
<glyph unicode="7" horiz-adv-x="1026" d="M170 1108q6 47 25 78q27 45 49 67q29 29 67 52q43 25 74 36q68 27 164 37q82 8 164 6q39 -2 112 -10q53 -6 107 -24q31 -12 49 -25q23 -16 39 -35q16 -20 27 -45q10 -27 10 -53q-25 -100 -68 -195l-84 -190l-106 -232l-111 -229q-25 -57 -37 -108.5t-30 -112.5 q-2 -10 -8.5 -28.5t-8.5 -26.5q-10 -31 -24 -54q-20 -20 -48 -26q-12 -2 -55 -8q-37 -4 -61 10q-31 16 -47 39q-20 29 -27 55q-6 35 -2 64q6 68 27 122l47 119l155 344l156 344q0 4 4 12.5t4 12.5l8 24q-8 2 -28.5 2t-28.5 3q-18 2 -57 2q-68 0 -119 -17q-59 -18 -102 -65 q-20 -25 -41 -37q-29 -18 -52 -21q-27 -2 -57 4q-25 6 -49 23q-25 14 -33 35q-10 26 -4 51z" />
<glyph unicode="8" horiz-adv-x="1060" d="M135 358q0 53 17 95q14 37 47 84q29 41 65.5 71.5t81.5 53.5q-33 14 -72 47q-35 29 -55 63q-25 43 -33 78q-10 47 -2 88q12 92 60 166q49 76 112 137q29 29 70 59q35 27 76 46q45 20 82 28q47 10 88 10q82 0 145 -36q70 -41 115 -91q53 -53 84 -120q31 -66 26 -148 q0 -45 -16 -94t-43 -88q-27 -37 -65 -74q-29 -27 -82 -53q31 -18 65 -49q23 -20 49 -66q23 -39 31 -77.5t2 -86.5q-12 -84 -55 -157.5t-105 -134.5q-63 -59 -141 -96.5t-164 -32.5q-74 0 -147 28q-68 27 -121 80q-55 52 -86 123q-31 73 -29 147zM424 340q-4 -29 6 -41 q14 -16 29 -25q18 -10 39 -12q29 -4 41 -4q20 -2 49 4q33 8 47 16.5t35 32.5q14 16 14 45q2 14 -6 43q-6 20 -20.5 35t-35 25t-40.5 10q-29 0 -54 -12q-33 -16 -49 -31q-12 -12 -37 -39q-14 -16 -18 -47zM498 979q-2 -20 4 -40.5t18 -35.5t31 -24q16 -8 41 -9q31 0 53 15 q27 16 45 35q22 22 37 49q12 23 16 57q0 25 -4 37t-16 33q-8 12 -24.5 22t-36.5 10q-29 0 -56 -14q-37 -20 -51 -35q-29 -29 -39 -47q-16 -28 -18 -53z" />
<glyph unicode="9" horiz-adv-x="1038" d="M123 848q12 66 35 139q23 70 61 133q41 61 98.5 118.5t120.5 92.5q39 25 99 41q57 16 104 14q94 0 172 -47q76 -45 125 -118q49 -72 72 -156q23 -86 16 -176q-6 -72 -20 -129q-15 -65 -37 -129q-25 -74 -45 -125l-50 -123q-39 -74 -55 -115t-57 -114q-35 -63 -72 -103 q-43 -45 -100 -69q-25 -4 -41 2q-16 4 -31 20q-10 12 -18 33q-6 16 -2 41v12q0 12 2 16.5t2 12.5q0 4 4 12q10 63 33 113q12 27 53 108q16 33 31.5 61.5t27.5 53.5q25 45 58 117q-63 -47 -138 -76q-72 -27 -151 -27q-68 0 -135 29q-63 27 -107 82q-37 53 -49 119 q-12 67 -6 137zM379 807q0 -18 6 -37q4 -16 18 -29q12 -12 33 -12q27 0 57.5 10.5t53.5 24.5q33 20 47 33q29 25 43 39q37 39 70 92q33 51 34 104q0 18 -10 33q-9 12 -24 18q-12 4 -33 9q-12 2 -33 2q-49 6 -98 -15q-45 -18 -82 -55q-35 -35 -57.5 -84t-22.5 -96 q-2 -12 -2 -37z" />
<glyph unicode=":" horiz-adv-x="495" d="M96 182q4 33 19 58q12 20 43 43q23 16 55 26q20 6 57 6q35 4 59.5 -2t49.5 -26q22 -18 31 -43q10 -27 2 -58q-12 -78 -54 -135q-20 -25 -24 -28q-20 -16 -31 -23q-20 -12 -33 -16q-18 -6 -37 -7q-37 0 -67 21q-29 18 -43 47q-16 33 -23 68q-6 40 -4 69zM184 743 q10 45 15 60q10 35 30 57q20 27 45 43q29 18 58 19q33 -4 57 -15q23 -10 41 -43q14 -20 19 -53q2 -18 2 -57q0 -28 -7 -62q-4 -23 -24 -59q-12 -23 -43 -43q-27 -18 -64 -15q-33 4 -59 17q-29 14 -47 39q-16 20 -21 53q-2 20 -2 59z" />
<glyph unicode=";" horiz-adv-x="526" d="M78 -47q2 53 31 106l57 101l39 51q35 41 43 47q33 29 51 39q33 18 57 20q25 0 52 -10q20 -8 30 -37q6 -20 6 -49q0 -18 -4 -51q-6 -39 -20 -70q-25 -53 -33 -67l-43 -62l-45 -59q-8 -6 -14 -14.5t-15 -16.5q-18 -18 -28 -26q-18 -14 -35 -21q-20 -6 -37 -4q-4 2 -14 2 q-2 0 -7.5 1t-7.5 1q-37 12 -53 47q-14 31 -10 72zM213 698q0 6 1 16.5t1 16.5q2 29 16 66q10 31 35 57.5t51 40.5q31 14 64 12q35 -4 61 -20q25 -16 45 -47q16 -25 27 -62q8 -33 6 -65q0 -59 -45 -107q-29 -25 -51 -35q-35 -14 -62 -12q-20 0 -57 8q-31 6 -51 25 q-15 18 -25 37q-10 18 -12 35q-4 24 -4 34z" />
<glyph unicode="&#x3c;" horiz-adv-x="819" d="M86 676q6 31 20 49q20 29 35 43q18 18 41 34.5t43 33.5l101 61l100 61l55 37l58 33q31 18 55 27q35 10 57 8q23 -4 41 -12q12 -6 33 -27q10 -10 23 -35q6 -12 6 -41q0 -25 -9 -43q-8 -20 -30 -33l-142 -90l-139 -94q29 -16 62.5 -32.5l68.5 -34.5l129 -70q15 -6 25 -19 q10 -14 12 -24q4 -20 4 -30.5t-4 -31.5q-4 -23 -12 -40q-12 -25 -23 -35q-18 -18 -34 -27q-12 -6 -41 -10q-45 0 -82 14q-18 6 -74 35l-82 47q-45 27 -84 47q-33 25 -61 41q-23 12 -64 41q-27 18 -55 51q-23 27 -33 66z" />
<glyph unicode="=" horiz-adv-x="980" d="M168 539q0 20 8 34q9 15 25 25q29 16 32 18q12 4 33 13q27 8 80 16q27 4 80 4h43q14 0 43 -4q57 -4 88 -4h49q8 2 24.5 2t24.5 2q6 0 21.5 -1t23.5 -1q23 0 48 -6q29 -6 45 -14q25 -10 36 -23q18 -18 23 -35q8 -25 2 -49q-4 -12 -25 -43q-12 -16 -36 -35q-18 -14 -43 -22 q-27 -10 -50 -10q-76 -6 -227 -7q-125 0 -223 9q-31 4 -49 14q-33 18 -39 27q-18 23 -27 40q-10 25 -10 50zM201 807q-6 23 0 47q2 20 14 35q8 10 29 26q10 8 35 21q16 8 34 14q31 12 76 20.5t78 10.5h39q29 0 41 -2q53 -4 82 -4h24q4 0 13.5 -1t13.5 -1q8 2 25 2 q18 0 26 -2q20 0 70 -8q31 -6 65 -23q27 -12 47 -45q20 -31 21 -63q2 -23 -8 -46q-12 -23 -29 -34q-18 -12 -41 -19q-25 -6 -45 -4h-514q-20 0 -45 10q-20 8 -32.5 27t-18.5 39z" />
<glyph unicode="&#x3e;" horiz-adv-x="819" d="M180 397q4 25 13 45q8 18 28 33q43 27 144 98l143 101l-133 78q-27 16 -133 75q-10 4 -23 21q-8 10 -10 24q-4 20 -4 29q0 10 4 31q4 27 10 39q10 20 25 35q18 18 30 24q18 10 39 12q39 -4 66 -14q53 -23 59 -24l28.5 -14.5t29.5 -14.5l57 -31l125 -78q74 -49 117 -86 l36 -41q16 -20 21 -53q-6 -27 -23 -53q-14 -23 -36 -45q-29 -29 -45 -41l-48 -37l-94 -61l-94 -64q-8 -6 -26.5 -17.5l-28.5 -17.5q-37 -25 -58 -35q-25 -15 -55 -24q-37 -10 -59 -8q-45 6 -72 39q-31 36 -33 75z" />
<glyph unicode="?" horiz-adv-x="1042" d="M170 1030q6 53 25 86q23 43 51 74q35 39 65.5 61.5t75.5 46.5q78 45 168 68q88 23 174 16q72 -4 135 -20q66 -18 117 -65.5t72 -110.5q20 -59 16 -135q-15 -77 -61 -136q-45 -57 -109 -104q-41 -31 -131 -84l-129 -76q20 -2 59 -2q10 0 30 -1t28 -1l55 -8q33 -4 53 -8 q4 -18 10.5 -39t4.5 -39q0 -23 -9 -39q-12 -25 -20 -35q-16 -23 -29 -30l-33 -23q-25 -4 -36 -4q-25 0 -39 -2q-12 -2 -37 -2h-37q-63 -2 -129 10q-57 12 -121 35q-43 20 -51 26q-23 14 -47 39q-18 18 -31 47q-12 27 -6 60q4 33 18 57q25 39 35 49q23 23 47 41q16 12 49 33 l134 72q61 35 133 67l41 23q29 16 43 27q23 16 34 30q16 20 23 43q-4 27 -18.5 39t-38.5 19q-29 8 -47 8q-16 0 -45 4q-51 4 -97 -8q-55 -14 -92 -35q-25 -18 -47 -53q-18 -29 -39 -58q-23 -37 -49 -55q-31 -22 -68 -25q-27 0 -45 8.5t-32 26.5q-16 18 -21 37q-6 20 -2 45z M258 170q-2 35 16 70q20 37 48 57q31 25 63 35q39 12 72 10q37 2 75 -10q37 -12 66 -35q27 -20 43 -57q14 -33 8 -76q-4 -39 -16 -68q-14 -33 -39 -59q-25 -28 -55 -43q-35 -16 -68 -14q-47 4 -80 14q-45 14 -69 35q-31 25 -50 61q-18 35 -14 80z" />
<glyph unicode="@" horiz-adv-x="1509" d="M150 649q6 76 24 150q16 68 53 143q33 68 80 131q49 68 107 115q49 45 127 90q66 39 139 63q80 27 149 35q90 10 152 8q55 0 115 -12q63 -12 108 -35q51 -25 96.5 -59.5t77.5 -79.5q78 -98 103 -201q29 -117 16 -229q-4 -68 -10 -100q-8 -43 -29 -99q-18 -51 -45 -94 t-63 -84q-33 -41 -78 -74q-47 -33 -92 -53t-101 -33q-51 -12 -102 -12q-68 -2 -170 17q-78 14 -160 47q-23 10 -72 34q-37 18 -63 45q-31 31 -47 62q-20 35 -16 80q0 33 14 71q8 23 37 64q16 25 53 53q25 20 63 41q66 35 144 51.5t151 12.5q-6 29 -24 57q-18 27 -51 37 l-50 12q-31 8 -53 10q-25 12 -33 37q-10 33 -8 54q2 27 19 51q18 29 34 43q18 16 48 26q23 8 53 9q51 0 76 -7q39 -10 71 -24q35 -16 63.5 -41t47.5 -60q39 -61 51 -141t4 -153q-6 -53 -22 -127q-14 -57 -47 -121q47 12 81 43q31 27 54 73q23 43 30 89q6 29 11 90 q14 74 -4 153q-18 77 -62 135q-41 55 -110 91q-66 33 -152 26q-47 0 -96 -6q-66 -8 -97 -16q-51 -14 -92 -33q-43 -20 -86 -53q-43 -41 -80 -90q-27 -37 -53 -97q-20 -45 -33 -100q-10 -45 -14 -102q-18 -90 2 -175q20 -86 72 -151q49 -63 125 -100q80 -37 174 -29 q23 2 37 -2q18 -6 32 -21q14 -16 21 -30q6 -18 0 -39q-4 -31 -16 -52q-18 -29 -35 -43q-23 -20 -47 -28q-27 -10 -54 -10q-68 0 -125 14q-61 16 -114 39q-51 23 -101 65q-51 45 -84 88q-72 90 -104 215q-30 117 -20 246zM657 526q12 -27 35 -37l28.5 -11t20.5 -9 q33 -12 52 -16q37 -8 57 -9q27 23 47 62q18 33 31 72q-6 0 -14.5 2t-14.5 4t-14 4t-15 2q-33 -4 -57 -4q-18 0 -59 -4q-29 -2 -56 -16.5t-41 -39.5z" />
<glyph unicode="A" horiz-adv-x="1204" d="M109 213q2 59 22 121q14 47 45 119l57 125l58 124q35 117 67 203l74 199q27 55 41 86q25 53 49.5 88t65.5 70q39 33 88 41q41 0 88 -21q41 -18 74 -47q37 -29 59 -68q16 -27 41 -84q4 -16 10 -46.5t8 -37.5q0 -4 7.5 -34.5l11.5 -46.5l23.5 -114.5t19.5 -96.5l22 -115 q39 -209 58 -330q6 -18 10 -57q2 -25 10 -60q4 -37 4 -57q0 -29 -6 -59v-6q-10 -43 -37 -68q-33 -29 -69 -35q-11 -2 -25 -2q-18 0 -41 4q-34 6 -55 31q-14 23 -23 63q-8 45 -10 68q-2 16 -3 31.5t-3 31.5q0 4 -12 64q-20 8 -33 10q-23 4 -35 2q-49 0 -94 -6q-61 -8 -92 -14 q-23 -6 -45.5 -12.5t-42.5 -10.5q-45 -12 -80 -39q-20 -16 -27 -41l-12 -45l-8 -51q-4 -27 -17 -49q-16 -27 -41 -35q-16 -5 -34 -5q-9 0 -19 1q-35 6 -63 29q-27 20 -48 51q-18 29 -28 63q-10 37 -10 68zM528 586v4q16 -2 53 -2t54 -2h29q18 0 28 2q14 2 29 10q12 6 20 16 q10 14 11 27q0 51 -7 96q-4 31 -16 92l-24 93l-11.5 45l-11.5 45q-33 -45 -57 -92q-4 -10 -43 -97l-33 -100q-16 -53 -19 -102l-2 -19v-16z" />
<glyph unicode="B" horiz-adv-x="1218" d="M158 412q2 55 12 114q16 109 18 115q8 31 27 119q8 39 21 121q6 33 6 69v70l6 67q0 34 6 68q6 31 25 59q20 33 40 50q16 14 54 39q28 18 55 30q72 29 125 39q57 10 129 14q9 0 18 1q47 0 113 -13q59 -10 123 -45q23 -10 53 -33q27 -18 45 -45q23 -31 31 -55q9 -29 9 -52 q0 -6 -1 -11q0 -53 -24 -117q-23 -57 -60 -107q59 -27 96 -69q43 -49 66 -99q25 -51 37 -108q8 -37 8 -78q0 -20 -2 -41q-8 -61 -41 -119q-29 -51 -78 -100q-45 -45 -100 -82q-68 -45 -109 -66q-86 -45 -129 -61q-76 -29 -133 -47l-30.5 -9t-30.5 -10q-16 -4 -64 -14 q-39 -8 -63 -10q-8 -1 -19 -1q-16 0 -45 3q-35 4 -59 16q-25 14 -47 39q-14 16 -35 53q-15 28 -25 56q-20 57 -26 123q-3 34 -4 73zM438 393q-2 -12 2 -32.5t11 -28.5q12 -16 22 -21q14 -6 33 -6q63 0 119 21q59 23 112 59q52 31 92 80q37 45 48 110q1 7 0 15q0 25 -9 45 q-12 27 -32 47l-2 6q-84 0 -138 -12q-68 -15 -129 -55q-27 -14 -53 -43q-20 -20 -39 -58q-16 -35 -24 -61q-11 -35 -13 -66zM508 872q43 12 78 27q33 12 73 39l13.5 7t19.5 13q18 12 32.5 26.5t27.5 33.5q15 22 14 44q0 14 -8 25q-14 18 -25 23q-18 8 -35 10q-5 1 -12 1 q-4 0 -11.5 -0.5t-10.5 -0.5q-29 0 -43.5 -2t-42.5 -14q-20 -8 -37 -29q-16 -18 -19 -41q-6 -35 -14 -108v-54z" />
<glyph unicode="C" horiz-adv-x="1157" d="M139 647q12 127 58 244q47 123 118 227q29 43 78 101q47 55 92 86q61 43 111 61q56 21 110 21q7 0 13 -1q43 0 86 -12t80 -31q43 -20 71 -45q37 -31 62 -57q51 -57 90 -137q35 -73 35 -153v-13q0 -28 -12.5 -49.5t-30.5 -36.5q-20 -16 -43 -23q-29 -6 -49 -2 q-39 0 -74 23q-31 20 -47 55l-25 68q-2 4 -12 28.5t-14 36.5q-12 33 -27 49q-16 18 -47 23q-47 0 -80 -16q-25 -12 -64 -47q-31 -29 -53 -66q-33 -57 -39 -70q-43 -80 -63 -157q-23 -84 -31 -164q-1 -15 -1 -29q0 -44 7 -86q8 -47 43 -100q27 -49 80 -80q44 -25 99 -25h12 q47 0 96 23q53 25 90 51q37 33 55 45q23 16 64 31q23 4 41 -12q23 -18 26 -35q10 -16 15 -41q4 -23 0 -45q-12 -63 -49 -115q-41 -57 -86 -92q-51 -41 -107 -68q-53 -25 -117 -28q-21 -2 -40 -2q-44 0 -85 10q-59 14 -112 43q-57 31 -101 67q-37 31 -79 86q-35 45 -68 103 q-27 45 -47 110q-20 68 -27 121q-4 43 -4 77q0 25 2 48z" />
<glyph unicode="D" horiz-adv-x="1193" d="M156 229q2 14 2 47q0 4 6 48q4 29 8 47l6 49l6 55l4 55l7 86l6 84q0 14 4 44t4 44q4 57 8 86l19 115q14 86 20 119q14 72 29 113q18 53 49 106q41 16 82 25q29 6 86 14q33 6 98 14q33 4 98 9q16 1 32 1q55 0 112 -16q70 -18 127 -55q51 -33 102 -90q39 -45 74 -117 q31 -66 43 -133q8 -44 8 -86q0 -29 -4 -57q-2 -72 -27 -158q-23 -84 -57 -152q-37 -74 -86 -141q-53 -72 -107 -129q-49 -57 -116 -113q-63 -51 -137 -88q-68 -33 -150 -53q-42 -10 -92 -10q-31 0 -66 4q-49 4 -81.5 22.5t-63.5 53.5q-23 27 -41 71q-12 33 -12 86zM455 455 q0 -72 10 -123q55 10 88 28.5t76 53.5q49 41 69 65q6 8 29 33t33 39l55 78q27 37 49 84q29 57 39 86q12 37 21 92v41v43q0 20 -6.5 40.5t-16.5 37.5q-14 18 -31 26q-18 8 -36 15q-16 4 -41 8q-14 2 -41 2h-52q-35 0 -51 -2q-33 -4 -49 -4q-8 0 -24.5 -1t-24.5 -1 q-12 -8 -16 -15q-2 -4 -9 -20q-2 -6 -6 -23l-6 -18q-2 -8 -2 -24.5t-2 -24.5q-4 -33 -8 -49q-16 -90 -25 -170q-6 -57 -14 -172q-8 -86 -8 -125z" />
<glyph unicode="E" horiz-adv-x="1153" d="M162 346q0 53 4 168q8 61 20 209q10 113 27 207q16 90 51 203q31 102 88 190q72 27 140 35q94 12 141 14q72 8 160 8q80 0 155 -6q29 0 62 -14q27 -12 49 -35q18 -18 28 -51q9 -28 7 -62q2 -43 -23 -77q-8 -20 -27 -29q-20 -10 -38 -10q-114 9 -228 12q-31 1 -66 1 l-161 -3q-8 -20 -25 -66q-8 -23 -12 -67v-15q18 0 54 4.5t55 4.5l106 6q4 0 45 3t62 3q12 0 35 0.5t35 0.5q20 0 36 -1q6 1 12 0q25 0 52 -10q37 -14 55 -33q20 -20 33 -51q8 -20 8 -42q0 -11 -2 -24q0 -33 -19 -53q-20 -23 -43 -35q-31 -16 -53 -20q-37 -8 -53 -11 q-47 -6 -156 -14q-106 -8 -155 -16q-34 -6 -68 -25q-37 -20 -59 -43q-27 -25 -41 -59q-16 -37 -17 -70q-2 -16 -2 -32q0 -27 6 -56q16 -78 19 -84q76 10 137 39l129 63q43 25 137 62q68 27 144 33q33 4 49 -6q23 -12 32 -31q16 -29 19 -47q1 -11 1 -21q0 -15 -3 -28 q-8 -33 -19 -56q-16 -33 -32 -49q-39 -39 -72 -59q-53 -33 -82 -47q-45 -23 -88 -41l-86 -37q-43 -14 -86 -31q-49 -18 -88 -29q-41 -12 -88 -18q-43 -6 -88 -6q-33 6 -72 18.5t-59 38.5q-27 27 -39 62l-13.5 34.5l-13.5 34.5q-16 72 -16 166z" />
<glyph unicode="F" horiz-adv-x="1011" d="M168 510q0 109 4 162q10 117 41 256q27 121 78 254q14 41 45 78q33 39 70 59l98 24q35 8 100 17q49 10 107 14l54.5 4t53.5 2q45 -4 78 -14q37 -12 66 -35q33 -27 47 -57q13 -28 12 -62v-14q0 -23 -8 -39t-27 -31q-10 -8 -35 -20q-23 -12 -39 -14q-41 -10 -90 -15 q-43 -3 -65 -3l-27 1q-23 2 -65 2q-45 0 -68 2h-12q-10 0 -15 -2q-27 -41 -30 -75l-13 -84l-2 -23l88 6l86 8l86 7q41 3 60 2h24q39 0 58 -7q31 -10 53 -24q20 -12 41 -37q12 -14 25 -51q2 -4 4 -9.5t2 -9.5q2 -5 1.5 -8.5t-1.5 -9.5q-4 -27 -14.5 -43t-30.5 -33 q-16 -14 -41 -24q-18 -8 -41 -15q-61 -23 -125 -31q-47 -6 -127 -14q-37 -6 -107 -14q-53 -6 -102 -27q-2 -18 -2 -57q0 -23 -4 -60q-2 -27 -2 -80t-2 -79q-8 -59 -15 -94q-12 -66 -26 -95q-6 -18 -19 -37q-16 -25 -26 -34q-16 -16 -33 -25q-11 -5 -25 -5q-7 0 -16 1 q-31 4 -51.5 18.5t-32.5 38.5q-27 86 -29 146q0 4 -12 149q-2 54 -2 160z" />
<glyph unicode="G" horiz-adv-x="1247" d="M152 725q12 119 61 225q49 108 123 203q39 53 76 90q33 33 92 74q47 33 104 51q61 20 115 21q100 0 186 -33q98 -37 164 -84q2 -2 13.5 -12.5t19.5 -14.5q6 -4 31 -28q14 -14 24 -35t10 -41q-4 -18 -14 -33q-2 -2 -10 -13.5t-12.5 -15.5t-28.5 -24q-14 -10 -37 -15 q-41 4 -65 17l-64 28q-14 8 -28.5 14.5l-28.5 12.5q-31 14 -64 16q-10 1 -20 1q-32 0 -62 -7q-39 -8 -78 -28q-37 -18 -69 -45q-23 -18 -55 -64q-52 -68 -80 -147q-27 -76 -33 -164q-2 -27 -2 -60q0 -27 2 -82q2 -68 35 -131q14 -35 32 -59q25 -33 48 -47q35 -25 61 -31 q32 -9 55 -9q6 0 13 1q31 0 53 8q33 12 49 23q8 6 43 35q16 14 37 43q29 41 47 96q12 35 20 104q2 12 3 33q0 4 -1.5 15.5t-1.5 17.5q-16 -2 -65 -17q-45 -12 -68 -16q-45 -12 -67.5 -16t-67.5 -4q-29 0 -55 14q-25 14 -41 39q-16 23 -23 51q-6 25 -2 57q2 6 4 14.5t2 14.5 q4 14 15 27q23 20 55 32q6 2 19.5 8.5t23.5 10.5t19 6l61 18q10 2 30.5 8.5t30.5 8.5l132 33q65 15 129 18q53 0 90 -25q29 -20 55 -67q16 -33 25 -90q2 -18 2 -38q0 -27 -5 -59l-6 -51l-8 -49q-23 -106 -70 -199q-53 -102 -120 -182q-31 -35 -74 -76q-37 -35 -86 -63 q-43 -27 -98 -43q-53 -16 -103 -16q-7 0 -13 -1q-53 0 -110 21q-53 20 -106 59q-41 31 -86 86q-39 47 -68 103q-68 109 -96 225q-22 88 -22 179q0 36 4 73z" />
<glyph unicode="H" horiz-adv-x="1177" d="M164 281q0 47 2 71q4 98 8 146q8 94 14 143q8 76 19 152q2 25 8 75t8 74q4 16 8 57l7 56l6 55q2 8 4 26.5t4 28.5q10 45 14 60q8 29 25 57q12 29 33 51q23 25 51 31q14 3 27 3q31 0 59 -15q37 -18 59 -60q29 -43 37 -86q6 -29 6 -55q0 -21 -4 -41q-3 -37 -12 -74 q-4 -18 -9.5 -36.5t-9.5 -36.5q-2 -12 -7 -37t-9 -39q-8 -35 -12 -76q96 0 145 2q20 1 43 1l105 -3q2 12 2 37q4 61 4 92q0 59 -2 90t-2 90q0 27 4 88q4 37 8 56q6 29 18.5 53t34.5 41q21 15 42 15q4 0 7 -1q43 -8 64 -22q31 -23 45 -45q18 -29 31 -58q2 -6 8 -19.5 t10 -23.5t6 -18q16 -59 27 -131q6 -46 6 -89q0 -25 -2 -48q0 -20 -4 -54l-6 -55l-9 -113q-4 -78 -4 -118q0 -13 -0.5 -39.5t-0.5 -39.5q0 -22 1 -40q2 -29 2 -57t-2 -56q-4 -74 -10 -113q-8 -41 -14 -61q-10 -31 -27 -57q-25 -43 -35 -56q-25 -27 -55 -32q-11 -3 -23 -3 q-25 0 -49 13q-31 16 -47 53q-20 31 -26 76q-8 51 -11 82q0 10 1 31.5t1 31.5q0 43 -2 64q1 11 1 21q0 60 -15 112h-45q-8 0 -22.5 1t-20.5 1q-31 -6 -64 -6q-2 0 -63 -6q-47 0 -100 -6q4 -47 8 -142q3 -67 3 -100q0 -22 -1 -41q-2 -27 -10.5 -70t-22.5 -67q-6 -14 -14 -29 q-6 -10 -23 -27q-10 -10 -26 -16q-8 -3 -18 -3l-13 1q-43 6 -68 25q-37 27 -53 49q-39 53 -49 135q-4 49 -4 74z" />
<glyph unicode="I" horiz-adv-x="1128" d="M190 164q0 14 11 29q6 6 20 18q12 10 27 12q20 4 28 6q43 0 66 2t64 7q4 8 4 10q0 6 -2 10l18 168q6 55 23 170q4 27 11 85l11 89l21 174q0 8 2 23.5t3 28t1 22.5q0 49 -2 74l-17 -5q-6 -2 -16 -2l-19 -4l-18 -2h-6h-70q-31 0 -67 15q-16 4 -29 12q-20 14 -23 18 q-12 16 -14 27q-2 14 0 33q18 39 41 59q25 23 59 41t68 31l68 24q82 25 147 35q65 11 125 11q13 0 27 -1q37 0 77 -10l74 -18q37 -15 68 -37q31 -20 45 -57q-10 -39 -31 -68q-23 -33 -55 -47q-49 -10 -78 -14q-27 -4 -80 -17q0 -2 -6 -65q-2 -18 -10 -66q-2 -10 -4 -34.5 t-4 -35.5l-7 -67l-6 -82l-6 -82q0 -12 -2 -39t-2 -41l-6 -80l-6 -73l-6 -76q-2 -25 -2 -74q0 -27 8 -72l16 -2l12 2h29h31q20 4 28 4q18 0 29 3q23 2 64 -3q29 -2 59 -16q31 -29 33 -63q4 -37 -2 -64t-21 -49q-16 -25 -47 -29q-133 -25 -262 -30q-46 -2 -94 -3l-170 7 q-20 2 -66 10q-33 6 -61 20q-33 16 -53.5 37t-34.5 56q-6 8 -10 26q-3 11 -3 29z" />
<glyph unicode="J" horiz-adv-x="1140" d="M109 680q0 18 10 39q6 12 26 29q12 10 35 16t39 4q35 0 57 -8q25 -8 48 -29q20 -16 34 -41q18 -31 27 -51q20 -82 33 -121l37 -119q4 -14 16 -43q10 -25 25 -41q16 -20 32 -30q20 -14 45 -15q25 6 35 20.5t21 33.5q8 14 14 38q4 14 12 39q12 53 21 119q8 70 10 105 q10 113 14 252q0 13 1 25q0 101 -21 220l-2 4q-2 4 -4 4l-8 9q-47 0 -70 2q-27 2 -70 14q-33 12 -47 43q-10 20 -10 43q0 10 2 21q0 25 12 47q14 25 31 41q18 18 41 26q27 10 49 10q46 1 86 2q63 0 119 -4q113 -6 203 -20q49 -12 78 -45q33 -35 47 -78q6 -15 6 -31 q0 -4 1 -15t1 -17q-2 -23 -17 -35q-8 -8 -32 -17q-12 -4 -39 -4q-8 0 -19.5 -1t-15.5 -1h-21q-16 0 -22 -2q-12 -4 -18.5 -8t-10.5 -18v-23q0 -6 4 -22q10 -100 11 -244q0 -147 -13 -246l-16 -123q-8 -61 -25 -125q-16 -66 -39 -119q-23 -51 -63 -110q-29 -33 -45 -45 q-20 -14 -55 -31q-25 -10 -62 -18q-31 -6 -59 -6q-61 0 -105 20q-51 25 -88 55q-41 35 -71 78q-47 66 -58 84q-49 82 -90 195q-41 111 -59 206l-6 31q-2 11 -2 31z" />
<glyph unicode="K" horiz-adv-x="1136" d="M176 246q0 51 2 76q2 16 2 51t2 51q2 18 2 51q0 35 2 53l4 50q2 8 2.5 25.5t2.5 25.5q0 8 3 25.5t5 27.5t5 26.5t3 24.5q6 45 6 90q0 31 4 92l6 89q2 29 11 90q6 23 14 75q6 37 22 78q20 49 37 70q27 33 64 47q23 3 33 3q7 0 14 -1q27 -4 43 -14q25 -16 33 -29 q14 -20 16 -43q6 -51 6 -102v-101q76 72 101 94l104 95q8 6 51 34q14 10 58 29q18 8 59 17q31 6 61 0q28 0 50 -13q18 -10 34.5 -30.5t22.5 -42.5q5 -20 5 -36q0 -7 -1 -14q-2 -47 -30.5 -88t-63.5 -67l-88 -62l-88 -63l-33 -25q-18 -12 -33 -26q-10 -10 -27 -31 q-10 -14 -14 -37q3 -28 12 -55q6 -18 23 -51q8 -16 29 -50l30 -47l90 -127l89 -129l28 -51q15 -28 25 -55q14 -45 16 -60q4 -35 -2 -61q-4 -25 -10 -37q-6 -14 -21 -31q-12 -14 -28.5 -24t-36.5 -10q-16 -3 -32 -4q-31 0 -56 14q-41 23 -64 53l-47 80q-33 53 -47 78 l-106 159l-107 158q-2 -29 -2 -86t-2 -86q-4 -57 -4 -88q0 -27 -4 -84q-2 -35 -12 -76q-8 -35 -33 -73q-25 -29 -39 -37q-25 -14 -41 -19q-29 -8 -41 -8q-27 0 -41 2q-25 8 -39 27q-16 20 -22 41q-8 27 -11 47q-2 12 -4 25.5t-2 23.5v76z" />
<glyph unicode="L" horiz-adv-x="1112" d="M168 494q0 33 2 49q4 35 2 51q12 119 20.5 186.5t32.5 186.5q20 115 68 223l20 51q20 49 25 53q16 27 35 45q20 20 47 29q13 3 23 3q14 0 26 -5q23 -10 35 -25q14 -18 20 -41q6 -20 2 -47q-6 -121 -6 -125q-2 -14 -4 -38.5t-4 -46t-4 -39.5q-2 -37 -14 -111l-13 -111 q-9 -55 -12 -110l-8 -111l-4 -76q-1 -12 -1 -26q0 -9 0.5 -25t0.5 -24q0 -33 10 -74t29 -68q57 6 112 19l115 24l108 25q41 8 107 16q35 0 63 -14q37 -18 54 -35q25 -20 37 -43q12 -21 11 -43q0 -8 -1 -16q-2 -16 -15 -29q-8 -8 -24 -20q-37 -25 -74 -43q-35 -18 -78 -31 l-82 -25l-79 -24q-70 -18 -164 -33q-60 -9 -123 -9q-19 0 -39 1q-45 4 -76 20q-37 20 -61 45q-23 23 -47 62q-14 23 -31 71q-27 70 -37 150q-5 44 -5 99q0 27 1 59z" />
<glyph unicode="M" horiz-adv-x="1583" d="M176 457q0 90 10 202q6 82 23 185q12 76 41 182l31 98q20 53 43 97q12 23 26 45q4 10 29 43q15 22 37 37q18 14 49 20q10 2 21 2q26 0 51 -10q27 -10 55 -39q27 -25 41 -59q16 -37 24 -66l31 -158q23 -115 33 -155q2 -20 12 -39l12 -37l54.5 92l48.5 78l102 170 q41 55 51 72q25 39 52 69q27 33 63 60q31 23 78 32q57 -6 94 -26q45 -25 71.5 -60t45.5 -82q16 -43 27 -94q10 -49 12 -100q1 -14 1 -30q0 -25 -3 -68q0 -23 -4 -64l-8 -61q-8 -37 -11 -66l-6 -63q-3 -38 -3 -75.5t3 -74.5q4 -43 17 -145q12 -90 16 -136q5 -54 5 -100 q0 -19 -1 -37q-10 -25 -23 -37q-14 -14 -32 -26q-12 -8 -41 -17q-31 -8 -41 -10q-16 -2 -53 -2q-27 0 -50 8q-25 20 -32 43q-2 8 -8.5 25.5t-8.5 25.5q-39 150 -41 291q-1 66 -1 125q0 93 3 176q4 57 4 82q0 53 2 80q-74 -111 -135 -242q-59 -125 -104 -253q-10 -20 -27 -66 l-24 -68q-6 -14 -15 -28q-12 -20 -20 -29q-14 -14 -25 -20q-16 -10 -33 -11q-35 -4 -57 4q-31 10 -51.5 24.5t-40.5 39.5q-12 14 -29 47q-16 41 -30 94q-10 35 -21 99q-8 72 -14 100l-17 100v-12q-6 -43 -6 -45q0 -22 -6 -43q0 -29 -2 -43t-2 -43l-4 -57v-58q0 -33 2 -49 l6 -47q2 -8 2 -24.5t2 -24.5q3 -25 0 -49q0 -37 -4 -56q-6 -27 -22 -53q-15 -25 -37 -37q-17 -10 -40 -10q-9 0 -18 2q-43 6 -82 29q-35 20 -55 61q-37 80 -37 164q-6 68 -6 201z" />
<glyph unicode="N" horiz-adv-x="1220" d="M168 328q0 17 -0.5 50t-0.5 50q0 58 3 100l6 70q4 49 8 70q14 127 31 194q31 137 47 195q12 33 27 82q8 29 28 86q14 37 37 78q20 33 60 63q43 -6 75 -27q37 -23 58 -49q27 -35 43 -65l37 -76q23 -53 30 -76q15 -40 31 -74l38.5 -110t39.5 -111q12 -37 41 -110 q12 -29 51 -105q6 15 6 31v29q8 86 8 129q0 84 -2 127q0 23 -1 63.5t-1 63.5q0 41 4 127q2 25 11 73q6 41 24 74q4 10 17 31q10 18 22 26q6 4 31 15q16 6 33 4q47 -6 77 -31q33 -27 50 -59q18 -37 24 -80q5 -34 5 -61q0 -11 -1 -21q-4 -66 -4 -100q0 -49 -6 -99l-6 -96 q-2 -25 -3 -49.5t-3 -48.5q-2 -37 -10.5 -121t-10.5 -121q-4 -74 -8 -115q-8 -72 -14 -114q-6 -39 -19 -70q-12 -35 -32 -64q-25 -35 -48 -57q-29 -29 -63 -35q-57 0 -96 25q-35 23 -72 61q-31 35 -59 78l-52 80l-94 205l-94 203q-8 -16 -16 -58q-4 -16 -9 -57q0 -14 -2 -47 t-2 -47q-2 -31 -2 -92v-89q0 -29 -4 -90q-2 -27 -6 -59q-2 -25 -14 -61q-10 -29 -31 -48q-25 -20 -57 -20q-31 4 -49 14q-33 18 -43 29q-12 18 -25 45q-6 14 -14 47q-29 99 -29 195z" />
<glyph unicode="O" horiz-adv-x="1165" d="M162 729q12 115 49 225q35 104 106 209q37 53 76 92q35 35 94 70q55 33 108.5 47.5t100.5 14.5q8 0 15 -1q9 1 18 1q45 0 88 -13q52 -15 98 -43q43 -27 80 -65q41 -43 62 -86q23 -43 43 -97q16 -43 26 -102q6 -35 11 -107q1 -14 0 -30q0 -24 -2 -76q-12 -133 -45 -254 q-31 -117 -105 -240q-33 -59 -74 -108q-47 -57 -94 -96q-51 -41 -110 -66q-57 -23 -114 -23q-7 0 -13 1q-68 0 -121 20q-51 20 -99 64q-43 39 -75 88q-31 45 -56 104q-49 113 -63 229q-9 71 -9 140q0 51 5 102zM434 571q0 -76 6 -112q2 -14 11 -58q6 -31 18 -55 q12 -23 31 -39q18 -15 49 -18q45 0 80 22q34 22 61 56q31 37 47 73l33 76q25 68 47 170q18 86 25 172q2 25 2 84q0 45 -13 84q-10 37 -38 68q-25 28 -74 30q-61 -4 -96 -22.5t-70 -57.5q-25 -27 -49 -79q-20 -43 -33 -95q-16 -68 -20 -96q-8 -72 -11 -88q-6 -60 -6 -115z " />
<glyph unicode="P" horiz-adv-x="1034" d="M180 160q8 49 10 76q4 51 11 75q16 84 20 131q4 43 8 129q7 55 7 111v37q-2 37 -2 72.5t2 72.5q-1 20 -1 46q0 15 0.5 46.5t0.5 47.5q0 82 10 139v8q0 49 20 90q20 43 53 72q35 31 76 49q39 16 90 16l90 6q57 4 91 5q86 0 165 -31q78 -31 138 -92q55 -55 84 -140 q24 -68 23 -138q0 -15 -1 -30q0 -47 -16 -96q-16 -51 -41 -88q-33 -51 -62 -80q-39 -39 -77 -65q-88 -63 -189 -101q-102 -37 -207 -55q-2 -8 -2 -22q0 -8 -4 -25q-2 -23 -2 -70q0 -7 -0.5 -22.5t-0.5 -23.5q0 -13 1 -23q0 -12 1 -35t1 -35q0 -47 -2 -70q1 -6 1 -11 q0 -33 -15 -58q-16 -27 -47 -51q-29 -23 -64 -29q-15 -3 -28 -3l-39 7q-29 4 -47 18q-23 18 -33 37q-8 16 -17 49q-6 29 -6 54zM485 885q8 -63 15 -103q51 6 100 25q41 16 94 47q6 4 19.5 11t21.5 14q14 10 37 32.5t31 36.5q10 18 14 47q1 6 1 13q0 18 -7 36q-2 6 -7 22.5 t-9 25.5q-4 10 -11 20q-6 12 -14 21q-12 12 -18.5 16t-22.5 4q-17 3 -34 3q-23 0 -46 -5q-39 -8 -78 -31q-37 -20 -59 -53q-27 -37 -27 -80q-3 -26 -3 -51t3 -51z" />
<glyph unicode="Q" horiz-adv-x="1126" d="M147 635q10 125 43 239q37 125 95 230q25 45 67 102q45 59 86 92q47 37 105 64q55 25 119 24q7 0 14 1q49 0 92 -19q49 -23 88 -57.5t68 -83.5q31 -51 45 -97q35 -96 47 -215q8 -69 7 -135q0 -45 -3 -88q-6 -57 -14 -100q-10 -55 -25 -103q-20 -66 -35 -98 q-20 -45 -53 -92q12 -20 41 -61l41 -64q12 -18 33 -59q10 -20 10 -48q0 -12 -2 -24q-2 -18 -17 -39q-16 -25 -26 -35q-14 -14 -35 -24q-25 -12 -41 -15q-29 -4 -43 -4q-18 37 -51 84q-12 18 -64 74q-33 -51 -88 -80q-51 -27 -103 -27h-9q-59 0 -106.5 20.5t-88.5 55.5 q-35 31 -70 78q-33 45 -53 90q-47 98 -65 201q-12 65 -12 136q0 38 3 77zM393 453q0 -43 6 -84q6 -43 26.5 -72t66.5 -39h6q20 0 37 16q14 16 24 37q-4 4 -16.5 23.5t-18.5 30.5l-39 51q-10 12 -26 55q-11 27 -11 52q0 6 1 12q0 23 8 39t26.5 30t34.5 21q20 6 39 4 q47 0 86 -21q35 -18 70 -53q12 52 18 104q8 70 10 105l7 100q1 13 0 27q0 33 -5 72l-6 61q-2 20 -14 53q-10 27 -24.5 41.5t-45.5 18.5q-43 -6 -73 -33q-27 -25 -52 -66q-23 -41 -36 -77l-11.5 -35t-15.5 -41q-31 -98 -45 -176q-16 -92 -25 -177q0 -12 -1 -38.5t-1 -40.5z " />
<glyph unicode="R" horiz-adv-x="1273" d="M182 188q0 66 11 148l8 51.5t6 44t6 51.5q16 102 22.5 153.5t22.5 154.5v98q0 31 -8 96q-2 33 -2 94q0 14 1 29.5t3 34t2 31.5q2 25 16 63q12 33 33 59q20 25 49 45q25 16 64 21q111 14 190 16q127 4 193 4q39 0 69 -8q27 -8 66 -26q25 -12 55 -39q29 -25 47 -49 q37 -47 62 -121q18 -53 17 -111q0 -15 -1 -29q-4 -66 -35 -120q-35 -61 -78 -107q-59 -59 -104 -90q-55 -37 -123 -64q57 -41 123 -96q51 -43 113 -104l47 -49q33 -33 47 -49.5t39 -53.5q14 -20 28 -61q2 -14 3 -45q0 -29 -5 -43q-4 -20 -8 -35q-6 -20 -18 -35 q-12 -16 -26.5 -24.5t-35.5 -12.5q-19 -4 -36 -4q-33 0 -66 14q-47 20 -80 64l-35.5 49.5l-27.5 38.5l-64 86q-86 86 -133 127l-141 117q-4 -16 -9 -41q-4 -29 -4 -41q-2 -23 -2 -66q0 -10 -2 -31.5t-2 -33.5l-8 -88q-4 -45 -18 -88q-10 -27 -25 -47q-23 -33 -31 -39 q-20 -16 -37 -23q-13 -4 -24 -4q-8 0 -17 2q-41 4 -63 21q-29 23 -43 43q-12 18 -25 59q-7 23 -6 47q-1 8 0 16zM524 932q-1 -23 -1 -44q0 -34 3 -63q47 8 99 29q46 18 92 43l41 25q14 8 38.5 28.5t32.5 34.5q12 23 19 45q2 8 1.5 15.5t-1.5 15.5q-2 10 -10 26q-6 12 -21 23 q-8 6 -28.5 6t-61.5 -1t-61 -1q-41 0 -123 -4l-4 -2q2 -2 2 -6t2 -6q-6 -14 -6 -29q0 -18 -5 -29q-4 -36 -8 -106z" />
<glyph unicode="S" horiz-adv-x="1167" d="M168 250q0 18 14 33q14 12 35 16q33 -4 49 -10q20 -8 47 -15q12 -4 24.5 -7t24.5 -7q31 -8 52 -10q25 -2 80 -2q41 0 88 10q61 14 88 23q39 14 75 41q39 29 58 59q23 39 28 86l7 25q4 16 4 22l-2 16l-9 7l-77 -5l-78 -6t-78 -2q-14 0 -38.5 -1t-37.5 -1q-25 0 -73 4 q-35 2 -70 13q-34 9 -68 24q-29 12 -59 37q-27 20 -43 53q-18 35 -23 62q-8 45 -8 69q0 47 4 70q8 94 62 197q47 92 129 170q72 74 168 120q93 45 187 46q6 0 11 -1q68 0 127.5 -14t118.5 -47q55 -31 96 -78t60 -110q2 -2 6 -23q2 -8 2 -22q3 -18 -6 -31q-8 -12 -23 -19 q-8 -4 -28 -8q-16 -4 -29 0q-76 10 -135 37q-29 14 -66 25q-34 9 -67 12q-57 0 -107 -14q-52 -15 -98 -43q-41 -29 -45 -33q-20 -16 -37 -41q-18 -27 -27 -47q-12 -33 -12 -51q-2 -14 0 -27q3 -15 12 -25q12 -12 21 -16q14 -6 26 -4q33 0 64 6q10 2 31.5 5t31.5 5 q45 8 65.5 12.5t61.5 4.5q84 0 150 -29q76 -33 117 -92q23 -31 34 -62q12 -35 19 -69q6 -37 6 -74q0 -47 -2 -72q-4 -45 -31 -104q-22 -49 -55 -92q-31 -41 -78 -80q-49 -43 -88 -66q-88 -59 -195 -90q-87 -26 -175 -25q-18 0 -35 1q-61 6 -127 28q-59 20 -121 54 q-18 70 -23 88q-6 28 -10 94z" />
<glyph unicode="T" horiz-adv-x="1193" d="M193 1235q2 16 18 37q14 18 31 26q27 14 37 17q12 4 40 8l216 20l215 19q55 6 163.5 6t163.5 -2q25 -8 53 -23q20 -10 44 -36q29 -35 34 -43q16 -27 17 -54q2 -20 -8 -43q-8 -14 -29 -32q-20 -16 -39 -25q-14 -6 -43 -10q-78 -14 -125 -15q-76 0 -113 2 q-37 -283 -59 -421l-68 -420q-6 -29 -22 -82q-10 -33 -31 -78q-4 -6 -10 -17.5t-8 -17.5t-25 -33q-14 -18 -29 -26q-16 -10 -36 -10q-5 -1 -11 -1q-23 0 -53 9q-33 10 -53 30q-25 25 -35 48q-10 22 -10 45q0 9 2 18q2 33 10 94q8 66 16 94l37 181q18 88 31 182q8 104 12 207 q1 17 1 35q0 79 -11 168q-45 0 -131 -5q-20 0 -64.5 -3t-66.5 -5q-10 2 -18 11q-4 4 -13 16q-4 6 -8 18q-2 2 -4 8.5t-4 10.5q-15 37 -15 77q0 7 1 15z" />
<glyph unicode="U" horiz-adv-x="1107" d="M186 504q2 37 11 121q8 82 14 123l16 122l17 123q4 37 4 57.5t-4 57.5q3 28 0 55q-2 20 2 58q6 29 24 57q12 18 43 45q37 25 58 33q31 12 61 18q49 -20 72 -53q23 -35 33 -82q10 -51 10 -96q0 -35 -4 -92q-4 -47 -17 -142l-18 -141q-4 -35 -9 -72l-10 -71 q-12 -90 -16 -144q0 -41 -2 -63q-1 -6 -1 -13q0 -3 5 -55q2 -33 19 -57q16 -27 49 -35q27 0 47 12q22 12 37 31q16 20 28 41q10 18 19 45q18 49 24 98q2 25 6.5 50.5t8.5 50.5q10 53 12 100l8 102q8 66 10 99t11 98l7 47t9 49q12 61 21 95l20 61q12 34 31 61q20 33 45 45 q23 13 51 13h12q27 -2 53.5 -22.5t40.5 -37.5q8 -6 33 -43q14 -20 15 -53q-2 -4 -4.5 -11t-2.5 -11l-8 -23q-12 -12 -18 -29q-6 -14 -15 -28q-8 -37 -10 -56q-4 -39 -2 -57q-4 -23 -4 -70t-2 -71.5t-2 -71.5q0 -20 -4 -70q-8 -84 -29 -194q-20 -106 -53 -193 q-20 -53 -64 -127q-39 -66 -81 -108q-45 -45 -103 -74q-54 -27 -110 -27q-5 0 -11 1q-8 -1 -16 -1q-35 0 -76 11q-31 8 -84 37q-35 18 -71.5 55t-55.5 72q-51 76 -69 165q-12 59 -13 128q0 27 2 57z" />
<glyph unicode="V" horiz-adv-x="1112" d="M209 1202v25q4 29 20 45q25 25 37 35q14 10 47 22q12 4 52 14q29 0 49 -14q23 -16 35 -37q8 -14 20 -51q8 -25 14 -49q14 -76 21 -162q6 -76 6 -151l4 -160q0 -18 1 -51t2 -59.5t3 -51.5q4 -20 4 -31q0 -12 4 -32q2 -6 11 -29q6 -18 16 -25q14 14 18 23q8 16 11 24 q2 4 6 13.5t4 13.5q4 16 8 25l9 30.5l9.5 30.5l9.5 28.5t9 30.5l45 156l51 154q14 41 51 118q18 39 60 117q16 25 28 47q14 31 29 49q20 29 35 41q16 14 47 25q39 -10 59 -29q18 -16 43 -53q4 -6 31 -59q14 -29 15 -66q0 -29 -11 -59q-8 -23 -26 -58l-15.5 -26t-15.5 -27 q-6 -10 -12 -18t-10.5 -15.5t-10.5 -19.5q-31 -66 -49 -115l-45 -119l-41 -122q-29 -82 -45 -123q-29 -80 -57 -140q-45 -92 -70 -139l-45 -69q-23 -35 -57 -66q-25 -23 -70 -45q-30 -15 -68 -15q-7 0 -14 1q-33 4 -53 16q-23 14 -35 39q-6 16 -18 53q-9 28 -13 55 q-8 41 -20 119q-8 57 -13 121q-2 20 -7 61t-7 62q-8 82 -10 123q-16 162 -39 287z" />
<glyph unicode="W" horiz-adv-x="1388" d="M178 418q0 41 4 123l6 123q10 119 29 202q20 98 55 199l35 90q25 61 41 90q27 47 58 78q35 35 81 49q9 1 17 1q32 0 47 -13q18 -16 33 -47q12 -28 12 -62q0 -45 -4 -63q-4 -31 -17 -88q-14 -63 -22 -88q-2 -12 -10 -33q-4 -10 -12.5 -34.5t-49.5 -180.5q-23 -86 -32 -184 q-2 -23 -3 -68q0 -25 9 -66q35 66 53 119q25 70 41 125q14 49 32.5 125t32.5 125q12 39 19 78q6 33 22 74q15 37 50 61q31 23 71 23h10q34 0 64 -19q35 -23 49 -55q18 -37 25 -94q4 -33 8 -99q0 -16 1 -51t1 -51q0 -70 -2 -105q0 -68 6 -131q6 -68 20 -127q43 158 58 291 q4 25 8 73t8 73q6 53 15 145q2 35 10 94l16 92l17 54q2 12 18 49q6 14 27 35q12 12 39 16q49 -6 81 -33q31 -25 54 -67q20 -35 26 -82q8 -57 11 -86q-2 -10 -2.5 -30.5t-2.5 -31.5q-4 -41 -8 -61l-12 -94q-8 -61 -10 -95q0 -29 -2 -43t-2 -45q0 -6 -1 -22.5t-1 -22.5 q0 -16 -5 -45q-8 -84 -34.5 -180t-65.5 -174q-25 -53 -41 -82q-12 -23 -57 -76q-29 -35 -70 -59.5t-88 -30.5h-12q-41 0 -78 17q-41 18 -72 53q-33 37 -53 74q-22 40 -37 79q-16 -35 -43 -82q-20 -37 -55 -77q-27 -33 -74 -58q-39 -21 -78 -21q-5 0 -10 1q-39 2 -76 18 q-37 14 -65.5 41t-50.5 58q-23 33 -35 67q-14 53 -21 119q-6 62 -6 123z" />
<glyph unicode="X" horiz-adv-x="1159" d="M170 176q4 41 10 61.5t23 61.5q6 14 30 59q8 14 15.5 28.5l15.5 29.5l84 121l82 122q14 16 19 29q2 4 16 29q-10 31 -59 149l-62 150l-25 59q-8 20 -20 61.5t-16 64t-4 65.5q4 27 12 39q14 20 28 30q25 16 39 21q33 10 39 10q12 2 39 2q25 0 37 -4q20 -12 27 -23 q4 -6 10 -14t8 -14q39 -57 74 -139l61 -144q28 43 56 92q47 86 55 97q27 41 65 86q34 40 80 67q35 -4 58 -16q27 -14 45 -37q18 -22 30 -49q10 -23 11 -58q-8 -66 -39 -141q-27 -66 -68 -131q-37 -59 -86 -125l-90 -121l82 -162l82 -161l61 -125q31 -61 49 -129 q-6 -25 -20 -41q-12 -16 -37 -33q-8 -8 -39 -25q-12 -6 -45 -16q-31 0 -51 12q-29 16 -41 29q-33 31 -37 39q-8 10 -16 21.5t-15 19.5q-47 74 -86 151q-55 109 -69 146l-64 -129q-35 -74 -65 -127q-25 -37 -33 -51q-25 -39 -37 -52q-23 -25 -47 -41q-29 -18 -57 -18 q-18 4 -56 21q-29 12 -41 40q-16 27 -16 54q0 41 -2 59z" />
<glyph unicode="Y" horiz-adv-x="1040" d="M201 997q0 102 12 174q4 33 14.5 57.5t30.5 51.5q14 20 45 39q20 12 59 16q29 4 44 -4q16 -8 30 -28q16 -25 21 -39l12 -43v-125q0 -41 4 -123q2 -6 3 -20.5t1 -20.5q4 -27 12 -43q12 -25 23 -35q14 -14 39 -14q12 2 29 14q4 4 20 25q4 4 9 14l7 14q6 10 19 27l29 61 l30 64q18 33 39 76q8 20 16.5 38.5l18.5 38.5l39 70q20 43 47 64q23 14 41 20q11 3 21 3l22 -3q41 -8 55 -18q33 -20 45 -35q18 -22 31 -49q12 -27 12 -60q-4 -39 -14 -69l-25 -68q-8 -16 -36 -66q-12 -16 -21.5 -33.5t-15.5 -29.5l-95 -141q-61 -94 -88 -144l-84 -182 q-49 -111 -75 -184l-35 -90l-37 -88q-2 -6 -9 -17.5l-14 -23.5q-12 -23 -26 -39q-16 -20 -33 -31q-18 -12 -41 -12q-6 -1 -12 -1q-32 0 -58 13q-29 14 -51 43q-22 28 -30 61q-5 18 -5 38q0 15 3 32q4 53 18 102q15 49 37 99q18 45 47 96l51 94q-45 12 -78 39q-41 33 -59 62 q-27 41 -43 77q-14 33 -29 84q-22 86 -22 172z" />
<glyph unicode="Z" horiz-adv-x="1150" d="M201 147q8 61 35 127q25 63 57 119q45 78 69 115l70 113q68 104 174 251l176 248q-16 0 -49 4h-49h-41q-16 0 -45 -4h-39h-41h-90q-35 0 -86 15q-12 2 -37 10q-8 2 -31 16q-15 9 -24 25q-8 12 -4 37q6 23 22 43q12 16 37 32q23 16 45 25q16 6 45 18q96 35 199 39 q10 0 20.5 1t20.5 1t39 4h41q5 0 14 0.5t13 0.5q7 0 14 -1q51 0 108 -12q66 -14 105 -37q49 -29 77.5 -69.5t28.5 -106.5q-2 -70 -35 -143q-31 -72 -71 -137q-45 -78 -111 -170l-117 -164l-104 -144q-59 -82 -98 -149q78 6 174 22q76 14 172 41l30 7q16 2 54 -2 q25 -2 49 -17q18 -10 33 -35q12 -23 6 -53q-6 -35 -29 -67q-18 -27 -53 -48q-100 -41 -199 -61q-68 -14 -203 -39q-37 -6 -108 -10q-15 -1 -32 -1q-27 0 -77 3q-33 4 -57 18q-23 14 -45 37q-18 18 -35 45q-14 24 -18 53z" />
<glyph unicode="[" horiz-adv-x="880" d="M176 217l6 150l8 149l7 158q2 72 16 155l14 123q4 47 17 125q6 41 26 123q12 53 41 119q4 4 10.5 14t10.5 15q8 12 26 18q86 16 182.5 20.5t184.5 -14.5q20 -2 45 -16q14 -8 35 -33q12 -14 22 -43q8 -23 8.5 -47.5t-14.5 -40.5q-20 -25 -28 -33l-41 -22q-23 -12 -45 -7 q-43 6 -86 7q-14 0 -43 1t-43 1q-2 -4 -4.5 -11.5t-2.5 -11.5l-6 -24l-12 -142q-8 -100 -14 -143q-6 -45 -15 -145l-12 -146q-2 -8 -2 -25.5t-2 -25.5q-4 -37 -8 -51q-6 -49 -6 -52q0 -16 -5 -49q-2 -12 -2 -34v-35q20 -2 66 -2h68q12 2 32 2q23 0 35 2q22 0 43 -6 q18 -4 37 -21q14 -10 25 -33q8 -14 4 -43q-4 -35 -13 -51q-14 -29 -28 -43q-12 -12 -41 -33q-20 -14 -49 -18q-74 -12 -103 -16q-70 -8 -102 -9q-43 2 -90 13q-39 8 -82 32q-43 39 -58 91q-16 53 -12 108z" />
<glyph unicode="\" horiz-adv-x="847" d="M166 1346q4 18 10 26q12 16 21 23q16 12 26 16q15 6 31 6q35 6 67.5 -12.5t51.5 -48.5q8 -16 16 -34.5t19 -37.5q6 -10 30 -72l88 -200q37 -84 78 -207q2 -8 17.5 -61.5t25.5 -81.5l45 -140l41 -116q20 -57 39 -117q23 -82 29 -109q12 -57 4 -112q-6 -33 -28.5 -62 t-57.5 -35q-41 0 -64 21q-29 27 -45 49q-23 33 -35 61q-4 8 -12 30t-14 32q-98 238 -176 452q-86 233 -152 463q-14 51 -20 68q-8 20 -21 65q0 4 -12 66q-8 39 -2 68z" />
<glyph unicode="]" horiz-adv-x="884" d="M164 135q2 18 14 39q10 18 33 33q18 18 38.5 24.5t45.5 6.5l86 -7q29 -2 88 -2q2 4 4 11.5t2 11.5t2 12t2 12q8 84 29 281q4 29 8 84t4 61l12 146l7 51l6 51q0 8 2 25.5t2 25.5l6 52q0 23 2 35t2 34q-45 4 -65 4h-68q-6 0 -17.5 -1t-17.5 -1q-23 0 -35 -2q-14 0 -43 8 q-23 6 -37 21q-16 16 -24 33q-8 18 -2 43q4 33 12 49q14 29 29 43q23 23 41 33t47 14q66 16 100 20q2 0 103 7q57 -4 90 -11q43 -8 82 -34q39 -31 55 -88q14 -49 14 -109l-12 -301l-6 -156q-4 -80 -12 -155l-17 -123q-6 -66 -18 -125q-14 -72 -27 -121q-14 -55 -41 -123 l-20 -29q-8 -14 -29 -18q-88 -20 -184 -20q-88 0 -183 16q-20 2 -45 16q-18 10 -34 31q-12 14 -23 43q-8 22 -8 49z" />
<glyph unicode="^" d="M154 770q6 41 22 80q10 25 35 74q12 25 41 73q6 12 20.5 35l22.5 35q29 35 47 68q8 14 47 67q16 23 53 60q23 23 68 45q45 -14 68 -37q33 -33 51 -62q25 -37 41 -71q2 -4 39 -72q8 -23 30 -76q18 -43 29 -78q12 -40 18 -80q6 -35 2 -83q-4 -23 -14 -39q-14 -20 -29 -31 q-27 -18 -36 -21q-29 -8 -41 -8q-18 -2 -43 4q-22 6 -37 19q-18 14 -29 30q-12 18 -18 39q-23 70 -29 90q-14 51 -27 91q-10 -25 -24.5 -53.5t-28.5 -59.5l-51 -113q-4 -10 -16 -22q-8 -8 -23 -12q-25 -6 -27 -7h-24q-35 4 -49 11q-25 10 -41 24q-16 8 -31 35q-14 25 -16 45 z" />
<glyph unicode="_" horiz-adv-x="1239" d="M137 90q2 23 21 43q12 14 37 29q18 10 45 20q16 6 45 15q74 14 114 16l103 6q28 3 55 0q18 -2 55 -2q37 -4 58 -4h57h64q43 0 63 -2q86 -4 127 -4q6 -4 23.5 -11.5t25.5 -13.5q25 -16 45 -32q20 -18 31 -46q10 -29 2 -57q-6 -18 -18 -31q-8 -8 -29 -20t-33 -14 q-2 0 -14.5 -3.5t-20.5 -3.5q-127 -6 -375 -6q-123 0 -376 4q-29 8 -41 15q-18 8 -33 26q-31 31 -31 76z" />
<glyph unicode="`" horiz-adv-x="438" d="M229 1688q-2 10 0 24q4 25 11 37q8 16 22 31q16 14 31 20q18 6 39 6q23 0 41 -12q23 -14 33 -31q23 -33 24 -39q2 -4 19 -41q20 -49 28 -88q10 -49 4 -96q-4 -16 -8 -26l-14 -23q-10 -14 -23 -20q-16 -8 -26 -9q-47 0 -78 24.5t-51 59.5q-16 29 -31 78q-18 63 -21 78 q2 15 0 27z" />
<glyph unicode="a" horiz-adv-x="1148" d="M131 195q6 113 35 231l59 225l72 223q31 90 88 218l22.5 42.5l28.5 53.5q25 47 66 94q31 37 84 72q47 33 102 35q53 0 94 -23q43 -23 70 -59q31 -41 47 -82q20 -51 29 -90q20 -80 33 -181q8 -61 20 -184q8 -111 14 -178q10 -94 27 -176l20 -60q6 -20 14.5 -61t10.5 -62 q1 -8 1 -16q0 -20 -5 -47q-2 -25 -16 -55q-14 -33 -28.5 -49.5t-43.5 -34.5q-25 -14 -53 -19q-17 -3 -34 -3l-34 3q-31 6 -53 35q-20 27 -27 57q-4 18 -8 64q0 47 -2 72q0 12 -1 35.5t-3 35.5h-43h-43q-29 0 -43 2q-22 3 -43 0q-49 0 -72 -2q-49 -4 -72 -8l-30 -92l-33 -94 l-19 -39q-8 -18 -24 -39q-14 -18 -33 -27q-21 -11 -36 -10h-7q-39 4 -63 21q-31 20 -47 45q-8 20 -17 61q-4 23 -4 66zM506 569h121q14 0 41 -0.5t41 -0.5l41 1l-7 131q-2 20 -6 65.5t-4 65.5q-4 41 -16 123q-10 68 -35 117q-45 -63 -70 -117q-20 -47 -47 -125 q-14 -43 -35 -129q-6 -25 -14 -75t-10 -56z" />
<glyph unicode="b" horiz-adv-x="1230" d="M176 295q0 35 10 80q2 14 8.5 40.5t8.5 41.5q4 20 20 110q6 35 15 109q10 117 14 264q4 172 4 260q45 59 100 98q55 37 125 58q59 20 131 26q65 6 129 7q76 -4 140 -15q71 -12 129 -49q33 -20 53 -43q18 -23 37 -57q14 -27 20 -66q5 -27 5 -50q0 -10 -1 -19 q-2 -66 -34 -134q-29 -59 -74 -120q49 -33 78 -76q31 -46 49 -98q20 -45 26 -105q3 -26 3 -50q0 -31 -5 -61q-6 -65 -37 -122q-27 -51 -73 -105q-43 -49 -99 -86q-66 -43 -112 -63q-111 -51 -244 -72q-58 -8 -120 -8.5t-130 8.5q-49 6 -86 37q-33 29 -53 74q-25 51 -31 90 q-6 47 -6 96zM449 309v-43q20 -2 41 -1.5t45 1.5q43 2 90 13q35 8 86 28q43 18 75 45q34 28 56 68q23 41 24 90q3 14 4 27q0 9 -2 20q-2 23 -16 43q-12 18 -33 31q-20 10 -47 8q-51 -4 -86 -16q-63 -23 -84 -33q-37 -22 -74 -49q-43 -33 -65 -60q-4 -18 -8 -63q0 -10 -2 -33 t-4 -33q-1 -6 -1 -14q0 -5 0.5 -14.5t0.5 -14.5zM498 836q46 15 98 30q59 18 102 39q49 25 84 60q37 37 49 90q2 6 2 12t-2 12q-4 16 -8 23q-8 12 -14 16t-25 4h-41q-14 0 -40.5 -1t-40.5 -3q-41 -4 -78 -24q-35 -20 -56 -56q-16 -29 -24 -77q-4 -41 -4 -62q0 -43 -2 -63z " />
<glyph unicode="c" horiz-adv-x="1144" d="M156 612q14 147 51 256q43 129 117 238q29 47 77 106q43 52 98.5 92.5t116.5 61.5q59 21 114 21q7 0 13 -1q88 -4 154 -45q72 -45 121 -100q33 -41 47 -63q25 -39 37 -68q16 -39 24 -76q7 -30 7 -59v-21q1 -6 0 -12q0 -18 -7 -37q-10 -27 -24 -47q-10 -14 -39 -31 q-23 -12 -51 -6h-10q-35 0 -62 18.5t-47 55.5q-14 25 -29 63q-6 16 -13 33t-13 33q-12 29 -41 51.5t-64 22.5q-41 0 -80 -25q-35 -23 -59 -55q-35 -49 -47 -74q-25 -53 -33 -78q-28 -86 -43 -172q-10 -55 -22 -178q0 -45 -3 -72q-1 -17 -1 -33q0 -25 4 -44q6 -43 22 -66 q18 -29 57 -37q13 -1 27 -1l96 11q63 12 115 50q22 22 43 36l47 33q18 9 37 13q12 2 37 2q29 4 47 -7q14 -8 27 -30q9 -18 12 -43q2 -20 -4 -45q0 -12 -2 -21q0 -2 -1 -9t-3 -11q-23 -57 -80 -109q-51 -45 -113 -76q-51 -29 -119 -53q-55 -18 -127 -22q-9 -1 -17 -1 q-47 0 -89 15q-55 20 -94 47t-76 72q-33 39 -60 88q-47 86 -65 196q-13 74 -13 147q0 33 3 66z" />
<glyph unicode="d" horiz-adv-x="1128" d="M170 305q2 70 12 144q12 98 17 145q6 31 14 86t10 65q8 49 21 152q4 18 8 64q2 20 2 63l6 63q2 25 10 64q2 37 18.5 78t39.5 69q27 33 61 54q33 18 80 22q63 6 129 6t131 -12q68 -12 125 -37q53 -23 107 -65q47 -41 79 -101q29 -53 45.5 -118.5t18.5 -128.5 q2 -34 1.5 -67.5t-1.5 -66.5q-2 -70 -23 -145q-20 -78 -45 -141q-25 -66 -67 -133q-43 -70 -88 -123q-49 -61 -105 -109q-61 -51 -123 -84q-70 -37 -137 -51q-42 -9 -84 -9q-31 0 -59 5q-61 6 -97 37q-41 35 -61 78q-20 35 -35 94q-11 43 -11 84q0 9 1 18zM453 465 q0 -74 10 -125q45 0 82 14q47 18 76 39q39 29 63 56q28 31 49 67q49 72 71.5 156t31.5 164q2 12 2 34v35q0 12 -1 22.5t-1 22.5q0 14 -5 43q-2 18 -12 41q-8 20 -22 37q-23 18 -37 23q-41 12 -45 12q-29 4 -45 4h-45q-29 0 -43 -2q-22 -3 -43 0q-25 -74 -35 -127 q-16 -86 -23 -129q-2 -18 -4 -41t-4 -49.5t-4 -40.5l-12 -129q-4 -86 -4 -127z" />
<glyph unicode="e" horiz-adv-x="1175" d="M170 467q10 133 33 248q37 186 51 250l31 122l32 123q18 31 54 60q27 20 69 39q47 18 78 26q20 4 76 21q86 18 172 24q31 2 66 3l106 -5q33 -4 49 -12q25 -12 41 -29q20 -20 29 -43q10 -27 10 -53q0 -16 -6 -35q-4 -14 -21 -30q-12 -12 -28 -23q-10 -6 -35 -10 q-2 0 -35 -3t-49 -3q-14 0 -42 1t-42 1q-40 0 -80 -6q-53 -8 -78 -19q-31 -12 -69 -41q-35 -25 -43 -63q-4 -14 -9 -35l-6 -37v-10q70 8 107 16l108 25q66 12 107 16q51 6 106 6q31 0 54 -8q33 -12 45 -25q20 -20 28 -42.5t2 -53.5q0 -29 -10 -47q-14 -25 -31 -39 q-12 -10 -41 -26q-23 -14 -47 -17l-104 -12q-33 -4 -107 -8q-39 -4 -100 -17q-51 -10 -96 -37q-29 -20 -39 -34q-20 -29 -29 -45q-10 -18 -16 -48q-6 -25 -6 -49q-2 -33 -2 -94q0 -39 14 -92q61 20 129 53l127 66q61 31 131 57q78 29 137 31q16 0 49 -4q18 -2 43 -17 q20 -12 35 -28q16 -20 25 -39l4 -13l-2 -6q-29 -51 -70 -86q-39 -35 -90 -65q-59 -37 -98 -56q-45 -20 -99 -53l-102 -49q-35 -16 -104 -45q-59 -25 -107 -35q-55 -12 -110 -12q-33 2 -66 16q-31 12 -53 41q-25 31 -33 62q-4 12 -10 34.5t-10 32.5q-16 63 -21 142 q-3 67 -3 101q0 22 1 42z" />
<glyph unicode="f" horiz-adv-x="970" d="M164 231l6 52l6 51q2 16 7 49t7 49q8 63 11 100q4 49 8 148q4 94 8 145q2 14 16 144q6 71 19 141q4 16 4 25q0 16 2 24q14 49 51 82q39 37 82 53l92 25q31 8 97 20q43 12 73 17l74 12l72 6q16 1 29 2q21 0 40 -4q34 -6 62 -24q31 -20 47 -45q20 -23 37 -54q14 -27 14 -63 q0 -20 -10 -31q-8 -8 -29 -20q-16 -10 -33 -13q-25 -4 -34 -4q-35 0 -109 -4q-33 -2 -108 -10l-50 -12q-27 -6 -47 -19q-29 -16 -41 -29q-18 -18 -30 -43q-14 -41 -23 -71q-6 -25 -10 -72q25 6 51 6q16 0 53 4q33 4 54 4h51l84 -6q37 -2 75 -30q31 -23 43 -64q8 -27 9 -55 q0 -14 -2 -29q0 -12 -7 -29q-6 -14 -18 -26q-14 -14 -25 -21q-12 -6 -28 -10q-45 -4 -66 -4h-65q-20 -2 -64 -2q-20 0 -61 -4q-39 -4 -60 -10q-31 -10 -57 -27q-12 -68 -18 -143l-13 -146q0 -31 -8 -88t-16 -86q-10 -31 -15 -39q-8 -16 -24 -33q-14 -14 -33 -20 q-13 -4 -23 -4q-8 0 -16 2q-45 6 -69 29q-33 29 -46 57q-16 39 -22 72q-5 32 -5 56q0 9 1 19z" />
<glyph unicode="g" horiz-adv-x="1171" d="M158 653q10 145 59 271q55 139 145 241q49 59 103 99q66 47 121 71q61 27 131 39q45 8 91 8q23 0 46 -2q35 0 61 -8q37 -10 58 -26q27 -20 41 -43q16 -25 12 -62q0 -23 -2 -35q-2 -14 -14 -35q-8 -14 -27 -24q-12 -8 -37 -4h-12l-12 2q-21 1 -38 1q-35 0 -65 -5 q-57 -10 -100 -29q-51 -23 -90 -53q-45 -37 -74 -78q-34 -43 -55 -92q-29 -66 -39 -101q-15 -52 -25 -104q-6 -35 -14 -104q-3 -27 -4 -62q0 -22 2 -47q3 -58 18 -111q16 -53 51 -86q39 -35 103 -34q70 0 110 32q43 33 72 88q27 49 39 113q14 70 16 113q2 10 2 28 q0 4 1.5 12.5t1.5 14.5l-46 -8q-18 -2 -45 -10q-43 -10 -94 -15q-27 -4 -49 6q-27 10 -39 27q-18 20 -22 41q-6 23 0 49q0 20 10 41q8 16 24 33q25 25 31 29q12 8 37 20l35.5 14.5l44.5 18.5q27 12 80 33q23 8 82 22q39 8 84 12q29 -2 59 -16q29 -12 51 -35q22 -22 37 -49 q10 -18 19 -59q3 -24 3 -49q0 -16 -1 -35q-4 -61 -15 -111q-12 -53 -22 -106q-22 -92 -62 -178.5t-104 -159.5q-31 -41 -66 -70q-49 -41 -78 -57q-45 -27 -86 -37q-47 -12 -94 -12q-10 -1 -19 -1q-51 0 -95 15q-57 18 -103 49q-53 35 -86 74q-41 47 -63 96q-53 96 -76 211 q-13 69 -13 140q0 43 5 89z" />
<glyph unicode="h" horiz-adv-x="1183" d="M172 295q2 35 10 100q8 72 15 103l18 104q12 70 14 105l7 98q4 66 4 98q0 35 4 96q2 23 5 47.5t5 49.5q4 12 8 36.5t8 36.5q8 35 29 72q4 12 16 37q8 18 23 35q12 14 27 26q14 10 36 15q17 3 31 2q34 0 55 -15q31 -23 48 -63q18 -45 20 -88q1 -12 1 -24q0 -30 -5 -62 q-12 -115 -21 -172q-12 -86 -22 -172q41 -4 63 -4h64q27 0 80 4q18 0 38.5 2l41.5 4v16v19q4 25 4 33q0 4 1 15t1 17q6 18 6 35q0 20 2 33q2 23 2 67q0 8 -0.5 23t-0.5 23q0 13 1 22q-1 10 -1 23q0 8 0.5 23.5t0.5 23.5q0 47 2 69q0 16 8 58q6 31 22.5 57.5t39.5 40.5 q19 12 40 12q8 0 17 -2q43 -3 74 -24q33 -23 49 -54q18 -34 24 -73q5 -32 5 -58v-20l-5 -80l-6 -80q0 -14 -2 -40.5t-2 -41.5l-6 -82q-14 -201 -14 -340q0 -55 -1 -169.5t-1 -172.5l-2 -16q-6 -20 -19 -39q-10 -16 -30.5 -32.5t-38.5 -24.5q-23 -10 -41 -13q-27 -6 -45 2 q-20 10 -35 25q-12 12 -23 35q-6 14 -14 43q-12 55 -16 123q-2 28 -2 55.5t2 54.5q3 38 2 55v23q-2 20 -2 40t2 40l-105 -6h-104h-60q-18 0 -59 4q-12 -53 -16 -88q-4 -29 -9 -86q-2 -20 -2 -64v-61q2 -18 2 -59q0 -23 -4 -64q0 -25 -8 -41t-28.5 -30.5t-37.5 -16.5 q-9 -1 -17 -1q-12 0 -23 3q-51 10 -80 39q-33 33 -47 74q-15 43 -19 92q-4 65 -4 90z" />
<glyph unicode="i" horiz-adv-x="550" d="M166 270q0 37 4 115q8 125 14 193l17 192l12 97t10 94l21 190q2 16 6 33.5l8 34.5q6 29 23 63q10 27 14 33l7 12l11 19q12 16 27 24q20 12 33 16q9 1 16 2q32 0 60 -20q34 -25 49 -61q14 -37 16 -74q2 -20 2 -38.5t-2 -37.5q-4 -74 -8 -110q-8 -68 -14 -109 q-4 -29 -8.5 -57.5t-6.5 -57.5q-2 -18 -5 -56t-5 -56q-6 -61 -6 -123q0 -37 -4 -119q-2 -39 -2 -115q0 -47 -11 -112q-4 -53 -12 -78q-20 -61 -29 -78q-4 -14 -18 -35q-20 -31 -25 -35q-16 -16 -32 -24q-18 -10 -39 -12q-23 0 -31 4q-10 4 -22 14q-16 12 -22.5 20.5 t-14.5 24.5q-8 18 -17 55q-8 33 -10 60q-6 59 -6 112z" />
<glyph unicode="j" horiz-adv-x="1148" d="M135 600q-1 27 -1 51q0 38 3 74q0 23 17 39q18 18 36 27q14 6 43 14q22 6 43 6q27 -6 43.5 -22.5t26.5 -40.5q14 -35 19 -50q6 -27 12 -49q12 -35 18 -76q6 -31 17 -75q12 -53 22 -82q12 -33 39 -74q20 -33 51 -53q33 -20 74 -21v4t2 4.5t4 4.5t2 4v16l2 4l8 53 q4 33 5 54q4 33 4 51q0 8 1 25.5t1 25.5q4 33 4 51q0 35 2 51q10 115 14 258q1 31 1 61q0 103 -9 198q-45 4 -66 8q-33 6 -63 18q-25 10 -53 35q-23 20 -33 55q-8 20 -8 31v33q0 29 22 47q20 16 49 20q125 8 209 8q42 0 80 -2q131 -6 287 -28q18 -2 35 -19q12 -12 22 -28 q18 -27 21 -37q6 -20 6 -41q0 -43 -25 -68q-23 -23 -57 -35q-31 -10 -72 -14q-25 -2 -67 -2q-4 -66 -4 -194.5t-2 -194.5q0 -203 -21 -389q-6 -58 -25 -123q-18 -61 -55 -114.5t-88 -86.5t-111 -33q-5 0 -10 1q-6 0 -13 -1q-56 0 -108 23q-66 29 -102 61q-45 39 -82 89 q-31 43 -63 102q-35 63 -52 108q-18 49 -36 117q-15 58 -19 121z" />
<glyph unicode="k" horiz-adv-x="1193" d="M176 295l6 106l6 109q2 16 5.5 53t5.5 55q8 68 10 111q0 8 1 17.5t2 15.5t1 16q4 33 4 47l6 49l6 48q8 74 17 112l24 111q14 49 21 63q23 53 24 60q4 4 9.5 14t7.5 14q12 20 18 29q12 16 21 23q14 10 30 16q8 1 16 1q27 0 50 -9q31 -12 47 -45q16 -29 21 -68q1 -16 1 -30 q0 -23 -4 -44q0 -12 -8 -41q-10 -33 -10 -38q-8 -31 -10 -41q0 -8 -2 -20.5t-4 -18.5q-4 -20 -4 -29v-29q86 78 124 117l123 119q2 2 54 47q37 33 55 47q33 27 59 39q35 18 70 20q31 -3 55 -18q27 -16 45 -41q20 -27 29 -55q10 -35 10 -62q0 -10 -8 -26.5t-16 -24.5l-25 -18 q-8 -6 -25 -15q-20 -14 -55 -30q-43 -18 -57 -29q-76 -51 -143.5 -118.5t-124.5 -137.5q14 -20 30.5 -39.5t24.5 -32.5q4 -6 55 -67q37 -51 94 -115q49 -55 93 -117q51 -74 75 -127q31 -68 37 -143q-2 -20 -16.5 -45t-28.5 -39q-20 -20 -40.5 -28.5t-47.5 -12.5 q-28 0 -49 12q-18 10 -39 31q-10 10 -31 39q-2 4 -12 18.5t-16 22.5l-82 131l-80 131q-12 14 -37 47q-31 41 -37 47q-27 27 -43 39q-20 16 -53 27l-8 -53q-4 -37 -9 -56q-2 -18 -6 -51q-6 -49 -6 -53q-2 -18 -2 -60v-57q2 -29 2 -58t-2 -57q2 -16 -4 -39q-6 -20 -23 -36 q-18 -16 -32 -23q-13 -4 -25 -4q-8 0 -16 2q-53 10 -82 39q-33 33 -47 74q-18 51 -21 90q-4 65 -4 92z" />
<glyph unicode="l" horiz-adv-x="972" d="M172 297v43q2 53 12 111l17 112q8 39 20 117l19 117q4 70 4 100q0 16 2 49t2 51q6 94 6 97q2 16 5 49t5 49q2 27 12 57q8 29 29 56q18 23 41 41q20 14 57 22q13 1 24 2q36 0 58 -18q31 -25 45 -64q14 -37 15 -84q0 -59 -4 -84q-8 -84 -25 -168l-33 -170q-18 -90 -30 -170 l-21 -170q-4 -57 -4 -87.5t4 -88.5q82 10 150 39l143 66l63 30q27 14 66 21q25 6 53 -2q27 -6 45 -23q16 -14 27 -41q5 -12 5 -26t-5 -29q-12 -43 -41 -78q-27 -33 -65.5 -61.5t-75.5 -48.5l-78 -43l-84 -35q-57 -20 -86 -28.5t-86 -16.5q-22 -3 -44.5 -3t-43.5 3 q-51 6 -92 24q-45 18 -70 60q-23 47 -29 86q-4 29 -8 94q-4 29 -4 43z" />
<glyph unicode="m" horiz-adv-x="1406" d="M180 293q-2 43 -1.5 86t1.5 86q4 115 27 272q18 131 53 273q10 59 27 106q25 70 39 105l24 49q16 25 33 45q14 16 43 37q22 15 49 18q11 1 20 1q17 0 29 -5q25 -10 39.5 -24.5t28.5 -38.5q8 -14 16 -43q53 -193 74 -289q25 -119 47 -297l84 203l84 202q25 43 41 80 q23 53 43 86q16 27 57 72q29 31 76 47q39 -6 63.5 -22.5t47.5 -45.5q14 -18 35 -59q8 -16 22 -63q27 -78 31 -136q5 -56 5 -103q0 -19 -1 -38q0 -34 -6 -68q-4 -20 -8 -69q-8 -43 -11 -70l-8 -69q-1 -10 -1 -23q0 -18 3 -55q2 -20 2 -39t-2 -37q2 -35 2 -72.5t-2 -72.5 q-4 -96 -14 -144q-4 -16 -17 -49q-6 -12 -10 -24.5l-8 -24.5q-8 -14 -33 -43q-16 -20 -43 -27q-10 -2 -20 -2q-14 0 -31 4q-20 6 -45 23q-16 12 -35 37q-10 14 -18 47q-2 18 -2 59q0 20 4 62q2 23 4 63.5t4 61.5l6 127q3 60 3 117q0 75 -5 145q-31 -68 -70 -172 q-45 -119 -69 -176q-35 -80 -84 -166q-46 -80 -111 -148q-27 0 -45 10q-25 14 -37 29q-20 25 -26 39q-10 25 -17 45q-18 51 -32 117q-10 49 -23 121q-10 47 -20 120q-12 78 -23 121q-12 -66 -18 -125q-4 -43 -9 -125q-3 -32 -3 -49q0 -11 1 -20l4 -70q0 -43 2 -65 q2 -17 2 -35t-2 -35q0 -10 -2 -30.5t-2 -30.5q-2 -29 -16 -60q-8 -12 -20 -22q-12 -8 -27 -13q-16 -4 -27 -4q-20 0 -28 2q-47 6 -74 39q-33 39 -43 74q-25 88 -27 168z" />
<glyph unicode="n" horiz-adv-x="1153" d="M166 156l8 80q2 37 12 77q12 53 17 80q8 53 10 80q0 23 2 72t2 71q2 47 2 142l8 139q2 49 15 139q6 45 18 88l29 88q6 12 18 41l19 41q9 22 24 37q16 16 37 23q25 4 41 -2q20 -6 35 -19q20 -16 29 -26q10 -14 20 -33q18 -31 37 -80l29 -82q23 -66 43 -131q18 -57 47 -133 q53 -135 123 -256q0 16 -1.5 47t-1.5 45v90q0 29 -1 86.5t-1 83.5q0 55 9 170q4 35 8 78q6 45 18 84q12 41 39 67q25 25 76 29q29 -4 39 -12q16 -12 29 -29q8 -10 20 -35l7 -18l7 -18q16 -53 21 -80q7 -43 7 -67q0 -8 -1 -15l-4 -47q0 -6 -2 -22.5t-4 -24.5l-8 -99 q-4 -143 -5 -217q0 -72 -4 -215q3 -67 3 -100q0 -22 -1 -41q-4 -74 -12 -144q-3 -31 -12 -61q-8 -27 -29 -57q-16 -25 -43 -45q-25 -18 -59 -25q-51 4 -84 31q-35 29 -62 63q-31 41 -49 78q-16 33 -45 78l-90 192q-20 45 -82 197l-6 -147q0 -25 -4 -75t-4 -75q-2 -16 -5 -48 t-5 -48q-4 -33 -21 -99q-2 -4 -8 -25.5t-10 -31.5q-12 -27 -27 -47q-18 -25 -35 -35q-14 -8 -31 -8q-8 0 -16 2q-25 2 -49 18q-29 18 -43 35q-12 14 -29 47q-10 23 -14 54z" />
<glyph unicode="o" horiz-adv-x="1206" d="M160 674q12 125 55 244q39 111 121 221q31 47 82 98q46 46 98 80q49 31 115 51q62 19 109 19q7 0 14 -1q55 0 110 -22q49 -20 92 -57t76 -82q35 -47 55 -95q45 -92 68 -212q14 -71 14 -150q0 -39 -4 -80q-10 -129 -53 -239q-45 -113 -121 -222q-35 -49 -82 -96 q-43 -43 -100 -80q-53 -35 -113 -53q-53 -17 -108 -17q-8 0 -17 1q-61 0 -110 20q-43 18 -92 59q-45 39 -74 82q-33 49 -55 95q-49 111 -70 211q-14 74 -14 147q0 39 4 78zM424 551q0 -68 12 -131q6 -27 19 -60q12 -31 34 -53q29 -29 48 -37q29 -13 52 -12h9q6 -1 12 0 q27 0 54 10q37 14 57 33q27 23 45 47q25 31 35 55q18 39 33 91q6 23 20 88q6 33 14 84q4 31 9 84l6 114q1 14 0 28q0 45 -9 87q-6 29 -20 51q-14 25 -35 41q-25 20 -45 29q-23 9 -45 9q-5 0 -10 -1q-35 0 -70 -12q-33 -12 -59 -33q-33 -25 -51 -49q-20 -27 -37 -60 q-25 -53 -47 -133q-18 -66 -25 -139q-6 -68 -6 -131z" />
<glyph unicode="p" horiz-adv-x="995" d="M176 205q4 127 14 225q14 127 33 225q0 2 3 14.5t3 20.5q0 23 2 35q4 39 9 117q2 29 1.5 57t-1.5 57q2 18 2 56.5t2 56.5q4 74 10 111q12 57 47 94q37 39 82 63q39 20 102 35q49 10 103 14q15 1 29 1q76 0 145 -15q94 -20 160 -65q37 -31 59 -64q18 -27 37 -76 q12 -35 20 -86q5 -34 5 -64q0 -12 -1 -24q-4 -53 -20 -96q-16 -39 -47 -88q-27 -41 -66 -80q-37 -37 -73 -67q-80 -66 -181 -121q-96 -53 -198 -86q0 -25 -1 -78t-1 -78q0 -86 -9 -154q0 -27 -6 -55.5t-22 -50.5q-18 -27 -39 -37q-14 -7 -31 -7q-11 0 -24 3q-37 4 -66 22 q-25 16 -49 50q-16 25 -27 63q-7 25 -7 53q0 10 1 19zM475 762q63 16 105 41q33 18 94 59q20 14 41 31q23 16 41 35q12 12 32 41q19 27 20 58q0 10 -5 20q-8 16 -17 24l-24 19q-4 4 -27 14q-41 16 -61 20q-31 6 -66 6q-5 1 -9 1l-46 -13q-29 -16 -43 -41q-12 -37 -14 -59 q-2 -10 -5.5 -30.5t-3.5 -29.5l-8 -98q-4 -65 -4 -98z" />
<glyph unicode="q" horiz-adv-x="1150" d="M160 639q10 137 41 246q37 129 94 235q31 55 74 105q41 47 96 86t110 59q51 19 109 19h16q59 0 107 -21q55 -25 90 -53q43 -35 72 -80q31 -47 49 -94q41 -94 57 -207q9 -61 9 -133q0 -39 -3 -84q-12 -114 -43 -228q-29 -109 -94 -215q4 -20 21 -47q8 -14 30 -41 q10 -14 23 -51q8 -27 2 -55q-4 -16 -19 -37q-8 -12 -28 -33q-12 -12 -37 -24q-18 -10 -39 -13l-14 -2l-19 2l-12 2l-14 7l-13 12q-10 20 -18 31q-6 6 -19 32q-35 -35 -86 -57q-47 -20 -100 -20q-7 0 -15 -1q-47 0 -100 15q-59 16 -102 45q-51 35 -86 72q-37 41 -63 92 q-53 94 -70 211q-10 69 -10 140q1 42 4 85zM418 494q4 -53 8 -78q6 -37 24.5 -68t45 -51.5t71.5 -26.5q18 0 33 6t31 19q-8 10 -16.5 19.5t-16.5 19.5q-27 37 -29 41q-14 25 -22 47q-8 25 -6 51q2 14 12 39q9 22 25 37q18 18 34 26q25 12 39 13q18 -2 39 -17q25 -16 33 -28 l8 -11.5l7 -9.5t10 -12q8 -10 24 -35q29 57 41 115q8 43 16 117q6 59 7 114q0 58 -7 117q-6 25 -16 59q-10 33 -22 50q-18 25 -35 34q-25 14 -47 15q-9 1 -18 0l-56 -9q-35 -12 -66 -32q-29 -20 -53 -51q-20 -27 -39 -66q-31 -78 -39 -145q-12 -98 -16 -148q-2 -12 -3 -35.5 t-1 -36.5q-2 -20 -2 -39.5t2 -39.5z" />
<glyph unicode="r" horiz-adv-x="1255" d="M182 313l6 95q4 47 13 96q4 35 16 100q9 49 12 98q6 61 7 119q0 41 4 119q4 37 8 115q4 63 14 114q2 8 7 25.5t5 22.5q4 16 21 45q14 25 29 38q12 12 40.5 29t45.5 21q4 0 20 5t27 7l49 6q29 4 47 8q10 0 31.5 3t33.5 5q23 2 64 2q53 0 82 -2q53 -4 82 -8q31 -4 78 -20 q43 -14 71 -33q31 -23 54 -57q25 -39 34 -72q16 -53 19 -80q3 -38 3 -58q0 -13 -1 -24q-2 -31 -17 -67q-16 -45 -28 -66q-18 -29 -41 -59q-23 -29 -49 -56q-45 -49 -115 -102q-63 -47 -131 -74l57 -82l56 -82q29 -43 63 -73q45 -41 78 -58q25 -16 63 -34q34 -15 62 -37 q29 -18 45 -47q14 -23 14 -49q0 -8 -2 -17q-6 -25 -18 -43q-12 -20 -33 -33q-12 -8 -41 -20q-14 -6 -45 -10q-22 -3 -42 -3.5t-40 3.5q-39 6 -76 24.5t-67 42.5q-27 23 -56 53l-108 138l-111 135l-11 11t-13 12t-11 12q-10 12 -38 28q-2 -12 -4.5 -22.5t-2.5 -22.5 q-4 -29 -4 -45q-2 -20 -2 -63q0 -45 -2 -66q0 -10 1 -30.5t1 -30.5q0 -43 -2 -64q0 -31 -2 -47q-2 -10 -16 -45q-8 -18 -29 -33q-16 -11 -36 -11q-4 0 -9 1q-29 4 -47 14q-25 14 -37 29q-14 16 -27 39q-12 22 -18 43q-18 46 -25 92q-6 45 -6 96zM475 915q-1 -13 -1 -24 q0 -42 9 -78q45 2 115 21q45 12 109 53q49 27 84 80q31 47 36 108q1 7 2 11q0 7 -4 12q-6 10 -16 16q-6 4 -23 8q-4 1 -7 1q-2 0 -7 -0.5t-8 -0.5q-15 2 -32.5 2t-33.5 -2q-41 -4 -63 -4q-14 0 -28.5 -2t-31.5 -4q-20 -2 -61 -2q-16 -2 -22 -18q-6 -14 -7 -27v-23 q0 -16 -2 -24q-4 -37 -8 -103z" />
<glyph unicode="s" horiz-adv-x="1171" d="M170 264q-2 10 6 35q6 18 19 31q14 14 28.5 20t34.5 2q33 -4 51 -8q20 -6 45 -22q33 -16 47 -25q12 -6 22.5 -13.5t22.5 -13.5q70 -29 158 -28q51 0 94 8t88 39q23 18 39 43q10 14 23 47q10 25 12 45l6 45q4 37 4 59q0 25 -10 56q-6 2 -14 6q-4 2 -17 2q-45 0 -88 -12 l-88 -25l-86 -25q-38 -11 -72 -10h-16q-7 -1 -14 0q-32 0 -68 10q-40 12 -73 37q-33 23 -56 56q-29 39 -39 69q-27 74 -30 158q-1 19 -1 37q0 68 11 125q6 47 22 82q20 45 43 75q25 35 60 66q29 27 69 53q76 53 160 76q86 23 168 22q63 -4 113 -14q45 -10 100 -41 q4 -2 20.5 -13t24.5 -18q25 -20 39 -40q16 -23 25 -46q10 -27 10 -55q2 -25 -12 -47q-12 -18 -33 -27q-29 -12 -45 -14q-25 -2 -45.5 0t-61.5 14l-59 21q-18 8 -59 20q-27 8 -62 9q-7 1 -14 0q-34 0 -68 -13q-39 -14 -78 -41q-31 -23 -55 -59q-23 -33 -29 -78q0 -46 19 -86 q2 -4 5 -9t5 -9t6 -8.5t6 -8.5q4 -4 15 -12q10 -6 20 -6q49 8 72 16q18 6 34.5 13.5l30.5 13.5q47 20 84 31q51 14 84 14q35 0 72 -10q29 -8 63 -29q37 -23 56 -41q23 -23 43 -53q35 -57 51 -125q10 -42 10 -85q0 -26 -4 -52q-12 -100 -51 -187q-39 -88 -109 -164 q-31 -37 -73.5 -69.5t-85.5 -52.5q-51 -25 -95 -35q-41 -10 -96 -10q-78 0 -141 20q-68 22 -129 55q-2 2 -25.5 16.5t-34.5 22.5q-31 25 -51 47q-22 25 -37 56q-16 32 -16 67z" />
<glyph unicode="t" horiz-adv-x="1146" d="M164 1171q6 27 26 48q27 27 43.5 35t53.5 20q12 4 26.5 8t26.5 8q23 6 68 15q14 2 31.5 6l35.5 8q49 12 152 29q51 8 149 20l86 6q10 0 28.5 0.5t26.5 0.5q15 0 27 -1q23 -2 72 -14q39 -10 67 -27q37 -23 54 -43q25 -33 32 -63q-6 -35 -26 -60q-20 -27 -58 -32 q-20 -5 -44 -6q-12 0 -27 1q-25 2 -74 3q-18 2 -57 2q-23 0 -56 -15l-6 -55q-2 -8 -4 -26.5t-4 -29t-31 -237.5q-16 -129 -26 -237l-8 -89q-4 -61 -9 -90q-4 -61 -8 -88l-8 -88l-10 -61q-4 -18 -21 -62q-10 -27 -34.5 -51t-59.5 -26q-63 8 -94 49q-31 39 -43 96 q-12 55 -12 115q0 45 4 110q8 68 14 107l20 106q6 29 12.5 56.5t10.5 52.5q4 18 9 56l7 54q4 49 4 148q0 49 -12 147q-14 -2 -47 -6q-29 -4 -47 -10l-45 -6l-43 -6l-29 -2q-22 0 -39 4q-35 6 -59 20q-27 12 -39 41q-8 18 -8 39q0 10 2 20z" />
<glyph unicode="u" horiz-adv-x="1165" d="M182 614q4 82 8 125l17 140q10 86 20 139q14 86 27 137q12 55 43 135q23 37 53 58q35 23 76 22q9 1 16 1q11 0 21 -3q20 -8 31 -16q14 -14 22 -31q6 -12 10 -37q10 -51 11 -90q0 -59 -5 -90q-6 -59 -22 -156l-25 -153q-6 -31 -15 -90.5t-9 -65.5q-8 -51 -17 -158 q-2 -25 -2 -73q0 -37 15 -66q8 -16 22 -27q6 -4 31 -14q10 -4 35 -8q12 -2 35 -2h11q61 0 103 31q46 34 74 86q27 51 43 114q14 61 18 115q10 113 11 203q0 117 -11 200q-4 57 -4 84q0 12 -1 40t-1 42q0 27 6 54q6 31 21 49q18 27 37 37q25 14 51 8q29 -4 51 -17 q18 -10 41 -32q14 -14 29 -43q8 -16 20 -50q37 -137 39 -262q1 -33 1 -63q0 -106 -9 -207q-10 -119 -45 -225q-39 -117 -96 -211q-29 -45 -68 -94q-41 -53 -84 -87q-46 -37 -98 -61q-47 -23 -111 -22q-8 0 -16 -1q-55 0 -111 17q-53 16 -108 57q-49 37 -86 86 q-33 43 -58 111q-20 55 -32 117q-10 55 -15 122q-2 31 -2 62t2 63z" />
<glyph unicode="v" horiz-adv-x="1003" d="M207 1167q0 27 4 41q4 33 8 45q6 20 21 43q14 20 28 33q18 15 43 19q23 6 41 0q20 -6 35 -19q16 -14 25 -29q8 -16 14 -34q9 -43 12 -86l6 -84q4 -41 8.5 -82t6.5 -80q8 -113 14 -162q6 -55 27 -162q10 -53 35 -159q29 78 38 116l33 119q14 59 31 119l31 121 q33 123 37 133l45 129l24 59q10 27 28.5 55.5t35.5 43.5q20 16 49 20q33 -2 55 -20q25 -18 39 -41q16 -27 23 -56q7 -33 6 -48v-11q-3 -52 -13 -105t-26 -102q-16 -53 -34.5 -104.5t-35.5 -104.5q-20 -84 -63 -219l-68 -217q-16 -41 -37 -102q-14 -43 -45 -109 q-20 -43 -63 -90q-39 -43 -93 -57q-6 0 -19 1t-19 1l-37 6q-8 2 -35 10q-16 6 -31 20q-25 29 -41 64t-24 70q-20 74 -37 157q-10 53 -23 160q-14 88 -16 160l-8 162q-16 123 -23 167q-6 55 -10 170q0 10 -1 19.5t-1 19.5z" />
<glyph unicode="w" horiz-adv-x="1454" d="M209 459q0 49 4 73.5t8 73.5q2 12 7 38t8 38q4 23 8 76q7 64 6 95v21q-2 29 -2 57.5t2 57.5q-1 15 -1 33q0 26 3 78q4 59 12 112q6 14 15 43q8 27 20 39q10 12 33 35q18 18 41 19q27 2 51 -7q29 -10 45 -22q10 -8 33 -39q10 -16 18 -45q4 -39 2 -61l-6 -62l-18 -270 q-6 -94 -15 -273q45 123 72 183l84 178l37 78q25 53 39 79q23 43 45 76q25 39 51 70q14 10 27 10q16 0 26 2q25 4 47.5 -6t38.5 -27q8 -14 21 -43q6 -14 14 -43q23 -92 35 -155q27 -133 31 -160q2 -16 5 -50t5 -50l12 -99q12 84 39 293q16 121 23 291q4 29 4 39q0 12 4 37 q0 6 4 20.5t4 20.5q2 20 20 35q37 14 50 14q4 0 12 0.5t12 0.5l12 -1q10 -2 41 -10q23 -6 35 -25q29 -43 45 -98q15 -52 19 -111q2 -39 2 -114v-115q-6 -119 -23 -203q-10 -59 -45 -201l-57 -192q-33 -98 -82 -184q-20 -29 -31 -41q-20 -25 -33 -35q-23 -18 -41 -27 q-23 -10 -45 -12q-31 0 -43 6q-20 10 -34 25q-12 12 -25 36l-18 37q-45 121 -78 242q-39 143 -58 248l-69 -164q-31 -72 -78 -160q-33 -57 -47 -86q-16 -33 -49 -82q-27 -39 -56 -65q-29 -25 -73 -35q-39 4 -66 20q-23 16 -49 45q-14 16 -35 58q-14 29 -24 63 q-20 59 -27 137q-5 56 -5 102q0 20 1 38z" />
<glyph unicode="x" horiz-adv-x="1196" d="M164 188q2 27 16 62q14 33 27 57q10 18 35 55q8 14 18 26.5l21 27.5l90 125q27 37 88 127q12 18 20 34l10.5 16.5t8.5 16.5l-66 139l-63 142l-25 61q-14 35 -22 64l-15 63q-3 19 -3 41q0 14 1 29q4 23 14 39q12 16 29 28q18 12 39 19q18 6 39 8q14 3 28 3l33 -5 q29 -8 52 -31q8 -10 26 -53l25 -57q4 -14 18.5 -55.5l22.5 -63.5q29 -78 41 -119q37 51 49 72l43 74l37 69q25 49 39 72q6 8 18 29q2 4 10.5 14t10.5 16q9 15 24 25q16 10 33 12q35 -4 57 -16q29 -16 47 -37q16 -18 31 -51q10 -23 10 -62q-12 -68 -43 -129q-29 -57 -73 -119 q-31 -43 -88 -110l-89 -109l119 -235l119 -236q12 -25 33 -73q11 -26 11 -63q0 -9 -1 -19q-6 -25 -18 -43q-10 -16 -31 -33q-10 -8 -43 -23q-14 -6 -45 -10q-39 0 -66 18q-25 16 -47 46q-14 18 -39 59q-8 12 -19 34.5t-13 24.5l-62 148l-61 147q-45 -57 -64 -88 q-37 -61 -53 -94q-33 -61 -47 -92q-20 -45 -45 -90l-21 -35q-6 -10 -24 -35q-12 -16 -29 -29q-14 -10 -37 -14q-34 3 -61 18q-23 12 -45 43q-20 27 -29 60q-7 25 -7 49q0 8 1 16z" />
<glyph unicode="y" horiz-adv-x="1042" d="M217 1053q-3 29 -3 58q0 62 13 132q4 29 9 39q6 16 20 35q12 16 28.5 26.5t39.5 14.5q18 6 43 2q18 -2 39 -17q14 -10 28 -30q12 -18 19 -39q2 -16 5 -48t5 -48.5t5 -48t5 -48.5q18 -90 33 -151q20 -84 45 -148q20 39 102 179l109 176q10 16 23.5 41.5t29.5 50.5 q6 10 59 90q20 25 41 37q16 10 36 10q9 0 18 -2q33 -4 53 -18q27 -18 39 -39q14 -23 20 -52q6 -28 6 -55q-8 -43 -26 -74l-43 -67l-53 -74l-54 -74q-70 -102 -112 -176q-66 -113 -99 -184q-49 -109 -77 -193q-35 -100 -56 -198q-6 -31 -14 -64q-10 -35 -29 -57 q-18 -31 -49 -43q-27 -11 -51 -11l-10 1q-28 0 -49 12q-20 12 -33 31q-8 14 -17 43q-6 27 -4 49q2 86 27 192q16 70 61 185q-29 31 -57 82q-23 41 -43 90q-18 45 -31 96l-24 98q-17 83 -27 189z" />
<glyph unicode="z" horiz-adv-x="1187" d="M213 170q12 68 39 123q31 63 61 115l72 112l72 111l178 254l178 252q-70 -4 -111 -9q-53 -6 -112 -18q-29 -4 -57.5 -10t-55.5 -13q-49 -10 -112 -14q-33 -4 -52 -2q-27 2 -51 12q-25 8 -37 29q-14 20 -8 51q27 51 64 76q47 33 84 47q57 23 96 33l94 24q104 22 209 31 q50 4 96 5q56 0 109 -7q25 -2 69 -18q41 -14 64 -33q29 -25 47 -49q25 -31 27 -64q-31 -70 -64 -123l-78 -116l-82 -113l-80 -115l-41.5 -57.5l-48.5 -67.5l-90 -127l-80 -118q-39 -66 -65 -127q25 18 63 37q37 16 70 28q47 18 68 27q33 12 69 29q34 15 68 24q33 8 71 12 q5 0 10 1q52 0 93 -29q18 -14 28 -39q12 -31 7 -51q-2 -29 -23 -56q-18 -27 -45 -45q-16 -12 -53 -28l-58 -27l-143 -51q-129 -43 -145 -47q-80 -20 -150 -29q-50 -6 -95 -6l-52 2q-29 4 -51 22q-14 12 -35 41q-14 29 -22.5 53.5t-8.5 57.5z" />
<glyph unicode="{" d="M121 649q4 41 26 68q23 25 54 41q27 12 69 20q37 6 68 6q-35 39 -49 62q-25 39 -37 67q-16 41 -23 76q-6 45 -2 80q10 76 39 139q31 66 86 119q25 28 56 49q29 20 63 33q34 12 68 18q35 6 69 0q31 -2 66 -20q25 -12 51 -39q27 -25 41 -51q16 -31 12 -66q0 -23 -10 -39 t-29 -30q-14 -10 -37 -15q-27 -4 -38 0q-8 2 -16.5 4.5t-18.5 4.5q-6 0 -17.5 2t-17.5 4q-25 4 -43 -2q-23 -6 -41 -19q-12 -8 -29 -33q-10 -14 -10 -45q2 -20 16 -45q12 -23 27 -39q20 -25 33 -36q23 -23 33 -35q8 -10 17 -18.5t17 -18.5q12 -14 33 -43q14 -20 25 -47 q10 -25 12 -51q0 -23 -14.5 -47.5t-30.5 -40.5q25 -20 33 -35q10 -18 10 -47q-12 -53 -45 -91l-70 -75q-55 -66 -73 -84q-45 -53 -62 -92q23 -14 72 -39q31 -16 80 -13q18 6 43 -2q20 -6 34.5 -20t20.5 -35q6 -22 0 -43q-6 -29 -16 -47q-10 -23 -29 -43.5t-37 -34.5 q-14 -10 -47 -18q-68 -12 -131 6q-66 18 -115 53q-31 20 -51 40.5t-41 51.5q-10 16 -25 62q-10 37 -8 65q4 49 17 86q14 41 37 82q6 10 53 74q25 33 59 67h-29h-24q-25 -2 -59 5q-39 8 -60 20q-27 16 -41 37q-16 24 -14 57z" />
<glyph unicode="|" horiz-adv-x="520" d="M164 182q2 96 10 285q6 156 21 285l12 127q8 63 14 127q12 82 17 122l12 125q8 39 10 66q3 34 12 67q10 41 23 64q14 31 45 51q29 10 51 0q20 -8 37 -28q14 -16 25 -46q12 -33 14 -47q4 -35 4 -100q0 -25 1 -49.5t1 -50.5q4 -111 0 -219.5t-12 -219.5q-2 -12 -4 -35.5 t-4 -35.5q-4 -49 -9 -74q-4 -23 -8 -72q-4 -45 -8 -69l-8 -99q2 -18 -2 -47l-6 -49q0 -27 -9 -76q-2 -12 -5 -37.5t-5 -37.5l-16 -66q-12 -45 -23 -66q-6 -14 -12 -30.5t-16 -32.5q-2 -4 -23 -25q-8 -8 -31 -16q-27 0 -43 10q-20 14 -28 33q-12 29 -17 43q-6 23 -10 43 q-6 47 -6 90q0 29 -4 90z" />
<glyph unicode="}" d="M156 113q-4 23 8 39q14 20 29 28q25 12 36 15q23 4 41 0q14 -4 35 -9q16 -4 35 -8q20 -2 45 4q23 6 41 19q10 6 29 35q10 14 10 43q-6 23 -18.5 45t-26.5 38l-35 35q-23 23 -33 35q-8 10 -16 18.5t-19 18.5q-12 14 -32 43q-14 20 -25 47q-10 25 -12 51q2 25 16 47 q10 18 31 39q-23 23 -33 37q-14 18 -10 47q8 33 16 47.5t29 42.5q14 23 35 41q18 18 35 37l75 84q43 51 62 94q-8 6 -17.5 10.5l-17.5 8.5l-37 18q-23 8 -39 11q-25 4 -41 2q-18 -4 -43 2q-16 4 -32.5 20t-22.5 35q-6 20 0 43q4 25 14 47q10 20 29 43q12 16 37 33 q14 10 47 18q68 12 131 -2q57 -14 117 -55q33 -25 49 -41q20 -20 39 -53q20 -37 26 -60q9 -34 7 -67q-2 -39 -17 -86q-8 -29 -37 -82q-16 -29 -49 -74q-25 -33 -59 -68h26h25q29 0 59 -6q35 -6 58 -18q29 -14 43 -35q16 -23 12 -57q-3 -40 -25 -68q-20 -25 -55 -43 q-35 -16 -67 -22q-25 -4 -70 -5q29 -33 49 -61q27 -39 39 -68q18 -43 23 -73q6 -45 2 -80q-8 -70 -41 -139q-31 -66 -82 -121q-16 -18 -58 -47q-29 -20 -63.5 -32.5t-69.5 -19.5q-33 -6 -69 -2q-33 6 -66 23q-27 14 -51 41q-27 27 -39 51q-14 31 -12 66z" />
<glyph unicode="~" horiz-adv-x="1155" d="M182 737q0 25 15 54q12 27 32 43q29 25 45 34l48 31l51 25q33 16 51 22q41 14 53 17q28 6 55 6q31 2 62 -15q37 -20 53 -32l45 -29q20 -12 53 -16q35 4 62 14q37 14 55 29q33 18 62 28q35 12 65 10q25 0 51 -10q29 -10 45 -22q20 -14 33 -37q14 -25 17 -49 q0 -23 -8.5 -39.5t-22.5 -30.5q-16 -16 -33 -25q-25 -12 -37 -16q-10 -4 -21.5 -10t-21.5 -10q-23 -10 -45 -23q-57 -25 -106 -41q-55 -20 -111 -22q-37 0 -65 14q-37 18 -56 35l-45 28q-25 18 -51 21q-20 -2 -53 -14q-25 -9 -49 -25q-16 -10 -43 -37q-12 -12 -37 -41h-11 l-3 1q-3 1 -5 1q-29 4 -47 14.5t-37 28.5q-16 14 -30 39q-11 18 -15 49z" />
<glyph unicode="&#x85;" horiz-adv-x="1255" d="M139 147q3 34 25 62q14 18 49 49q33 29 51 39q27 14 62 18q33 4 59 -16q23 -16 33 -47q14 -35 14 -68v-71q-2 -14 -6 -47q-2 -25 -16 -43q-29 -33 -55.5 -41.5t-51.5 -6.5q-37 4 -63 17q-29 14 -52 37q-27 25 -38 53q-13 32 -11 65zM483 150q4 37 21 65q18 33 39 57 q29 29 51 41q29 16 59 17q35 0 66 -19q27 -16 41 -51q14 -23 24 -65q8 -29 0 -74q0 -31 -12 -58q-10 -25 -35 -45q-27 -23 -51 -30q-27 -8 -57 -6q-31 -4 -60 12q-18 10 -47 39q-25 29 -33 53q-8 31 -6 64zM840 147q0 29 16 62q15 31 37 55q18 27 39 39q23 14 53 10 q41 0 68 -18q29 -20 51 -49q18 -28 24 -62q8 -41 2 -69q-2 -29 -20 -58q-14 -23 -41 -43t-55 -28q-35 -10 -58 -11q-27 -2 -53 11q-20 10 -39 39q-20 31 -22 59q-4 43 -2 63z" />
<glyph unicode="&#x2026;" horiz-adv-x="1255" d="M139 147q3 34 25 62q14 18 49 49q33 29 51 39q27 14 62 18q33 4 59 -16q23 -16 33 -47q14 -35 14 -68v-71q-2 -14 -6 -47q-2 -25 -16 -43q-29 -33 -55.5 -41.5t-51.5 -6.5q-37 4 -63 17q-29 14 -52 37q-27 25 -38 53q-13 32 -11 65zM483 150q4 37 21 65q18 33 39 57 q29 29 51 41q29 16 59 17q35 0 66 -19q27 -16 41 -51q14 -23 24 -65q8 -29 0 -74q0 -31 -12 -58q-10 -25 -35 -45q-27 -23 -51 -30q-27 -8 -57 -6q-31 -4 -60 12q-18 10 -47 39q-25 29 -33 53q-8 31 -6 64zM840 147q0 29 16 62q15 31 37 55q18 27 39 39q23 14 53 10 q41 0 68 -18q29 -20 51 -49q18 -28 24 -62q8 -41 2 -69q-2 -29 -20 -58q-14 -23 -41 -43t-55 -28q-35 -10 -58 -11q-27 -2 -53 11q-20 10 -39 39q-20 31 -22 59q-4 43 -2 63z" />
<glyph horiz-adv-x="499" d="M178 1315q2 16 19 37q12 15 30 24q18 10 39 13q4 0 18.5 3t20.5 3q31 -12 53 -35q16 -16 37 -53q18 -31 29 -60l25 -59q20 -51 45 -125q20 -59 16 -133q-2 -20 -12 -39q-6 -12 -27 -33q-10 -10 -35 -22q-16 -8 -41 -9q-37 12 -55 35q-29 33 -41 53q-8 12 -18.5 36 t-12.5 28l-26 59l-25 66q-14 39 -22 70l-15 69q-6 33 -2 72z" />
<glyph unicode="&#x2018;" horiz-adv-x="499" d="M178 1315q2 16 19 37q12 15 30 24q18 10 39 13q4 0 18.5 3t20.5 3q31 -12 53 -35q16 -16 37 -53q18 -31 29 -60l25 -59q20 -51 45 -125q20 -59 16 -133q-2 -20 -12 -39q-6 -12 -27 -33q-10 -10 -35 -22q-16 -8 -41 -9q-37 12 -55 35q-29 33 -41 53q-8 12 -18.5 36 t-12.5 28l-26 59l-25 66q-14 39 -22 70l-15 69q-6 33 -2 72z" />
<glyph horiz-adv-x="491" d="M160 956q6 70 33 127q8 20 57 121q8 12 31 56q10 20 34 57q12 18 41 47q20 20 58 27q25 0 47 -13q18 -10 33 -35q12 -23 18 -45q2 -8 2 -51q-6 -86 -35 -160q-27 -72 -82 -149q-8 -10 -14 -21.5t-12 -19.5l-31 -37q-10 -12 -35 -29q-20 -12 -45 -16q-23 0 -47 14 q-18 10 -30.5 33t-18.5 45q-6 26 -4 49z" />
<glyph unicode="&#x2019;" horiz-adv-x="491" d="M160 956q6 70 33 127q8 20 57 121q8 12 31 56q10 20 34 57q12 18 41 47q20 20 58 27q25 0 47 -13q18 -10 33 -35q12 -23 18 -45q2 -8 2 -51q-6 -86 -35 -160q-27 -72 -82 -149q-8 -10 -14 -21.5t-12 -19.5l-31 -37q-10 -12 -35 -29q-20 -12 -45 -16q-23 0 -47 14 q-18 10 -30.5 33t-18.5 45q-6 26 -4 49z" />
<glyph horiz-adv-x="841" d="M209 1274q4 20 16 35q16 16 33 24q18 8 41 13q14 2 39 6q29 -12 49 -35q14 -16 35 -53l27 -58q18 -47 24 -57l45 -131q20 -68 25 -139q0 -18 -11 -39q-8 -16 -26 -31q-16 -12 -35 -18q-23 -6 -41 -5q-33 12 -57 37q-16 16 -41 54q-14 23 -33 61l-29 61q-6 16 -13 33 t-13 33q-8 23 -20.5 68t-14.5 69q-2 35 0 72zM489 1323q2 20 17 37q8 10 33 22q12 6 41 11q14 2 38 2q29 -12 52 -37q25 -29 39 -53q18 -31 28.5 -59.5t28.5 -59.5q6 -14 11 -30.5t11 -31.5q16 -41 22.5 -61.5t14.5 -65.5q6 -31 2 -67q-4 -23 -14 -39q-14 -20 -27 -31 q-18 -14 -34 -20q-18 -6 -39 -6q-34 9 -56 30q-16 16 -36 54q-14 27 -29 61q-16 41 -27 59q-12 35 -26 70l-25 70q-12 39 -18 71q-7 37 -7 74z" />
<glyph unicode="&#x201c;" horiz-adv-x="841" d="M209 1274q4 20 16 35q16 16 33 24q18 8 41 13q14 2 39 6q29 -12 49 -35q14 -16 35 -53l27 -58q18 -47 24 -57l45 -131q20 -68 25 -139q0 -18 -11 -39q-8 -16 -26 -31q-16 -12 -35 -18q-23 -6 -41 -5q-33 12 -57 37q-16 16 -41 54q-14 23 -33 61l-29 61q-6 16 -13 33 t-13 33q-8 23 -20.5 68t-14.5 69q-2 35 0 72zM489 1323q2 20 17 37q8 10 33 22q12 6 41 11q14 2 38 2q29 -12 52 -37q25 -29 39 -53q18 -31 28.5 -59.5t28.5 -59.5q6 -14 11 -30.5t11 -31.5q16 -41 22.5 -61.5t14.5 -65.5q6 -31 2 -67q-4 -23 -14 -39q-14 -20 -27 -31 q-18 -14 -34 -20q-18 -6 -39 -6q-34 9 -56 30q-16 16 -36 54q-14 27 -29 61q-16 41 -27 59q-12 35 -26 70l-25 70q-12 39 -18 71q-7 37 -7 74z" />
<glyph d="M174 952q2 61 33 127q25 55 59 121q20 33 33 57q6 12 35 56q14 23 43 47q25 22 55 31q33 4 49 -7q23 -12 33 -30q14 -23 16 -47q3 -25 0 -50q-10 -92 -38 -167q-29 -72 -82 -154l-27 -39l-31 -37q-10 -12 -35 -29q-12 -8 -41 -12q-29 0 -47 10q-23 12 -35 31t-18 43 q-6 22 -2 49zM455 831q-2 10 4 25q8 16 14 25q14 20 25 47l20 49q16 49 39 98q29 66 41 101l9 18l11 23q2 4 7.5 13l9.5 16l8 14q14 18 33 32q16 12 43 17q27 0 47 -13q25 -14 35 -32q12 -23 18 -45q6 -27 4 -50q-6 -84 -37 -163q-27 -70 -84 -148l-28 -39 q-10 -14 -33 -36.5t-35 -30.5q-25 -16 -43 -19q-18 0 -41 6q-14 4 -35 21q-18 14 -26 31q-10 17 -6 40z" />
<glyph unicode="&#x201d;" d="M174 952q2 61 33 127q25 55 59 121q20 33 33 57q6 12 35 56q14 23 43 47q25 22 55 31q33 4 49 -7q23 -12 33 -30q14 -23 16 -47q3 -25 0 -50q-10 -92 -38 -167q-29 -72 -82 -154l-27 -39l-31 -37q-10 -12 -35 -29q-12 -8 -41 -12q-29 0 -47 10q-23 12 -35 31t-18 43 q-6 22 -2 49zM455 831q-2 10 4 25q8 16 14 25q14 20 25 47l20 49q16 49 39 98q29 66 41 101l9 18l11 23q2 4 7.5 13l9.5 16l8 14q14 18 33 32q16 12 43 17q27 0 47 -13q25 -14 35 -32q12 -23 18 -45q6 -27 4 -50q-6 -84 -37 -163q-27 -70 -84 -148l-28 -39 q-10 -14 -33 -36.5t-35 -30.5q-25 -16 -43 -19q-18 0 -41 6q-14 4 -35 21q-18 14 -26 31q-10 17 -6 40z" />
<glyph horiz-adv-x="724" d="M178 625q-6 53 0 102q0 55 27 115q25 57 63 98q43 45 97 70q55 25 114 18q47 0 86 -20.5t68 -53.5q31 -37 47 -73q16 -35 12 -86q-4 -74 -26 -136q-27 -70 -70 -120q-41 -55 -107 -90q-68 -35 -133 -33q-55 2 -94 35q-37 31 -57 75q-21 44 -27 99z" />
<glyph unicode="&#x2022;" horiz-adv-x="724" d="M178 625q-6 53 0 102q0 55 27 115q25 57 63 98q43 45 97 70q55 25 114 18q47 0 86 -20.5t68 -53.5q31 -37 47 -73q16 -35 12 -86q-4 -74 -26 -136q-27 -70 -70 -120q-41 -55 -107 -90q-68 -35 -133 -33q-55 2 -94 35q-37 31 -57 75q-21 44 -27 99z" />
<glyph horiz-adv-x="825" d="M180 705q12 35 43 59q25 18 64 28.5t73 12.5q27 2 72 6q18 -2 55 -2q8 0 26.5 -1t29.5 -1q18 0 71 -4q27 -2 72 -19q35 -12 57.5 -38.5t22.5 -65.5q-6 -23 -18 -41q-10 -16 -29 -31q-16 -14 -37 -22q-14 -6 -43 -11l-170 -6q-113 -4 -170 -2q-29 4 -47 15q-23 12 -35 30 q-16 16 -29 41q-12 23 -8 52z" />
<glyph unicode="&#x2013;" horiz-adv-x="825" d="M180 705q12 35 43 59q25 18 64 28.5t73 12.5q27 2 72 6q18 -2 55 -2q8 0 26.5 -1t29.5 -1q18 0 71 -4q27 -2 72 -19q35 -12 57.5 -38.5t22.5 -65.5q-6 -23 -18 -41q-10 -16 -29 -31q-16 -14 -37 -22q-14 -6 -43 -11l-170 -6q-113 -4 -170 -2q-29 4 -47 15q-23 12 -35 30 q-16 16 -29 41q-12 23 -8 52z" />
<glyph horiz-adv-x="1218" d="M188 702q20 41 47 59.5t68 29.5q49 12 76 14q39 4 74 6h118h117h119q37 0 115 -4q12 0 39.5 -3t33.5 -3q37 -2 74 -17q33 -12 57 -36q25 -27 29 -66q-4 -27 -14 -43q-12 -18 -31 -31q-16 -10 -39 -20q-14 -6 -43 -10l-78 -7l-78 -6q-53 -6 -184 -14q-4 0 -180 -6 q-61 0 -92 4q-47 6 -90 18q-35 10 -57.5 20.5t-45 29t-30.5 38.5q-11 22 -5 47z" />
<glyph unicode="&#x2014;" horiz-adv-x="1218" d="M188 702q20 41 47 59.5t68 29.5q49 12 76 14q39 4 74 6h118h117h119q37 0 115 -4q12 0 39.5 -3t33.5 -3q37 -2 74 -17q33 -12 57 -36q25 -27 29 -66q-4 -27 -14 -43q-12 -18 -31 -31q-16 -10 -39 -20q-14 -6 -43 -10l-78 -7l-78 -6q-53 -6 -184 -14q-4 0 -180 -6 q-61 0 -92 4q-47 6 -90 18q-35 10 -57.5 20.5t-45 29t-30.5 38.5q-11 22 -5 47z" />
<glyph horiz-adv-x="1347" d="M238 1300q6 31 32 43q33 14 54 15q70 4 104 8l104 12q14 2 42 5t40 3q27 2 84 7q27 0 45.5 -10.5t30.5 -32.5q12 20 31 28q20 10 37 11q33 0 55 -23q20 -20 31 -51q23 -63 37 -115q4 -12 24 -119q8 20 17.5 41t17.5 41q16 43 37 78q8 14 20.5 43t18.5 41q8 16 22 31 q10 10 33 14q23 0 37 -8q16 -10 29 -23q10 -10 20 -30l16 -33q8 -20 23 -74q10 -41 10 -76l-8 -67q0 -6 -2 -17.5t-2 -17.5t-2 -18.5t-2 -18.5q-2 -16 0 -35q2 -12 2 -37q-6 -37 -6 -75q0 -29 -15 -72q-4 -23 -10 -33l-9 -14l-9 -14q-12 -15 -25 -25q-10 -8 -31 -14 q-33 -6 -53 14q-23 23 -22 53q-4 29 0 58q4 41 8 57q4 45 4 65.5t4 65.5l-33 -72l-37 -71q-12 -25 -41 -70q-14 -23 -53 -57q-27 0 -45 20q-16 18 -22 49q0 4 -13 66q-2 10 -6 27.5t-6 35.5l-2 -12v-35v-35q0 -6 -1 -16t-1 -16q0 -20 -2 -33q0 -20 -6 -39q-6 -20 -19 -35 q-16 -20 -28 -26q-20 -10 -37 -9q-20 0 -35 9q-16 10 -25 22q-14 23 -16 31q0 2 -6 35q0 12 1 36.5t1 38.5q0 29 4 78q4 55 16 166q8 74 29 166q-45 -16 -67 -21q-39 -6 -70 -4q-25 -135 -35 -202.5t-27 -202.5q0 -12 -2 -18.5t-2 -16.5q-10 -23 -12 -33q-4 -16 -8 -22 q-6 -14 -25 -35q-15 -18 -37 -18q-20 0 -38.5 6t-30.5 18q-14 14 -21 31q-8 25 -8 37q2 10 3 32.5t1 32.5q4 49 8 68l13 67q2 16 5 35t5 35q4 31 8 92.5t2 91.5h-57q-10 0 -30.5 -1t-29.5 -1q-10 2 -18 15q-8 10 -10 22q-4 8 -8 29v28z" />
<glyph unicode="&#x2122;" horiz-adv-x="1347" d="M238 1300q6 31 32 43q33 14 54 15q70 4 104 8l104 12q14 2 42 5t40 3q27 2 84 7q27 0 45.5 -10.5t30.5 -32.5q12 20 31 28q20 10 37 11q33 0 55 -23q20 -20 31 -51q23 -63 37 -115q4 -12 24 -119q8 20 17.5 41t17.5 41q16 43 37 78q8 14 20.5 43t18.5 41q8 16 22 31 q10 10 33 14q23 0 37 -8q16 -10 29 -23q10 -10 20 -30l16 -33q8 -20 23 -74q10 -41 10 -76l-8 -67q0 -6 -2 -17.5t-2 -17.5t-2 -18.5t-2 -18.5q-2 -16 0 -35q2 -12 2 -37q-6 -37 -6 -75q0 -29 -15 -72q-4 -23 -10 -33l-9 -14l-9 -14q-12 -15 -25 -25q-10 -8 -31 -14 q-33 -6 -53 14q-23 23 -22 53q-4 29 0 58q4 41 8 57q4 45 4 65.5t4 65.5l-33 -72l-37 -71q-12 -25 -41 -70q-14 -23 -53 -57q-27 0 -45 20q-16 18 -22 49q0 4 -13 66q-2 10 -6 27.5t-6 35.5l-2 -12v-35v-35q0 -6 -1 -16t-1 -16q0 -20 -2 -33q0 -20 -6 -39q-6 -20 -19 -35 q-16 -20 -28 -26q-20 -10 -37 -9q-20 0 -35 9q-16 10 -25 22q-14 23 -16 31q0 2 -6 35q0 12 1 36.5t1 38.5q0 29 4 78q4 55 16 166q8 74 29 166q-45 -16 -67 -21q-39 -6 -70 -4q-25 -135 -35 -202.5t-27 -202.5q0 -12 -2 -18.5t-2 -16.5q-10 -23 -12 -33q-4 -16 -8 -22 q-6 -14 -25 -35q-15 -18 -37 -18q-20 0 -38.5 6t-30.5 18q-14 14 -21 31q-8 25 -8 37q2 10 3 32.5t1 32.5q4 49 8 68l13 67q2 16 5 35t5 35q4 31 8 92.5t2 91.5h-57q-10 0 -30.5 -1t-29.5 -1q-10 2 -18 15q-8 10 -10 22q-4 8 -8 29v28z" />
<glyph unicode="&#xa2;" horiz-adv-x="940" d="M113 709q10 82 41 149q39 84 77 139q16 23 54 64q18 20 59 53q31 25 68 43.5t77 24.5l7 45q0 6 2 22.5t2 22.5q2 18 10 45q10 33 16 45q8 20 21 41q12 23 35 24q27 0 41 -2q12 -2 36 -14q14 -8 29 -25q8 -12 17 -36q10 -31 10 -76v-80q61 -20 98 -49q45 -35 76 -82 q33 -43 51 -92q18 -51 16 -107q0 -20 -6 -41q-4 -18 -20 -37q-12 -15 -31 -24q-23 -10 -43 -8q-29 0 -57 16q-25 14 -41 43q-29 78 -45 115q0 -2 -3 -37t-3 -53q0 -46 -7 -93q-2 -35 -10 -104q-2 -18 -5 -51t-5 -51q35 27 61 39q39 18 70 20q18 2 39 -10q12 -8 22 -27 q6 -12 11 -39q2 -20 0 -39q-10 -41 -31 -71q-18 -25 -55 -56q-27 -23 -70 -43q-35 -16 -72 -30q-4 -20 -4 -29q0 -4 -1 -14.5t-1 -14.5q-4 -27 -16 -80t-25 -77q-6 -18 -14 -35q-6 -12 -19 -33q-10 -16 -24 -29q-16 -14 -35 -16q-23 0 -33 2q-12 2 -28 14q-12 10 -23 23 q-12 16 -14 31q-4 23 -4 65q0 12 1 34.5t1 35.5v53v57q-71 22 -129 68q-63 49 -99 104q-39 51 -61 125q-20 66 -14 142zM352 674q0 -22 6 -43q2 -10 17 -37q10 -20 24 -35q6 -6 14.5 -16.5t14.5 -14.5l18 185q10 92 19 184l-17.5 -22.5t-21.5 -28.5l-35 -53q-16 -29 -24 -58 q-13 -41 -15 -61z" />
<glyph unicode="&#xa3;" horiz-adv-x="1327" d="M137 809q12 35 43 59q29 23 64 31q37 9 73.5 12t67.5 7q10 80 31 155q14 55 43 154q23 39 55.5 59.5t71.5 36.5q14 6 78 20q12 2 36.5 7.5t38.5 9.5q86 16 168 18q98 4 168 -4q35 -4 51 -12q25 -12 43 -31q20 -20 29 -41q10 -27 10 -51q0 -18 -6 -37q-6 -14 -20 -31 q-14 -14 -31 -22q-12 -6 -35 -10q-40 -6 -80 -6q-53 0 -82 2q-23 2 -77 -2q-39 -2 -80 -17q-33 -10 -68 -39q-27 -20 -43 -67q-8 -20 -12 -45q-4 -27 -12 -47q47 0 73 -3q37 -2 72 -18q33 -14 53 -41q20 -25 17 -72q0 -20 -9 -36q-10 -18 -20 -33q-12 -15 -31 -25 q-12 -6 -37 -10q-8 0 -24.5 -2t-28.5 -3t-25 -1q-53 0 -81 -2q-2 -16 -5.5 -48l-5.5 -49q-8 -61 -10 -94q-6 -43 -2 -94t14 -92q84 31 131 55l127 66q78 41 129 59q78 29 138 31q23 2 49 -4q33 -8 47 -17q20 -12 35 -28q18 -20 22 -41q2 -2 2 -8q0 -4 2 -7q-31 -49 -73 -86 q-39 -35 -91 -65q-53 -33 -100 -55q-29 -14 -98 -56l-47 -21.5l-58 -27.5q-70 -33 -104 -47q-66 -27 -109 -39q-55 -16 -110 -18q-47 4 -70 12q-35 12 -55 39q-23 29 -31 59l-18 68q-12 70 -19 145q-6 74 0 148q4 74 8 108l17 107h-45h-47q-31 4 -45 12q-20 12 -33 33 q-12 14 -23 43q-9 24 -6 49z" />
<glyph unicode="&#xa5;" horiz-adv-x="1095" d="M164 274q6 37 31 56q27 20 55 28q20 6 67 11q18 2 34 4t28 2q4 14 12 39q2 6 6 19l6 20q-18 2 -55 2q-18 0 -55 4q-27 0 -47 12q-18 10 -35 31q-14 16 -21 41q-6 23 -6 47q2 20 17 41q12 18 30 31q12 8 41 20l43 12q-29 90 -39 137.5t-26 141.5q-9 68 -12 135 q-2 53 12 135q4 29 8 39q6 20 18 35q12 16 29 26.5t39 14.5q16 4 45 0q18 -2 39 -17q14 -10 29 -30q10 -14 16 -39l12 -96q2 -16 5.5 -48l5.5 -49q10 -59 30 -149q14 -72 47 -148l66 115l68 115l30.5 49l36.5 59l64 109q14 16 30 49q14 29 29 45q16 20 43 33q27 14 51 8 q33 -4 53 -18q27 -18 39 -39q14 -23 21 -52q6 -28 6 -55q-6 -39 -29 -74l-43 -67l-51 -74l-53 -74l-70 -104q-31 -47 -63 -107q28 -3 55 -12q25 -8 47 -24q18 -14 33 -41q12 -25 6 -58q0 -23 -14 -47q-12 -22 -31 -37q-18 -16 -45 -22q-25 -6 -47 -6q-43 0 -125 -4l-18 -41 l-17 -43h47q43 0 70 -3q39 -2 72 -16q31 -12 51 -39q18 -25 12 -67q-4 -27 -18.5 -47.5t-34.5 -34.5q-14 -10 -47 -23q-18 -6 -47 -10q-29 -2 -84 -2q-14 0 -43 -1t-43 -1q-10 -37 -17 -51q-10 -23 -31 -45q-14 -16 -43 -31q-23 -12 -55 -8q-28 0 -49 12q-18 10 -33 35 q-14 23 -16 47q-4 27 0 51q-20 0 -29 2q-16 4 -26 4q-29 4 -47.5 14.5t-36.5 32.5q-12 16 -23 41q-10 26 -10 49z" />
<glyph unicode="&#xa9;" horiz-adv-x="1492" d="M143 494q6 137 70 274q59 129 166 238q49 55 106 100q51 41 123 78q61 33 135 51q68 18 142 14q70 0 133 -18.5t121 -52.5q47 -29 100 -82q45 -45 80 -103q71 -108 98 -239q29 -135 10 -269q-6 -59 -26 -108q-25 -61 -51 -101q-37 -55 -72 -90q-40 -40 -86 -73 q-92 -66 -203 -101q-104 -33 -219 -32q-119 -4 -223 32q-102 35 -199 103q-37 25 -84 71q-43 43 -69 90q-29 51 -43 103q-15 54 -9 115zM377 485q-4 -39 8 -69q14 -37 31 -60q18 -23 49 -47q33 -27 55 -37q59 -33 131 -49t144 -16q70 0 129 14q66 16 127 49q59 31 100 86 q37 51 43 121q10 109 0 187q-12 90 -49 174q-23 47 -45 75q-35 43 -64 62q-33 23 -80 39q-35 12 -90 12q-47 0 -96 -12.5t-92 -36.5q-49 -29 -84 -57q-41 -35 -70 -72q-70 -78 -104 -170q-37 -97 -43 -193zM432 553q4 49 16.5 80t36.5 72q18 31 52 67q37 41 57 59.5t65 51.5 q31 23 72 43q47 25 78 30q45 10 80 11q59 0 115 -33q23 -14 38 -41q16 -25 12.5 -57.5t-12.5 -47.5q-10 -18 -30 -38q-16 -16 -39 -27q-25 -10 -45 -10q-20 4 -32.5 8t-33.5 8q-34 -3 -61 -24q-18 -14 -51 -43q-2 -2 -19.5 -21.5t-25.5 -30.5q-25 -33 -31 -59q-2 -14 4 -29 q8 -16 16 -20q16 -8 26.5 -10.5t29.5 -2.5q6 0 19 1.5t19 3.5q14 2 37 12q25 8 37 10q6 0 19.5 2t19.5 2q27 0 45 -8q14 -6 35 -27q16 -16 23 -39q6 -25 4 -45q-4 -41 -35 -71q-27 -27 -68 -41q-43 -15 -86 -25q-47 -10 -90 -10q-66 0 -119 20q-55 23 -100 64q-45 43 -64 96 q-20 62 -14 119z" />
<glyph unicode="&#xad;" horiz-adv-x="960" d="M172 705q16 39 45 59q31 22 68 31q37 10 75 12q12 0 36 1t36 3h45q31 0 45 -2q6 0 22.5 -1t22.5 -1h47q29 0 91 -4q57 -4 90 -8q29 -8 43 -15q25 -10 39 -22q18 -14 26 -35q10 -25 8 -45q-6 -20 -18 -39q-10 -16 -31 -33q-14 -12 -39 -22q-14 -6 -43 -11q-106 -8 -241 -8 q-59 0 -119 1t-121 1q-53 10 -86 45q-18 18 -31 43q-12 27 -10 50z" />
<glyph unicode="&#xae;" horiz-adv-x="1562" d="M156 608q4 74 24 142q23 70 56 133q34 65 79 123q51 66 101 108q47 47 114 94q66 45 127 74q72 33 140 47q78 16 141 14q78 0 135 -16q68 -18 123 -51t107 -80q49 -47 83 -102q76 -111 105 -244q28 -132 12 -270q-6 -59 -28 -125q-20 -59 -58 -115q-35 -51 -82 -102 q-46 -49 -98 -86q10 -12 16.5 -31t-0.5 -39q-4 -25 -12 -35q-16 -20 -27 -27q-18 -10 -34 -16q-18 -6 -37 -6q-25 0 -70 4q-37 4 -63 25q-72 -25 -129 -35q-66 -12 -131 -12q-63 0 -125 12q-66 12 -119 32.5t-109 55.5q-52 34 -92 80q-45 45 -74 94q-31 52 -49 111t-24 118 q-8 74 -2 125zM389 604q-3 -46 0 -92q2 -37 19 -92q10 -37 38 -80q27 -41 64 -64q2 12 4 35t2 25q0 8 3 28.5t5 30.5q8 41 11 62l6 61q4 61 4 94q0 14 -1 45t-1 48q0 31 4 92t8 92q0 12 4 33q4 25 8 32q-74 -68 -123 -159q-45 -87 -55 -191zM670 1036q59 12 110 13 q18 0 55 1t58 1q41 -4 65 -4q33 0 64 -7q20 -4 61 -16q31 -10 58 -27q29 -18 45 -41q16 -20 26 -57q10 -31 13 -63q4 -35 0 -66q-2 -55 -35 -102q-27 -41 -68 -88l-86 -78q-37 -33 -98 -58q10 -16 31.5 -45.5t25.5 -36.5l58 -79q41 20 80 53q37 31 67 67q25 29 47 82 q18 45 23 93q9 92 0 184q-10 96 -45 176q-16 37 -47 74q-29 35 -66 59.5t-80 36.5q-51 14 -92 12q-70 2 -139 -22q-65 -25 -131 -62zM717 211q8 -2 26 -2h27h33q8 0 33 4l-50 63q-25 35 -61 58q-2 -8 -2 -23q0 -12 -2 -18l-2 -19v-32q0 -19 -2 -31zM745 684q0 -27 5 -76 q35 2 84 17q39 12 79 34q33 18 58 62q25 41 26 80q0 14 -12 20t-24 6q-33 0 -49.5 -2t-51.5 -2q-49 -6 -98 -6l-17 -10v-4q0 -4 1.5 -11.5t1.5 -11.5t1 -11t1 -11q-5 -25 -5 -74z" />
<glyph unicode="&#xb4;" horiz-adv-x="438" d="M217 1497q4 20 4 27q0 16 2 24q8 37 29 82q4 10 43 76q12 16 24 35q8 12 29 33q10 10 35 22q20 10 41 10q14 0 35 -8q10 -4 26 -20q10 -8 17 -31q6 -18 6 -35q0 -14 -6 -26q-2 -2 -6 -27q-8 -29 -31 -78q-14 -33 -45 -76q-25 -35 -62 -57q-35 -23 -79 -23q-31 4 -46 25 q-16 22 -16 47z" />
<glyph unicode="&#x2000;" horiz-adv-x="901" />
<glyph unicode="&#x2001;" horiz-adv-x="1806" />
<glyph unicode="&#x2002;" horiz-adv-x="901" />
<glyph unicode="&#x2003;" horiz-adv-x="1806" />
<glyph unicode="&#x2004;" horiz-adv-x="600" />
<glyph unicode="&#x2005;" horiz-adv-x="450" />
<glyph unicode="&#x2006;" horiz-adv-x="299" />
<glyph unicode="&#x2007;" horiz-adv-x="299" />
<glyph unicode="&#x2008;" horiz-adv-x="223" />
<glyph unicode="&#x2009;" horiz-adv-x="360" />
<glyph unicode="&#x200a;" horiz-adv-x="98" />
<glyph unicode="&#x2010;" horiz-adv-x="960" d="M172 705q16 39 45 59q31 22 68 31q37 10 75 12q12 0 36 1t36 3h45q31 0 45 -2q6 0 22.5 -1t22.5 -1h47q29 0 91 -4q57 -4 90 -8q29 -8 43 -15q25 -10 39 -22q18 -14 26 -35q10 -25 8 -45q-6 -20 -18 -39q-10 -16 -31 -33q-14 -12 -39 -22q-14 -6 -43 -11q-106 -8 -241 -8 q-59 0 -119 1t-121 1q-53 10 -86 45q-18 18 -31 43q-12 27 -10 50z" />
<glyph unicode="&#x2011;" horiz-adv-x="960" d="M172 705q16 39 45 59q31 22 68 31q37 10 75 12q12 0 36 1t36 3h45q31 0 45 -2q6 0 22.5 -1t22.5 -1h47q29 0 91 -4q57 -4 90 -8q29 -8 43 -15q25 -10 39 -22q18 -14 26 -35q10 -25 8 -45q-6 -20 -18 -39q-10 -16 -31 -33q-14 -12 -39 -22q-14 -6 -43 -11q-106 -8 -241 -8 q-59 0 -119 1t-121 1q-53 10 -86 45q-18 18 -31 43q-12 27 -10 50z" />
<glyph unicode="&#x2012;" horiz-adv-x="960" d="M172 705q16 39 45 59q31 22 68 31q37 10 75 12q12 0 36 1t36 3h45q31 0 45 -2q6 0 22.5 -1t22.5 -1h47q29 0 91 -4q57 -4 90 -8q29 -8 43 -15q25 -10 39 -22q18 -14 26 -35q10 -25 8 -45q-6 -20 -18 -39q-10 -16 -31 -33q-14 -12 -39 -22q-14 -6 -43 -11q-106 -8 -241 -8 q-59 0 -119 1t-121 1q-53 10 -86 45q-18 18 -31 43q-12 27 -10 50z" />
<glyph unicode="&#x202f;" horiz-adv-x="360" />
<glyph unicode="&#x205f;" horiz-adv-x="450" />
<glyph unicode="&#x20ac;" horiz-adv-x="1294" d="M111 510q2 29 22 51q16 18 47 33q29 12 58 18q14 2 57 9q0 20 2 32.5t2 34.5h-20h-21q-27 0 -45 10q-25 14 -37 29q-14 16 -20 41q-6 18 -2 47q6 37 32.5 59.5t55.5 34.5q39 16 65 21q12 2 66 8q37 94 80 164q43 72 114 145q43 43 68 60q35 23 78 43q35 16 84 26 q43 9 86 6q35 0 78 -14q39 -12 71 -31q23 -12 64 -45q31 -25 55 -55q29 -33 49 -61q27 -39 39 -68q23 -51 27 -74q8 -35 8 -80q0 -18 -8 -51q-6 -20 -23 -45q-10 -14 -39 -31q-23 -12 -51 -6q-37 -2 -70 19q-34 22 -49 55q-18 33 -30 63q-18 53 -25 64q-12 31 -39 51 q-25 18 -63 23q-33 0 -60 -15q-28 -15 -49 -37q-18 -18 -39 -49l-16.5 -28.5t-14.5 -24.5h11q33 2 75.5 -4t71.5 -23q37 -20 53 -47q20 -33 15 -73q0 -29 -15 -50q-16 -23 -37 -34q-22 -12 -49 -19q-31 -6 -51 -4h-78h-80q0 -6 -2 -17.5t-4 -17.5t-4 -17t-2 -18q8 -2 21 -2 h22q47 0 74 -4q41 -6 72 -20q33 -14 53 -45q18 -28 12 -74q0 -20 -8 -37q-8 -18 -23 -28q-20 -16 -32.5 -22.5t-36.5 -10.5q-33 -8 -78 -8h-80q0 -4 3 -15.5t5 -17.5q4 -20 12 -35q10 -16 21 -25q16 -12 33 -12q47 0 119 14q63 12 114 50l37 30q20 16 41 29q22 15 43 18 l43 7q33 4 47 -7q16 -10 27 -30q12 -25 12 -45q0 -25 -6 -45q0 -14 -2 -21q0 -4 -2 -10t-2 -8q-12 -31 -33 -58q-18 -25 -47 -49q-20 -16 -55 -41q-27 -18 -58 -35q-78 -41 -119 -55q-68 -25 -124 -26q-78 -2 -152 28q-74 33 -121 88.5t-82 128.5q-29 61 -47 150 q-12 2 -39 2q-25 0 -37 2q-31 0 -49 10q-25 14 -39 31q-16 20 -24 41q-9 24 -6 49z" />
<glyph unicode="&#xe000;" horiz-adv-x="1370" d="M0 1370h1370v-1370h-1370v1370z" />
<glyph unicode="&#xfb01;" horiz-adv-x="1521" d="M1137 270q0 37 4 115q8 125 14 193l17 192l12 97t10 94l21 190q2 16 6 33.5l8 34.5q6 29 23 63q10 27 14 33l7 12l11 19q12 16 27 24q20 12 33 16q9 1 16 2q32 0 60 -20q34 -25 49 -61q14 -37 16 -74q2 -20 2 -38.5t-2 -37.5q-4 -74 -8 -110q-8 -68 -14 -109 q-4 -29 -8.5 -57.5t-6.5 -57.5q-2 -18 -5 -56t-5 -56q-6 -61 -6 -123q0 -37 -4 -119q-2 -39 -2 -115q0 -47 -11 -112q-4 -53 -12 -78q-20 -61 -29 -78q-4 -14 -18 -35q-20 -31 -25 -35q-16 -16 -32 -24q-18 -10 -39 -12q-23 0 -31 4q-10 4 -22 14q-16 12 -22.5 20.5 t-14.5 24.5q-8 18 -17 55q-8 33 -10 60q-6 59 -6 112zM164 231l6 52l6 51q2 16 7 49t7 49q8 63 11 100q4 49 8 148q4 94 8 145q2 14 16 144q6 71 19 141q4 16 4 25q0 16 2 24q14 49 51 82q39 37 82 53l92 25q31 8 97 20q43 12 73 17l74 12l72 6q16 1 29 2q21 0 40 -4 q34 -6 62 -24q31 -20 47 -45q20 -23 37 -54q14 -27 14 -63q0 -20 -10 -31q-8 -8 -29 -20q-16 -10 -33 -13q-25 -4 -34 -4q-35 0 -109 -4q-33 -2 -108 -10l-50 -12q-27 -6 -47 -19q-29 -16 -41 -29q-18 -18 -30 -43q-14 -41 -23 -71q-6 -25 -10 -72q25 6 51 6q16 0 53 4 q33 4 54 4h51l84 -6q37 -2 75 -30q31 -23 43 -64q8 -27 9 -55q0 -14 -2 -29q0 -12 -7 -29q-6 -14 -18 -26q-14 -14 -25 -21q-12 -6 -28 -10q-45 -4 -66 -4h-65q-20 -2 -64 -2q-20 0 -61 -4q-39 -4 -60 -10q-31 -10 -57 -27q-12 -68 -18 -143l-13 -146q0 -31 -8 -88t-16 -86 q-10 -31 -15 -39q-8 -16 -24 -33q-14 -14 -33 -20q-13 -4 -23 -4q-8 0 -16 2q-45 6 -69 29q-33 29 -46 57q-16 39 -22 72q-5 32 -5 56q0 9 1 19z" />
<glyph unicode="&#xfb02;" horiz-adv-x="1943" d="M1143 297v43q2 53 12 111l17 112q8 39 20 117l19 117q4 70 4 100q0 16 2 49t2 51q6 94 6 97q2 16 5 49t5 49q2 27 12 57q8 29 29 56q18 23 41 41q20 14 57 22q13 1 24 2q36 0 58 -18q31 -25 45 -64q14 -37 15 -84q0 -59 -4 -84q-8 -84 -25 -168l-33 -170 q-18 -90 -30 -170l-21 -170q-4 -57 -4 -87.5t4 -88.5q82 10 150 39l143 66l63 30q27 14 66 21q25 6 53 -2q27 -6 45 -23q16 -14 27 -41q5 -12 5 -26t-5 -29q-12 -43 -41 -78q-27 -33 -65.5 -61.5t-75.5 -48.5l-78 -43l-84 -35q-57 -20 -86 -28.5t-86 -16.5q-22 -3 -44.5 -3 t-43.5 3q-51 6 -92 24q-45 18 -70 60q-23 47 -29 86q-4 29 -8 94q-4 29 -4 43zM164 231l6 52l6 51q2 16 7 49t7 49q8 63 11 100q4 49 8 148q4 94 8 145q2 14 16 144q6 71 19 141q4 16 4 25q0 16 2 24q14 49 51 82q39 37 82 53l92 25q31 8 97 20q43 12 73 17l74 12l72 6 q16 1 29 2q21 0 40 -4q34 -6 62 -24q31 -20 47 -45q20 -23 37 -54q14 -27 14 -63q0 -20 -10 -31q-8 -8 -29 -20q-16 -10 -33 -13q-25 -4 -34 -4q-35 0 -109 -4q-33 -2 -108 -10l-50 -12q-27 -6 -47 -19q-29 -16 -41 -29q-18 -18 -30 -43q-14 -41 -23 -71q-6 -25 -10 -72 q25 6 51 6q16 0 53 4q33 4 54 4h51l84 -6q37 -2 75 -30q31 -23 43 -64q8 -27 9 -55q0 -14 -2 -29q0 -12 -7 -29q-6 -14 -18 -26q-14 -14 -25 -21q-12 -6 -28 -10q-45 -4 -66 -4h-65q-20 -2 -64 -2q-20 0 -61 -4q-39 -4 -60 -10q-31 -10 -57 -27q-12 -68 -18 -143l-13 -146 q0 -31 -8 -88t-16 -86q-10 -31 -15 -39q-8 -16 -24 -33q-14 -14 -33 -20q-13 -4 -23 -4q-8 0 -16 2q-45 6 -69 29q-33 29 -46 57q-16 39 -22 72q-5 32 -5 56q0 9 1 19z" />
<glyph unicode="&#xfb03;" horiz-adv-x="2492" d="M2108 270q0 37 4 115q8 125 14 193l17 192l12 97t10 94l21 190q2 16 6 33.5l8 34.5q6 29 23 63q10 27 14 33l7 12l11 19q12 16 27 24q20 12 33 16q9 1 16 2q32 0 60 -20q34 -25 49 -61q14 -37 16 -74q2 -20 2 -38.5t-2 -37.5q-4 -74 -8 -110q-8 -68 -14 -109 q-4 -29 -8.5 -57.5t-6.5 -57.5q-2 -18 -5 -56t-5 -56q-6 -61 -6 -123q0 -37 -4 -119q-2 -39 -2 -115q0 -47 -11 -112q-4 -53 -12 -78q-20 -61 -29 -78q-4 -14 -18 -35q-20 -31 -25 -35q-16 -16 -32 -24q-18 -10 -39 -12q-23 0 -31 4q-10 4 -22 14q-16 12 -22.5 20.5 t-14.5 24.5q-8 18 -17 55q-8 33 -10 60q-6 59 -6 112zM1135 231l6 52l6 51q2 16 7 49t7 49q8 63 11 100q4 49 8 148q4 94 8 145q2 14 16 144q6 71 19 141q4 16 4 25q0 16 2 24q14 49 51 82q39 37 82 53l92 25q31 8 97 20q43 12 73 17l74 12l72 6q16 1 29 2q21 0 40 -4 q34 -6 62 -24q31 -20 47 -45q20 -23 37 -54q14 -27 14 -63q0 -20 -10 -31q-8 -8 -29 -20q-16 -10 -33 -13q-25 -4 -34 -4q-35 0 -109 -4q-33 -2 -108 -10l-50 -12q-27 -6 -47 -19q-29 -16 -41 -29q-18 -18 -30 -43q-14 -41 -23 -71q-6 -25 -10 -72q25 6 51 6q16 0 53 4 q33 4 54 4h51l84 -6q37 -2 75 -30q31 -23 43 -64q8 -27 9 -55q0 -14 -2 -29q0 -12 -7 -29q-6 -14 -18 -26q-14 -14 -25 -21q-12 -6 -28 -10q-45 -4 -66 -4h-65q-20 -2 -64 -2q-20 0 -61 -4q-39 -4 -60 -10q-31 -10 -57 -27q-12 -68 -18 -143l-13 -146q0 -31 -8 -88t-16 -86 q-10 -31 -15 -39q-8 -16 -24 -33q-14 -14 -33 -20q-13 -4 -23 -4q-8 0 -16 2q-45 6 -69 29q-33 29 -46 57q-16 39 -22 72q-5 32 -5 56q0 9 1 19zM164 231l6 52l6 51q2 16 7 49t7 49q8 63 11 100q4 49 8 148q4 94 8 145q2 14 16 144q6 71 19 141q4 16 4 25q0 16 2 24 q14 49 51 82q39 37 82 53l92 25q31 8 97 20q43 12 73 17l74 12l72 6q16 1 29 2q21 0 40 -4q34 -6 62 -24q31 -20 47 -45q20 -23 37 -54q14 -27 14 -63q0 -20 -10 -31q-8 -8 -29 -20q-16 -10 -33 -13q-25 -4 -34 -4q-35 0 -109 -4q-33 -2 -108 -10l-50 -12q-27 -6 -47 -19 q-29 -16 -41 -29q-18 -18 -30 -43q-14 -41 -23 -71q-6 -25 -10 -72q25 6 51 6q16 0 53 4q33 4 54 4h51l84 -6q37 -2 75 -30q31 -23 43 -64q8 -27 9 -55q0 -14 -2 -29q0 -12 -7 -29q-6 -14 -18 -26q-14 -14 -25 -21q-12 -6 -28 -10q-45 -4 -66 -4h-65q-20 -2 -64 -2 q-20 0 -61 -4q-39 -4 -60 -10q-31 -10 -57 -27q-12 -68 -18 -143l-13 -146q0 -31 -8 -88t-16 -86q-10 -31 -15 -39q-8 -16 -24 -33q-14 -14 -33 -20q-13 -4 -23 -4q-8 0 -16 2q-45 6 -69 29q-33 29 -46 57q-16 39 -22 72q-5 32 -5 56q0 9 1 19z" />
<glyph unicode="&#xfb04;" horiz-adv-x="2914" d="M2114 297v43q2 53 12 111l17 112q8 39 20 117l19 117q4 70 4 100q0 16 2 49t2 51q6 94 6 97q2 16 5 49t5 49q2 27 12 57q8 29 29 56q18 23 41 41q20 14 57 22q13 1 24 2q36 0 58 -18q31 -25 45 -64q14 -37 15 -84q0 -59 -4 -84q-8 -84 -25 -168l-33 -170 q-18 -90 -30 -170l-21 -170q-4 -57 -4 -87.5t4 -88.5q82 10 150 39l143 66l63 30q27 14 66 21q25 6 53 -2q27 -6 45 -23q16 -14 27 -41q5 -12 5 -26t-5 -29q-12 -43 -41 -78q-27 -33 -65.5 -61.5t-75.5 -48.5l-78 -43l-84 -35q-57 -20 -86 -28.5t-86 -16.5q-22 -3 -44.5 -3 t-43.5 3q-51 6 -92 24q-45 18 -70 60q-23 47 -29 86q-4 29 -8 94q-4 29 -4 43zM1135 231l6 52l6 51q2 16 7 49t7 49q8 63 11 100q4 49 8 148q4 94 8 145q2 14 16 144q6 71 19 141q4 16 4 25q0 16 2 24q14 49 51 82q39 37 82 53l92 25q31 8 97 20q43 12 73 17l74 12l72 6 q16 1 29 2q21 0 40 -4q34 -6 62 -24q31 -20 47 -45q20 -23 37 -54q14 -27 14 -63q0 -20 -10 -31q-8 -8 -29 -20q-16 -10 -33 -13q-25 -4 -34 -4q-35 0 -109 -4q-33 -2 -108 -10l-50 -12q-27 -6 -47 -19q-29 -16 -41 -29q-18 -18 -30 -43q-14 -41 -23 -71q-6 -25 -10 -72 q25 6 51 6q16 0 53 4q33 4 54 4h51l84 -6q37 -2 75 -30q31 -23 43 -64q8 -27 9 -55q0 -14 -2 -29q0 -12 -7 -29q-6 -14 -18 -26q-14 -14 -25 -21q-12 -6 -28 -10q-45 -4 -66 -4h-65q-20 -2 -64 -2q-20 0 -61 -4q-39 -4 -60 -10q-31 -10 -57 -27q-12 -68 -18 -143l-13 -146 q0 -31 -8 -88t-16 -86q-10 -31 -15 -39q-8 -16 -24 -33q-14 -14 -33 -20q-13 -4 -23 -4q-8 0 -16 2q-45 6 -69 29q-33 29 -46 57q-16 39 -22 72q-5 32 -5 56q0 9 1 19zM164 231l6 52l6 51q2 16 7 49t7 49q8 63 11 100q4 49 8 148q4 94 8 145q2 14 16 144q6 71 19 141 q4 16 4 25q0 16 2 24q14 49 51 82q39 37 82 53l92 25q31 8 97 20q43 12 73 17l74 12l72 6q16 1 29 2q21 0 40 -4q34 -6 62 -24q31 -20 47 -45q20 -23 37 -54q14 -27 14 -63q0 -20 -10 -31q-8 -8 -29 -20q-16 -10 -33 -13q-25 -4 -34 -4q-35 0 -109 -4q-33 -2 -108 -10 l-50 -12q-27 -6 -47 -19q-29 -16 -41 -29q-18 -18 -30 -43q-14 -41 -23 -71q-6 -25 -10 -72q25 6 51 6q16 0 53 4q33 4 54 4h51l84 -6q37 -2 75 -30q31 -23 43 -64q8 -27 9 -55q0 -14 -2 -29q0 -12 -7 -29q-6 -14 -18 -26q-14 -14 -25 -21q-12 -6 -28 -10q-45 -4 -66 -4h-65 q-20 -2 -64 -2q-20 0 -61 -4q-39 -4 -60 -10q-31 -10 -57 -27q-12 -68 -18 -143l-13 -146q0 -31 -8 -88t-16 -86q-10 -31 -15 -39q-8 -16 -24 -33q-14 -14 -33 -20q-13 -4 -23 -4q-8 0 -16 2q-45 6 -69 29q-33 29 -46 57q-16 39 -22 72q-5 32 -5 56q0 9 1 19z" />
</font>
</defs>
</svg>
