<?xml version="1.0" standalone="no"?>
<!DOCTYPE svg PUBLIC "-//W3C//DTD SVG 1.1//EN" "http://www.w3.org/Graphics/SVG/1.1/DTD/svg11.dtd" >
<svg xmlns="http://www.w3.org/2000/svg">
<metadata>
This is a custom SVG webfont generated by Font Squirrel.
Copyright   : Copyright c Iconian FontsShyFonts Type Foundry 2000
</metadata>
<defs>
<font id="webfonteGj9ya8z" horiz-adv-x="815" >
<font-face units-per-em="2048" ascent="1638" descent="-410" />
<missing-glyph horiz-adv-x="768" />
<glyph unicode=" "  horiz-adv-x="768" />
<glyph unicode="&#x09;" horiz-adv-x="768" />
<glyph unicode="&#xa0;" horiz-adv-x="768" />
<glyph unicode="!" horiz-adv-x="532" d="M113 106q0 37 8 64q10 35 31 57q14 16 51 41q16 10 61 25q31 10 60 6q33 -2 61 -14q27 -10 41 -43q10 -25 6 -60q-2 -27 -16 -65q-14 -31 -35 -56q-20 -23 -53 -45q-25 -16 -60 -26q-31 -10 -59 -6q-33 4 -53 20q-14 12 -31 45q-12 24 -12 57zM319 451l7 55q2 12 16 57 q55 137 107 246q12 20 32 65l29 66q16 45 22.5 65.5t22.5 65.5q18 49 43 98q20 39 55 97q14 18 47 51q23 23 50 39q20 12 51 20q25 6 47 0q16 -6 24 -14q4 -4 15 -25q4 -8 8 -28q2 -8 2 -15.5v-15.5q-2 -18 -6 -59q-2 -20 -14 -62q-45 -115 -103 -211l-123 -209 q-31 -46 -61 -98q-37 -61 -62 -98q-39 -57 -71 -92q-47 -51 -90 -76q-31 4 -41.5 24.5t-6.5 53.5z" />
<glyph unicode="&#x22;" horiz-adv-x="759" d="M473 928q0 41 10 88q4 23 27 88q27 66 33 76q8 16 24.5 42.5t20.5 32.5l53 70q27 33 72 53q2 0 9 3t11 5q16 4 23 5q20 2 32 -7t19 -24q6 -16 6 -33q0 -6 -1 -17.5t-1 -15.5q-8 -49 -23 -104q-16 -61 -28 -92q-18 -35 -33 -78q-18 -51 -35 -82q-29 -53 -47 -76 q-27 -33 -72 -55q-9 -6 -18 -6h-20q-23 2 -35 16q-12 10 -19 33q-6 18 -6 39q0 8 -1 20.5t-1 18.5zM750 877q2 18 10 69q4 25 20 74l15 39l10 20q2 6 3 12.5t3 10.5l33 88q10 29 39 90q12 23 24 39q14 18 33 33q12 10 41 22q18 8 41 4q41 -12 53 -45q12 -35 10 -73 q-2 -27 -18 -89q-14 -45 -25 -84q-14 -37 -32 -77q-25 -53 -39 -80q-16 -33 -53 -72q-31 -35 -72 -57q-4 0 -12 -4q-4 -2 -11 -2l-16 -4h-4q-23 0 -31 6q-6 4 -14 20.5t-8 28.5v31z" />
<glyph unicode="#" horiz-adv-x="1054" d="M338 674q-4 20 2 37q8 31 35 53q23 20 55 33q31 12 62 18q10 2 59 8q6 12 10 24.5l8 24.5q6 16 23 50q-12 -2 -35 -2h-33q-23 -2 -37 12q-4 4 -12 15t-10 14q-8 25 -8 38q0 25 12 45q12 27 41 48q27 20 55 28q41 12 62 17q8 2 27.5 5t29.5 5q14 29 31 53q12 18 41 51 q20 23 49 39q27 14 59 15q16 0 33 -7q10 -4 23 -20q6 -8 10 -29q4 -16 -4 -37l-25 -61q12 0 24.5 -1t26.5 -1q8 0 26.5 -1t27.5 -1l24 47q16 33 31 49q25 29 39 39q25 18 51 21q20 -2 39 -13q23 -10 33 -24q16 -16 18 -33q4 -20 0 -43l-4 -19l-6 -18l-4 -14q23 -4 47 -13 q23 -8 39 -24q20 -20 24 -35q6 -23 -2 -49q-6 -18 -18 -37q-10 -14 -31 -29q-12 -8 -37 -20q-16 -8 -37 -8h-57l-35 -101q12 -4 41 -8q23 -4 41 -12q20 -10 29 -25q10 -18 2 -41q-8 -25 -29 -47q-20 -20 -39 -41l-47 -28q-18 -10 -49 -15l-18 -2h-17h-4q-2 -12 -8 -22 l-6 -11.5l-6 -11.5q-4 -12 -11 -24q-4 -10 -14 -23q-20 -31 -57 -51q-39 -23 -70 -29q-31 0 -47 17q-12 12 -16 40.5t2 53.5q10 41 14 55q-37 0 -53 2h-53l-23 -59q-8 -27 -26.5 -43.5t-41.5 -28.5q-47 -35 -96 -35q-23 4 -37 27q-10 16 -14 42.5t2 51.5q2 8 5 26.5t5 26.5 h-39q-25 0 -37 4q-16 0 -32 11q-12 8 -23 20q-6 8 -10 31zM782 823h56q35 0 53 2l16 49l17 50h-105z" />
<glyph unicode="$" horiz-adv-x="956" d="M236 522q0 14 6 33q4 20 12 31q10 12 22 20q20 12 30.5 14.5t31.5 2.5q33 -4 45 -9q14 -4 43 -16q16 -10 41 -16q22 -6 43 -19q25 -6 63 -14q45 -8 68 -8q2 0 10 1t13 1q6 0 22 4q12 2 22.5 10t16.5 18q8 23 2 45.5t-16 34.5q-14 16 -33 27q-25 12 -37 16l-98 31 q-23 6 -48.5 14.5t-52.5 16.5q-29 12 -36 20q-16 16 -25 33q-10 20 -10 41q0 29 10 49q10 23 35 47q14 14 47 39q23 16 53 31q37 16 53 24q58 25 117 43q53 16 115 27q25 45 51 107q16 37 53 106q14 27 31 47q18 25 39 45q18 18 47 33q25 12 51 12q20 -2 51 -10 q23 -6 35 -27q16 -14 20.5 -40.5t-8.5 -53.5q-14 -55 -51 -108q-39 -61 -57 -105q35 -6 70 -26q18 -10 59 -43q4 -4 11 -12.5t11 -12.5q12 -12 19 -29q8 -20 8 -34q0 -25 -4 -39q-6 -20 -20 -33q-20 -16 -33 -21q-27 -8 -35 -10q-12 -2 -33 2q-16 2 -49 2q-23 0 -43 6 q-41 6 -45 7q-25 6 -47 4q-4 0 -9 1t-8 1q-4 0 -16 4l-16 -13q0 -10 8 -22q6 -10 16 -16l21 -15q6 -4 16 -14l28.5 -18.5t35.5 -24.5q31 -25 57 -51q25 -25 35 -64q10 -41 -4 -82q-23 -53 -68 -96q-49 -47 -96 -74q-37 -20 -111 -53q-55 -25 -110 -37q-12 -33 -17 -49 q-6 -27 -14 -47q-6 -16 -14 -49q-4 -16 -17 -49l-28 -64q-12 -29 -41 -63q-16 -23 -35 -33q-29 -16 -43 -23q-22 -9 -43 -12q-14 -2 -43 -2q-31 0 -51 14q-22 15 -25 43q4 31 14 52q16 45 27 67l31 68q20 39 61 137q-84 12 -151 63q-61 47 -84 132q-2 10 -2 30z" />
<glyph unicode="%" horiz-adv-x="1298" d="M156 -2q0 20 10 51q14 35 43 70l57 65l271 297l274 295q-47 -29 -100 -45q-57 -16 -103 -14q-55 -2 -104 26q-43 27 -60 80q-18 51 -10 107q8 51 35 114q25 61 57 113q37 59 84 105q47 51 111 81q61 31 123 37q74 12 123 -12q47 -25 69 -74q20 -47 14 -112.5t-34 -124.5 q0 -2 -8.5 -23.5t-12.5 -32.5q-16 -37 -28 -55l223 244l227 237l27 27q16 16 26.5 24.5t30.5 20.5q10 6 33 10q27 -4 47 -12q23 -10 35 -29q14 -20 16 -41q4 -27 -8 -53q-29 -57 -49 -84l-64 -78l-69 -75l-68 -74l-170 -178l-172 -178l-293 -306l-286 -305q-12 -12 -64 -73 l-59 -74q-16 -20 -43 -32.5t-45 -10.5q-31 4 -47 14q-18 12 -28.5 32.5t-10.5 45.5zM662 971q0 -9 6 -13q8 -4 18 -2q20 0 39 13q20 14 33 28q16 20 24 39l8.5 17.5t8.5 19.5l12 33q8 18 10 35q-2 12 -12 20q-12 8 -29 6q-10 0 -22.5 -6t-22.5 -16q-12 -12 -16 -21 q-2 -4 -8 -11t-6 -9q-8 -14 -21 -47q-16 -41 -18 -47q-2 -2 -2 -10.5t-2 -10.5v-18zM741 184q6 57 35 119q16 66 60 131q47 70 102 117q61 53 127 78q74 29 137 20q59 4 102.5 -24.5t55.5 -75.5q12 -45 2 -103q-6 -43 -33 -108q-23 -57 -63 -117q-39 -55 -95 -108 q-47 -47 -116.5 -84t-126.5 -39q-70 -12 -117 14q-39 23 -59 72q-17 42 -11 108zM985 262q-4 -23 8.5 -35t34.5 -10q14 -2 29 8q12 10 22 23q2 4 5 13t6 13l12 25l8 18l4 19h2q2 4 5 14t5 15q6 16 6.5 28.5t-6 22.5t-22.5 10q-15 0 -31 -6q-6 -2 -24 -17q-4 -4 -21 -24 q-8 -10 -12 -27q-21 -43 -31 -90z" />
<glyph unicode="&#x26;" horiz-adv-x="1124" d="M252 297q-14 88 18 192q10 37 43 89q27 41 66 79q31 31 82 68q29 20 90 49q-10 18 -31 60q-12 23 -22 63q-10 35 -6 72q4 39 22 80q20 49 37 71q33 45 53.5 65.5t65.5 57.5q41 33 71 51q70 43 152 70q78 25 149 25q63 0 106.5 -8.5t94.5 -28.5q29 -12 43 -20.5t35 -28.5 q16 -16 22 -37q6 -25 3 -47q-8 -27 -29 -50q-29 -33 -43 -47q-12 -12 -45 -37q-25 -18 -53 -18q-39 0 -66 8q-41 12 -61 17q-16 2 -35 4t-35 6q-45 8 -70 8q-27 -4 -47 -12l-24 -13q-10 -4 -17 -18q-14 -39 -14 -68q0 -34 24 -55q23 -16 60 -26l65 -17l68 -12q45 -8 70 -10 q12 18 28 34q12 12 37 29q14 8 39 16q20 6 41 3q34 0 55 -13q20 -12 31 -35q8 -18 8 -53q0 -20 -14 -57q-46 -129 -105 -252l-122 -252q-6 -12 -39 -63l-43 -66q-33 -41 -52 -59q-31 -31 -61 -54q-66 -41 -139 -57q-82 -18 -137 -20q-49 -2 -99 10q-53 14 -84 30 q-41 20 -69 52q-37 37 -56 65q-45 62 -61 160zM532 428q0 -25 9 -41q10 -20 22 -33q18 -18 31 -26q33 -25 78 -37q43 -12 94 -12l20 2l21 2h14l68 149l67 150q-16 4 -45 8q-8 0 -23.5 1t-23.5 3q-49 -4 -82 -4q-41 0 -92 -10q-37 -8 -84 -33q-35 -18 -63 -72 q-11 -20 -11 -47z" />
<glyph unicode="'" horiz-adv-x="454" d="M451 924q4 35 12 63l18 64q12 41 19 59q20 55 73 147l25 37q10 14 27 35q20 23 30 33q23 18 37 24q25 10 47 11q18 -2 33 -17q8 -8 16 -32q6 -18 7 -39v-41q0 -29 -9 -86q-6 -49 -22 -88q-10 -27 -35 -80q-12 -27 -45 -76l-27 -39q-14 -23 -28 -39q-14 -18 -33 -33 q-12 -10 -41 -22q-8 -4 -20 -8q-6 -2 -21 -2q-27 8 -43 28q-18 20 -20 45q-3 25 0 56z" />
<glyph unicode="(" horiz-adv-x="901" d="M237.5 401.5q8.5 98.5 45.5 196.5q43 121 100 223q57 104 139 215q74 100 180 203q102 98 213 168q55 33 108.5 53.5t109.5 14.5q29 -2 51 -19q18 -14 28 -39q8 -23 9 -51q0 -23 -15 -59q-6 -18 -16 -25q-16 -12 -25 -16l-26 -13q-20 -8 -29 -12q-92 -35 -184 -104 q-84 -63 -156 -152q-71 -89 -117 -184q-47 -98 -84 -193q-4 -12 -24 -76q-12 -41 -19 -77q-10 -66 -10 -76q0 -35 6 -70q18 -68 61.5 -112.5t94.5 -81.5q20 -16 51 -31l53 -29q12 -6 15 -20q4 -16 -2 -33q-14 -33 -31 -51q-20 -23 -47 -43.5t-55 -32.5q-25 -10 -58 -14 q-53 -8 -106 8q-49 16 -82 45q-74 53 -113 133q-43 84 -59 168q-15 88 -6.5 186.5z" />
<glyph unicode=")" horiz-adv-x="899" d="M178 -18q-4 35 2 55q2 8 15 29q8 12 24 22q8 2 20.5 8t14.5 6q20 8 33 11q57 20 100 47q57 37 92 65q43 37 80 80q49 57 72 86q78 100 129 195q61 115 94 205q31 86 31 167.5t-33 145.5q-29 57 -84 102t-119 70l-12 4t-10 6q-4 2 -19 17q-6 6 -10 20q-4 16 0 27 q10 25 35 53q14 16 51 41q29 20 59.5 28.5t59.5 12.5q68 12 129 -4q51 -14 98 -54q37 -33 68 -86q27 -47 39 -104q29 -115 22 -240q-6 -127 -55 -260t-139 -266q-84 -127 -193 -254l-104 -113q-57 -59 -121 -108q-66 -51 -131 -80q-68 -31 -135 -25q-25 2 -48 17 q-22 12 -37 30.5t-18 43.5z" />
<glyph unicode="*" horiz-adv-x="851" d="M336 733q18 31 43 55q18 18 55 41q51 31 64 37q41 20 59 33q-8 8 -15 16.5t-18 18.5q-27 27 -32 37q-16 29 -21 45q-6 25 0 51q16 29 29 43q16 18 39 35q29 20 45 26q27 10 47 11q18 0 31 -6q8 -4 20 -17q6 -6 18 -22q2 -4 4.5 -7.5t4.5 -5.5t4 -5t4 -7l6 12q8 20 29 62 q10 20 39 57q20 27 55 47q33 18 61 17q20 0 35 -9q20 -12 27 -20q12 -16 14 -31q4 -20 -2 -39l-18 -43q-6 -10 -10.5 -21t-8.5 -22q37 25 72 41.5t74 20.5q39 -6 61.5 -41t9.5 -76q-14 -35 -22 -45q-16 -23 -41 -35l-97 -47l-96 -51l53 -45l52 -45q16 -10 16 -37 q0 -25 -12 -47q-18 -33 -25 -41q-14 -23 -33 -39q-22 -18 -43 -31q-18 -10 -45 -14q-33 0 -53 14t-41 35q0 -2 -2 -7t-2 -7t-2 -7.5t-2 -7.5q-8 -20 -31 -43q-14 -14 -47 -35q-53 -33 -104 -34q-29 2 -41.5 20.5t-12.5 42.5q0 27 7 57q4 20 16 54q-8 -4 -14.5 -8.5 t-14.5 -8.5q-16 -8 -30 -16q-4 -2 -10.5 -5t-11.5 -5t-9 -2q-20 -4 -29 -2q-20 -2 -43 8q-10 6 -35 24q-12 10 -20 33q-6 18 0 43z" />
<glyph unicode="+" d="M285 655q-2 23 10 50q27 41 59 61q39 23 74 31q39 8 82 12q40 3 74 6l8 21q25 61 29 69q18 37 45 70q28 34 61 55q33 20 76 21q23 0 37 -9q16 -10 24 -22q10 -16 13 -33q4 -20 -3 -39q-18 -59 -22 -69q-12 -45 -23 -70h11q2 0 5 -1t5 -1q20 0 70 -4q39 -4 65 -19 q31 -16 41 -39q14 -27 -2 -67q-10 -25 -23 -39q-20 -25 -34 -35q-22 -15 -43 -24q-25 -10 -43 -11q-45 0 -70 -2t-72 -2q-8 -18 -20 -59l-25 -62q-14 -29 -30 -45q-18 -18 -46 -34q-27 -20 -53 -29q-31 -10 -53 -10q-35 8 -47 34q-12 29 -10 62q4 39 12 74q12 49 18 69h-59 q-41 0 -59 2q-25 0 -43 13q-14 10 -25 32q-10 16 -14 43z" />
<glyph unicode="," horiz-adv-x="483" d="M33 -109q0 16 6 35q20 57 67 119q57 74 93 111l51 49q28 28 55 49q29 23 57 37q31 16 64 18q25 -4 45 -16q14 -10 18 -39q0 -14 -4 -47q-2 -23 -12 -47q-14 -35 -37 -70q-18 -29 -51 -65q-37 -43 -59 -62l-64 -55q-8 -6 -16 -13.5t-19 -15.5l-37 -29q-20 -14 -40 -22 q-18 -8 -41 -8q-4 2 -15 2q-8 0 -14 2q-23 4 -29 10q-14 14 -16 24t-2 33z" />
<glyph unicode="-" horiz-adv-x="960" d="M362 655q-6 25 5 50q27 39 61 59q37 23 76 31q40 9 80 12q12 0 36.5 1t36.5 3h45q31 0 46 -2q6 0 22 -1t23 -1h45q33 0 90 -4q61 -4 88 -8q25 -6 39 -15q20 -10 30 -22q14 -16 17 -35q4 -25 -4 -45q-8 -18 -29 -39q-16 -16 -39 -33q-16 -12 -45 -22q-14 -6 -47 -11 q-109 -8 -242 -8q-59 0 -118.5 1t-120.5 1q-47 6 -74 45q-17 23 -21 43z" />
<glyph unicode="." horiz-adv-x="507" d="M135 92q4 37 19 70q12 33 36 59q29 31 54 49q29 20 63 33q33 12 66 12q35 4 57 -8q27 -12 39 -30.5t16 -49.5q2 -27 -10 -59q-14 -41 -35 -70q-25 -34 -55 -61q-35 -31 -70 -47q-40 -18 -73 -19q-43 -4 -66 15q-27 20 -35 43q-10 28 -6 63z" />
<glyph unicode="/" horiz-adv-x="841" d="M72 10q-10 33 0 62q18 57 55 112q35 53 78 109l94 115l92 116l107 140l106 139l199 237l205 232q45 49 47 51q18 18 55 47q33 25 61.5 37t61.5 8q16 -4 24.5 -8t20.5 -16q10 -10 12 -21q2 -12 -4 -29q-18 -49 -31 -67q-6 -10 -43 -64q-27 -33 -51 -67q-16 -23 -53 -68 l-379 -489q-201 -252 -405 -477q-20 -23 -45 -47.5t-52 -45.5q-18 -14 -55 -30q-31 -14 -57 -9q-35 6 -43 33z" />
<glyph unicode="0" horiz-adv-x="1087" d="M276.5 440.5q10.5 112.5 51.5 218.5q49 127 106 228q72 123 150 217q45 55 88 98q63 63 100 90q57 41 113 68q53 25 119 29q92 0 155 -35q68 -37 98 -90q33 -57 46 -134q12 -77 6 -159q-6 -76 -29 -168q-20 -82 -53 -164q-45 -115 -105 -219q-63 -111 -153 -207 q-45 -51 -95 -92q-57 -47 -108 -76t-117 -49q-55 -18 -114 -14q-61 0 -103 20q-45 23 -74 57q-31 37 -49 82q-18 47 -24 92q-19 95 -8.5 207.5zM528 391q0 -33 7 -57q6 -27 26 -41q25 -18 57 -21q27 -2 64 13q33 12 63 34q25 18 54 50q33 37 47 55q53 86 86 156 q16 37 59 145q4 16 11.5 35.5t13.5 40.5q18 63 22 84q10 43 13 82q4 41 -7 71q-10 33 -32.5 53.5t-69.5 26.5q-39 -4 -68 -20q-20 -12 -55 -47q-20 -20 -49 -62q-6 -10 -12 -18l-9.5 -12.5l-8.5 -11.5t-11 -17q-53 -92 -88 -180q-35 -84 -66 -166q-4 -14 -10 -30.5 t-10 -31.5l-18 -67q-9 -46 -9 -64z" />
<glyph unicode="1" horiz-adv-x="552" d="M209 90q2 20 10 51q6 23 17 52l16 51l59 157l64 156l69 164l66 162q8 29 14 45l17 47q8 27 10 45q3 22 0 43l-12.5 13t-12.5 16q-12 16 -18 32q-10 31 -10 39q0 16 10 43q14 35 33 62q25 35 47 55q18 16 59 41q25 14 66 22q4 0 26 -12q20 -10 27 -14q27 -18 49 -51 q20 -29 31 -70q10 -43 8 -80q-2 -39 -16 -86q-4 -8 -9 -24q-2 -4 -4 -11.5t-2 -11.5q-33 -94 -67 -176l-74 -176q-12 -33 -31.5 -81t-42.5 -97q-31 -70 -71 -177q-4 -14 -17 -43l-12 -43l-16 -40l-17 -41q-14 -37 -22 -52q-20 -33 -35 -47q-23 -31 -45 -45q-25 -16 -54 -22 q-43 -6 -71.5 10t-36.5 47q-4 29 -2 47z" />
<glyph unicode="2" horiz-adv-x="1124" d="M270 104q4 35 15 62q12 39 34 78q29 49 48 73q37 49 57 72l61 68l152 161l156 160q65 68 122 142q59 74 91 155q6 12 6 25q0 16 -2 22q-4 10 -13 17q-6 4 -24 4q-23 0 -64 -8q-35 -6 -63 -19q-20 -6 -62 -22q-35 -14 -57 -37l-14 -19l-11 -16l-12 -16 q-14 -25 -28.5 -39.5t-38.5 -28.5q-29 -16 -43 -20q-23 -6 -41 -7q-29 -4 -52 13q-20 14 -20 43q-6 23 0 51q6 23 18 53q25 53 54 84q33 35 77 68q35 25 89 53q41 23 90 43q90 35 188 51q102 16 180 14q59 -2 90 -41q29 -35 39 -88q10 -43 4 -104q-6 -57 -24 -115 q-20 -70 -70 -137q-68 -96 -98 -129l-129 -129l-127 -129q-41 -41 -119 -127q-58 -65 -98 -135q100 14 205 37q113 25 202 35q20 2 43 -13q18 -12 27 -33q10 -18 12 -38q4 -25 -8 -50q-41 -35 -82 -55t-90 -37q-61 -20 -92 -28l-90 -25q-113 -27 -203 -41q-100 -14 -195 -12 q-33 0 -55 16q-18 12 -29 41q-10 24 -6 57z" />
<glyph unicode="3" horiz-adv-x="1103" d="M297 115q0 35 12 71q6 18 14.5 35t30.5 27q6 2 39 8l37 4l62 6q45 4 63 8q51 10 117 35q49 18 116 58q20 12 54 36q18 14 51 43q12 10 41 50q10 14 29 55q4 8 8 20q2 8 2 23q0 12 -6 18q-8 8 -21 9q-72 0 -160 -17q-86 -16 -165 -51q-12 -4 -35 -14.5t-25 -12.5 q-18 -8 -55 -20q-29 4 -47 18q-16 14 -27 37q-12 16 -18 43t2 53q9 22 24 43q10 14 35 39q4 6 41 31q6 4 45 27l111 57l108 55q20 12 47 33q33 25 45 37q29 29 39 43q14 20 25 47q4 12 8 18q10 14 10 17l-6 6q-59 -10 -106 -35l-105 -53l-90 -47q-37 -20 -92 -43 q-10 0 -23 4q-10 4 -20 10q-12 8 -16 15q-8 8 -15 16q-10 14 -10 16t-2 10.5t-4 10.5q-4 12 -4 20q0 12 6 25q20 39 51 69q20 20 70 58q35 27 78 49q20 10 75 45l82 37q43 20 82 35q37 14 82 24t80 10q57 0 98 -22q43 -23 70 -59.5t37 -83.5q10 -49 -8 -103 q-20 -59 -66 -117q-39 -49 -92 -106q59 -6 98 -39q37 -31 53 -78q14 -45 9 -106q-6 -55 -35 -117q-25 -63 -57 -115q-37 -55 -82 -106q-46 -52 -99 -98q-53 -47 -108 -84q-43 -31 -117 -74q-47 -29 -121 -53q-74 -27 -121 -33q-61 -8 -116 -6q-37 4 -60 20q-25 18 -37 47 q-16 29 -16 62z" />
<glyph unicode="4" horiz-adv-x="1028" d="M274 657q8 33 15 50q23 63 57 118l76 115q40 61 86 117q47 57 96 108q16 18 53 56q18 18 56 51q20 18 55 45q27 20 59 31q27 2 49.5 -10.5t34.5 -30.5q10 -18 21 -45q10 -25 -4 -56q-27 -55 -64 -98l-78 -92q-4 -4 -88 -109q-43 -52 -80 -110q41 -8 115 -17 q72 -8 115 -14q27 53 37 82l30 84l12.5 40.5t14.5 41.5l31 84l37 90q8 23 45 90q14 25 28 39q27 27 37 33q29 16 43 20q25 6 43 4q29 -4 47 -18q20 -18 29 -35q12 -29 12 -49q0 -31 -8 -55l-15.5 -46.5t-21.5 -60.5l-39 -104q-14 -35 -39 -109q-18 -53 -38 -106 q-8 -20 -11 -31q-4 -20 -8 -31q29 -18 41 -49q14 -37 -4 -78q-20 -39 -49 -72q-31 -33 -72 -49q-8 -14 -14 -28l-12 -29q-14 -37 -23 -66q-10 -39 -20 -63q-14 -49 -21 -64q-2 -8 -10 -25.5t-15 -35.5q-20 -45 -28 -59q-18 -31 -41 -54q-27 -27 -51.5 -43t-63.5 -20 q-45 -6 -74 10q-31 18 -30 59q-2 18 0 39q2 14 10 43l12 43l15 43q8 14 20 48q16 43 18 47q14 25 23 47q16 43 18 47q4 16 8.5 24.5t8.5 24.5q-25 4 -35 4h-35q-63 0 -125 6q-72 8 -121 23q-8 2 -51 16q-29 10 -51 23q-25 14 -41 30q-18 18 -27 41q-6 20 0 45z" />
<glyph unicode="5" horiz-adv-x="1114" d="M252 119q0 35 8 65.5t35 59.5q25 29 59 35q14 4 60 8q37 4 57 2h55q18 0 56 8q63 18 116 57q57 41 107 82q23 18 98 94q47 47 76 107l6 18q4 10 4 26.5t-16 18.5q-57 -6 -109 -36l-104 -62l-105 -70q-29 -20 -56.5 -36.5t-47.5 -30.5q-29 -20 -72 -37q-37 -14 -71 -14 q-39 4 -58 24q-20 25 -24 58q-4 23 -4 67q0 29 18 74l47 125q4 10 53 125q6 14 17.5 38.5l20.5 45l18 39.5q10 25 30.5 67.5t24.5 52.5q25 57 57 95q41 47 90 73q63 33 103 45q52 15 104 25q74 14 123 16q61 2 119 0q45 -4 65 -6q33 -4 54 -24q25 -20 26 -54q3 -34 -12 -67 q-6 -18 -20 -41q-12 -18 -35 -31q-18 -8 -45 -8q-25 0 -39 -2q-14 0 -41 -1t-41.5 -3t-41 -3t-40.5 -1l-41 -8.5t-41 -6.5q-39 -6 -84 -24l-59 -133l-60 -131q29 25 94 65q37 23 101 49q53 23 100 31q57 10 98 8q25 0 66 -8q25 -4 59 -20q27 -12 50 -35q20 -20 32 -47 q14 -27 17 -58q4 -41 2 -63q-4 -45 -11 -68q-12 -45 -20 -67q-25 -68 -68 -129q-41 -57 -96 -117q-49 -51 -115 -105q-82 -66 -124 -94q-49 -33 -129 -78q-76 -41 -136 -65q-63 -27 -135 -39q-66 -12 -129 -6q-35 4 -55 20q-25 20 -33 45q-8 19 -8 60z" />
<glyph unicode="6" horiz-adv-x="1042" d="M236 307q-2 82 26 172q45 117 108.5 227.5t137.5 221.5l70 104l75 105q41 53 82 100q51 59 94 94q29 23 68 39q31 12 72 16q22 6 37 0q18 -8 26 -18q12 -16 15 -31q4 -18 -3 -37q0 -12 -4 -32q0 -6 -10 -33q-45 -66 -84 -113l-90 -110l-68 -86q-23 -29 -63 -90 q61 29 133 41t127 10q68 0 129 -29q57 -27 84 -82q25 -53 19 -119q-6 -70 -33 -131q-39 -104 -109 -196q-72 -92 -164 -170q-43 -37 -96 -74q-47 -33 -100 -57q-51 -25 -106.5 -37t-102.5 -10q-49 0 -84 14q-45 18 -68 37q-29 23 -51 55q-20 29 -33 68q-32 81 -34 151z M500 295q6 -16 20 -25q16 -10 35 -12q29 -4 39 -4q45 -2 100 16q55 20 101 56q41 35 73 84q31 45 50 96q8 25 10 39q4 27 2 39q-2 14 -14.5 26.5t-36.5 10.5q-35 0 -78 -17q-37 -14 -76 -37q-47 -20 -78 -45q-35 -27 -65 -63l-47 -62q-25 -37 -33 -63q-8 -21 -2 -39z" />
<glyph unicode="7" horiz-adv-x="1026" d="M367 86q0 33 14 64q22 65 61 122l78 119l252 344l250 344q2 4 8 12.5t8 12.5l17 24q-10 0 -28.5 1t-29.5 4q-18 2 -57 2q-66 0 -123 -17q-61 -18 -119 -65q-23 -20 -53 -37q-33 -18 -55 -21q-27 -2 -58 4q-23 4 -43 23q-20 10 -22 35q-4 31 6 51q18 43 47 78q33 39 70 67 q39 29 82 52q49 25 84 36q76 27 174 37q86 9 166 6q43 -2 110 -10q51 -6 101 -24q18 -8 38.5 -24.5t30.5 -35.5q14 -25 17 -45q2 -23 -7 -53q-51 -96 -120 -195l-136 -190l-169 -232l-177 -229q-45 -68 -65 -108l-62 -113q-6 -10 -16 -24.5t-18 -30.5q-25 -37 -39 -54 q-23 -20 -56 -26q-16 -4 -55 -8.5t-59 10.5q-25 16 -37 39q-10 20 -10 55z" />
<glyph unicode="8" horiz-adv-x="1060" d="M221 211q-12 71 12 147q12 47 43 95q29 43 70 84q43 43 86 71q49 33 96 54q-35 18 -59.5 46.5t-36.5 63.5q-12 39 -10 78q4 47 22 88q25 57 43 86q18 31 62 80q39 45 72 74q27 23 79 63q43 33 84 59q37 25 90.5 45.5t90.5 28.5q51 10 88 10q78 0 137 -36q57 -37 90 -91 q37 -51 49 -120.5t-12 -147.5q-10 -39 -43 -94q-31 -51 -68 -88q-40 -40 -86 -74q-35 -25 -98 -53q29 -20 51 -49q25 -31 33 -66q10 -43 8 -78q-2 -43 -20 -86q-35 -84 -99 -157q-59 -68 -143 -135q-33 -25 -82 -54q-43 -25 -86 -43q-29 -12 -86 -24q-51 -10 -84 -8 q-78 0 -141.5 28.5t-100.5 79.5q-39 51 -51 123zM514 299q6 -14 22.5 -24.5t34.5 -12.5q29 -4 39 -4q18 -2 49 4q33 8 52 17q25 12 45 32q18 16 26 45q10 25 8 43.5t-12 35t-26 24.5q-20 10 -39 10q-29 0 -58 -12q-33 -14 -57 -31q-33 -25 -47 -39q-23 -23 -35 -47 q-8 -25 -2 -41zM762 938q0 -14 8 -35q6 -14 23 -24q14 -8 38 -9q29 0 58 15q37 18 55 35q35 31 49 49q25 33 33 57q6 18 6 36.5t-6 33.5q-4 12 -18.5 22t-32.5 10q-33 0 -62 -14q-41 -20 -59 -35q-37 -29 -51 -47q-20 -27 -33 -53q-8 -18 -8 -41z" />
<glyph unicode="9" horiz-adv-x="1038" d="M326 711q6 63 32 137q37 84 72 139q47 76 100 133q55 61 129 119q71 55 148 92q45 23 111 41q61 16 108 14q90 0 156 -47q68 -49 94 -118q27 -68 27 -156q0 -80 -29 -176q-27 -72 -57 -129l-72 -129q-33 -59 -80 -125l-84 -123q-39 -47 -86 -115q-29 -41 -90 -114 q-51 -61 -100 -103q-51 -43 -121 -69q-25 -4 -39 2q-16 6 -27 20q-8 10 -8 32.5t8 41.5l6 12q4 12 6 16l7 13q0 2 2 6t2 6q20 51 67 113l80 108l92 115l88 117q-76 -49 -157 -76q-80 -27 -158 -27q-70 0 -127 29t-84 82q-22 49 -16 119zM598 770q0 -12 12 -29q8 -12 29 -12 q25 0 59 10q33 10 60 25q37 20 55 33q37 25 53 39q41 33 97 90q45 47 63 106q6 20 0 33q-6 10 -20 18q-10 6 -29 9q-12 2 -33 2q-47 6 -102 -15q-52 -18 -99 -55q-45 -35 -79 -84q-33 -45 -50 -96q-9 -18 -12 -37q-4 -25 -4 -37z" />
<glyph unicode=":" horiz-adv-x="495" d="M131 113q2 33 16 69q10 33 35 58q27 27 54 43q31 18 61 26q23 6 61 6q33 4 57.5 -2t43.5 -26q15 -18 18 -43q2 -20 -14 -58q-31 -72 -90 -135q-20 -20 -33 -28q-25 -16 -37 -23q-20 -10 -38.5 -16.5t-37.5 -6.5q-37 0 -61 21q-23 18 -31 47q-8 25 -4 68zM375 684 q8 41 16 59q14 31 31 60q23 37 45 57q20 20 57 43q31 18 64 19q29 -4 51 -15q27 -12 33 -43q8 -23 2 -53q-10 -43 -15 -57q-9 -28 -24 -62q-12 -27 -41 -59q-18 -20 -55 -43q-29 -18 -66 -14t-57 16q-25 14 -33 39q-14 24 -8 53z" />
<glyph unicode=";" horiz-adv-x="526" d="M55 -84q4 25 8 37q18 51 62 106q35 47 86 101l16.5 16t18.5 18.5l16 16.5q37 33 57 47q41 29 62 39q37 18 63 20q23 0 48 -10q18 -8 22 -37q0 -23 -10 -49l-19 -51q-18 -45 -36 -70q-33 -43 -54 -67l-57 -62q-2 -2 -64 -59q-8 -6 -18 -14.5t-18 -16.5q-12 -10 -37 -26 q-23 -14 -39 -21q-20 -6 -39 -4q-4 2 -14 2q-2 0 -6.5 1t-6.5 1q-20 6 -28.5 18.5t-12.5 29t0 34.5zM401 664q0 10 5 34q0 4 10 33q12 29 35 66q20 31 49 57q29 25 63 41q34 15 68 12q37 -4 57 -20q25 -20 33 -47q8 -25 8 -62q0 -33 -12 -65q-14 -57 -74 -107 q-29 -23 -63 -35q-41 -14 -66 -12q-18 0 -51 8q-23 6 -45 25q-10 16 -15 37q-2 12 -2 35z" />
<glyph unicode="&#x3c;" horiz-adv-x="819" d="M272 676q12 27 35 49q37 37 45 43q33 25 51 35q8 4 15.5 9t11.5 7l11.5 6t15.5 11l116 61l117 61l66 37l65 33q39 18 64 27q37 10 59 8q22 -3 37 -12q16 -10 27 -27q8 -14 12 -35q2 -16 -4 -41q-4 -14 -21 -43q-10 -18 -39 -33l-165 -90l-164 -94l110 -67l111 -70 q12 -6 18 -18.5t6 -24.5q0 -15 -6 -31l-12 -31q-12 -29 -23 -40q-16 -18 -34 -35q-25 -20 -39 -27q-12 -6 -45 -10q-47 0 -78 14t-66 35q-12 10 -30.5 21.5t-36.5 25.5l-70 47q-33 29 -51 41q-27 18 -53 41q-20 18 -39 51q-17 29 -17 66z" />
<glyph unicode="=" horiz-adv-x="980" d="M313 489q-4 27 2 50q2 14 19 34q12 15 31 25q33 16 38 18l37 13q29 8 86 16q29 4 82 4h41q12 0 41 -4q57 -4 88 -4h49q8 2 25 2q14 0 25 2q18 0 67 -4q29 -2 66 -18q27 -12 39 -37t-11 -70q-14 -23 -34 -43q-18 -18 -46 -35q-12 -8 -51 -22q-27 -10 -51 -10 q-78 -6 -229 -7q-125 0 -224 9q-27 4 -43 14q-23 16 -30 27q-15 20 -17 40zM422 806.5q0 22.5 12 47.5q6 14 27 35q6 6 37 26q16 10 39 21q8 2 41 14q35 14 79 21q53 8 80 10h39q29 0 41 -2q53 -4 80 -4h25q4 0 12 -1t12 -1q10 2 29 2q16 0 24 -2q23 0 68 -8q31 -6 57 -23 q23 -14 37 -45q12 -27 2 -63q-4 -27 -18 -46q-20 -25 -39 -34q-20 -12 -47 -18.5t-47 -4.5h-514q-20 0 -41 10q-18 8 -27 27q-8 16 -8 38.5z" />
<glyph unicode="&#x3e;" horiz-adv-x="819" d="M293 397q8 27 20 45q10 12 41 33q33 16 170 98l168 101l-108 78q-14 10 -111 75q-8 4 -16 21q-6 12 -6 24q0 10 4 31q2 6 7 16.5t5 12.5q6 23 20 39q20 25 33 35q20 16 39 24q22 9 43 12q35 -4 60 -14q49 -20 53 -24q8 -4 25.5 -14.5t25.5 -14.5l47 -31l105 -78 q59 -47 92 -86q2 -6 6 -10t8 -10q8 -12 12 -21l6 -24q2 -8 -2 -29q-16 -31 -36 -53q-18 -20 -50 -45q-43 -35 -55 -41l-57 -37l-111 -61l-113 -64q-33 -16 -65 -35q-45 -25 -68 -35q-31 -15 -61 -24q-35 -10 -62 -8q-43 6 -61 38.5t-8 75.5z" />
<glyph unicode="?" horiz-adv-x="1042" d="M297 90q-6 43 6 80q8 35 37 70q33 39 63 57q43 27 74 35q43 12 74 10q37 2 74 -10q35 -12 57 -35q20 -20 27 -57q6 -31 -15 -76q-14 -39 -34.5 -67.5t-55.5 -59.5q-33 -29 -65 -43q-41 -16 -72 -14q-47 4 -78 14q-39 14 -59 35q-27 26 -33 61zM420 575.5q-4 28.5 8 59.5 q12 33 35 57q31 35 49 49q37 29 57.5 41.5t61.5 32.5l149 72q88 41 152 67q8 4 24.5 11.5t24.5 11.5q33 16 49 27q35 20 45 30q16 14 35 43q4 25 -10 39q-12 12 -33 19q-29 8 -43 8q-18 0 -43 4q-51 4 -100 -8q-57 -14 -103 -35q-23 -14 -61 -53l-55 -58q-35 -39 -64 -55 q-37 -20 -76 -25q-25 0 -41 9q-14 8 -26 26q-10 16 -10.5 37t10.5 45q18 46 49 86q33 43 69.5 74t83.5 61q35 23 88 47q90 45 186.5 68t180.5 16q31 0 66 -6q39 -8 63 -14q25 -8 55 -27q20 -12 43 -39q39 -47 41 -110q2 -61 -20 -135q-37 -77 -98 -136q-57 -55 -138 -104 q-57 -37 -153 -84l-152 -76q18 -2 58 -2q8 0 28.5 -1t30.5 -1l51 -8q37 -4 51 -8q0 -6 1 -19.5t1 -19.5q0 -20 -8 -39q-16 -45 -51 -74q-43 -35 -76 -53q-29 -4 -37 -4q-25 0 -39 -2q-12 -2 -38 -2h-37q-59 -2 -125 10q-55 10 -113 35q-29 16 -43 26q-18 12 -37 39 q-12 19 -16 47.5z" />
<glyph unicode="@" horiz-adv-x="1509" d="M281 403q0 49 14 121q10 51 34.5 125t65.5 150q37 70 92 143q49 68 117 131q72 68 137 115q70 49 152 90q78 39 158 63q86 27 159 35q92 10 152 8q57 0 113 -12q59 -14 100 -35q43 -23 80 -59.5t57 -79.5q25 -45 35 -94q10 -55 10 -107q0 -55 -12 -112q-14 -66 -33 -117 q-35 -106 -96 -199q-70 -104 -160 -178q-49 -47 -96 -74q-59 -35 -107 -53q-49 -18 -110 -33q-55 -12 -105 -12q-68 -2 -166 17q-76 14 -147 47q-20 10 -61 34q-31 18 -52 45q-22 28 -30 62q-10 35 6 80q16 49 33 71q23 31 55 64q20 20 69 53q25 16 74 41q76 35 160 51 q80 15 154 13q2 29 -11 57q-12 27 -41 37q-33 8 -47 12q-25 8 -49 10q-25 14 -24 37q0 31 10 54q8 27 30 51q20 23 48 43q20 14 55 26q25 8 55 9q49 0 74 -7q33 -8 65 -24q27 -14 52 -41q16 -18 30 -60q22 -65 12.5 -141.5t-36.5 -152.5q-18 -49 -60 -127q-33 -61 -82 -121 q51 12 94.5 42.5t73.5 73.5q41 57 56 89q20 43 37 90q35 74 38 153q3 77 -24 135q-27 57 -84 90t-145 27q-49 0 -99 -6q-66 -8 -100 -16q-53 -12 -103 -33q-45 -18 -100 -53q-55 -41 -104 -90q-43 -43 -80 -97q-45 -66 -62 -100q-23 -49 -43 -102q-41 -86 -45 -175 q-4 -90 29 -151q33 -63 98.5 -100t163.5 -29q23 4 39 -2q14 -4 27 -21q10 -14 10 -30q0 -20 -10 -39q-8 -27 -31 -52q-23 -27 -45 -43q-25 -18 -55.5 -28t-57.5 -10q-63 0 -119 14q-61 16 -104 39q-47 25 -84 65q-39 43 -59 88q-20 41 -35 101q-10 46 -10 114zM803 526 q4 -12 8 -20t18 -17q12 -8 20.5 -12t20.5 -8q27 -10 48 -16q33 -8 55 -9q29 18 63 62q33 41 51 72q-4 0 -13 2t-13 4q-16 4 -27 6q-37 -4 -57.5 -4t-61.5 -4q-31 -4 -61 -17q-26 -12 -51 -39z" />
<glyph unicode="A" horiz-adv-x="1204" d="M160 145q0 37 8 68q27 74 55 121l76 119l94 125l92 124l123 203l127 199l66 86q35 47 76 88t84 70q47 31 100 41q41 0 82 -21q31 -16 59.5 -47t38.5 -68q12 -39 19 -84q0 -57 -3 -84q-4 -53 -4 -81q-16 -217 -26 -326q-27 -283 -33 -330q0 -27 -6 -57q-2 -12 -4 -35 t-2 -25q-2 -27 -13 -57q-10 -35 -22 -59l-2 -6q-18 -40 -55 -68q-39 -29 -78 -35q-12 -2 -26 -2q-18 0 -40 4q-33 6 -47 31q-5 16 -5 39q0 11 1 24l8 68q8 39 10 63l7 64q-20 8 -31 10q-20 4 -35 2q-47 0 -94 -6q-68 -8 -96 -14q-25 -6 -47.5 -12.5t-47.5 -10.5 q-51 -12 -94 -39q-23 -18 -35 -41l-24 -45q-6 -14 -23 -51q-18 -37 -28 -49q-23 -25 -52 -35q-16 -5 -36 -5q-10 0 -19 1q-35 6 -57 29q-14 14 -31 51q-10 30 -10 63zM690 586l2 4q16 -2 51 -2q37 0 54 -2h28q18 0 28.5 2t31.5 10q16 6 26.5 16.5t16.5 26.5q16 53 22 96 q4 31 8 92q2 31 3 93q0 10 -0.5 30t-0.5 30q0 17 1 30q-25 -23 -80 -92q-37 -47 -72 -97q-41 -66 -59 -100q-31 -59 -50 -102l-6 -19z" />
<glyph unicode="B" horiz-adv-x="1218" d="M231 162q-2 16 -1 33q0 41 10 90q12 66 30 127q43 125 97 229l59 119q31 68 53 121q14 31 25 69q14 53 20 70q16 45 22.5 67.5t26.5 67.5q12 27 41 59q25 28 56 50q35 25 61 39q31 16 66 30q76 29 137 39q59 10 131 14q9 0 18 1q48 0 111 -13q57 -12 111 -45 q12 -6 43 -33q20 -18 34 -45q10 -23 15 -55q1 -7 0 -14q0 -24 -8 -49q-18 -63 -58 -117q-49 -68 -90 -107q49 -25 76 -69q27 -43 39 -99q7 -31 7 -71q0 -16 -1 -37q-2 -51 -27 -119q-23 -59 -71 -119q-39 -47 -107 -100q-53 -43 -123 -82q-72 -41 -129 -66q-94 -45 -143 -61 q-98 -33 -148 -47q-16 -4 -33.5 -9l-33.5 -10q-27 -8 -66 -14q-45 -8 -67 -10q-9 -1 -19 -1q-14 0 -43 3q-37 4 -55 16q-18 14 -35 39q-14 20 -20 53q-9 38 -11 56zM539 360q0 -12 4 -28q4 -14 16 -20.5t31 -6.5q66 0 127 21q63 20 127 59q33 16 59 35q35 25 55 45 q25 23 46 51q23 29 34 59q10 31 6 60q-2 25 -18 47l-2 6q-84 0 -141 -12q-72 -16 -146 -55q-37 -20 -65 -43q-20 -16 -54 -58q-31 -37 -43 -61q-18 -33 -26 -66q-10 -25 -10 -33zM748 872q88 20 170 66q8 4 19 9t21 11q23 12 39 27q25 20 35 33q18 23 25 37q3 11 3 18.5 t-3 13.5q-8 18 -19 23q-14 8 -30 10q-5 1 -12 1q-4 0 -11 -0.5t-10 -0.5q-29 0 -45 -2q-18 -2 -47 -14q-25 -10 -43 -29q-20 -20 -31 -41l-25 -55l-20 -53q-2 -4 -4 -13.5t-4 -13.5t-4 -13.5t-4 -13.5z" />
<glyph unicode="C" horiz-adv-x="1157" d="M279 401q-1 15 -1 30q0 45 7 91q8 55 34 125q41 121 123 244q84 127 183 227q55 59 104 101q61 51 119 86q72 43 127 61q62 21 116 21l13 -1q45 0 82 -12q41 -14 69 -31q41 -25 60 -45q23 -27 45 -57q12 -20 33 -65q14 -31 20 -74q5 -32 5 -58q0 -11 -1 -22 q-2 -35 -16 -84q-6 -28 -25 -49q-16 -20 -40.5 -36.5t-49.5 -23.5q-31 -6 -49 -2q-39 0 -68 23q-27 20 -32 55l-7 68q-6 61 -6 65q-2 4 -2 12.5t-2 12.5q-4 14 -10 24.5t-16 16.5q-8 6 -27 6q-47 0 -82 -16q-45 -20 -80 -47q-31 -23 -69 -66q-43 -47 -60 -70 q-57 -68 -106 -157q-47 -86 -74 -164q-20 -57 -25 -115q-1 -9 0 -17q0 -46 15 -83q16 -53 57 -80q39 -25 90 -25h12q49 0 105 23q57 25 104 51l68 45q25 16 70 31q23 4 39 -12.5t16 -34.5q6 -16 2 -41t-12 -45q-25 -61 -78 -115q-51 -51 -115 -92q-58 -40 -123 -68 q-59 -25 -127 -28q-21 -2 -40 -2q-44 0 -81 10q-57 16 -102 43q-46 28 -80 67q-39 45 -57 86q-20 43 -39 103q-12 42 -16 110z" />
<glyph unicode="D" horiz-adv-x="1193" d="M209 143q-1 10 -1 20q0 35 9 66l16 47q12 33 21 48q8 25 20 47q8 16 21 49q16 37 22 55l19 55l29 86l28 84l33 88l33 86l25.5 57.5l25.5 57.5l51 119q33 70 60 113q33 51 79 106q45 14 91 25q25 6 88 14q31 6 102 14q35 4 100 9q16 1 32 1q55 0 110 -16q65 -18 110 -55 q47 -37 78 -90q29 -47 41 -117q8 -43 8 -87q0 -22 -2 -46q-4 -59 -37 -143q-23 -74 -69 -158q-45 -80 -99 -152q-49 -66 -125 -141q-68 -68 -141 -129q-70 -59 -149 -113q-78 -51 -162 -88q-76 -33 -164 -53q-46 -10 -95 -10q-31 0 -65 4q-47 4 -73 22q-29 20 -50 54 q-16 28 -20 71zM555 332q57 10 96 28q41 18 92.5 53.5t87.5 65.5l82 72l76 78l74 84q34 43 61 86q23 33 45 92l13 41l12 43q6 20 6 41q0 18 -6 37q-10 18 -25 26q-12 8 -32 15q-12 4 -41 8q-14 2 -41 2h-51q-33 0 -50 -2q-33 -4 -51 -4q-8 0 -24.5 -1t-24.5 -1 q-20 -10 -35 -35l-10 -19.5t-12 -21.5q-8 -16 -21 -49l-18 -49q-76 -166 -135 -342q-4 -14 -20.5 -58.5t-22.5 -66.5q-19 -62 -25 -123z" />
<glyph unicode="E" horiz-adv-x="1153" d="M229 180q8 94 29 166l51 168l78 209q29 82 84 207q41 90 107 203q58 98 141 190q78 27 149 35q98 12 146 14q74 8 162 8q80 0 153 -6q29 0 57 -14q18 -10 37 -35q16 -23 17 -51q0 -28 -13 -62q-2 -16 -14 -41q-10 -20 -27 -36q-10 -18 -34.5 -28.5t-42.5 -10.5 q-111 10 -224 12q-31 1 -67 1q-55 0 -162 -3l-22.5 -35.5t-18.5 -30.5q-18 -31 -33 -67q-2 -2 -2 -6v-9q18 0 54 4.5t55 4.5l108 6q6 0 48 3t63 3q12 0 34.5 0.5t34.5 0.5q19 0 35 -1q6 1 12 0q28 0 52 -10q29 -12 43 -33q21 -29 21 -59q0 -22 -15 -58q-8 -29 -33 -53 q-23 -23 -51 -35q-35 -16 -59 -20q-45 -8 -56 -11q-53 -6 -159.5 -14t-159.5 -16q-41 -6 -76 -25q-33 -16 -69 -43q-35 -25 -60 -59q-27 -37 -35 -70q-16 -43 -20 -88q-4 -57 -4 -84q78 10 147 39l146 63q51 25 153 62q72 27 154 33q33 4 47 -6q20 -12 24 -31 q6 -25 4.5 -47.5t-16.5 -48.5l-31 -56q-20 -29 -45 -49q-45 -35 -90 -59q-51 -29 -96 -47q-78 -35 -96 -41l-99 -37q-47 -14 -94 -31l-96 -29q-43 -12 -94 -18q-47 -6 -90 -6q-35 6 -66 18q-33 12 -47 39q-18 25 -22 62z" />
<glyph unicode="F" horiz-adv-x="1011" d="M225 55q-1 9 -1 21q0 17 3 51q2 25 11 74q4 31 16 75q6 25 14 74l41 160q25 88 49 162q98 261 258 510q25 39 68 78q45 41 86 59l107 24q35 8 104 17q53 10 111 14l55.5 4t52.5 2q45 -4 74 -14q35 -12 57 -35q25 -25 33 -57q3 -11 3 -23q0 -22 -11 -53 q-6 -18 -22.5 -38.5t-35.5 -31.5q-20 -12 -41 -20q-29 -12 -43 -14q-43 -10 -94 -15q-43 -3 -64 -3q-14 0 -26 1q-23 2 -65 2q-45 0 -66 2h-14q-8 0 -15 -2q-33 -33 -51 -75l-37 -84l-8 -23l90 6q14 0 43 3t45 5l88 7q41 3 60 2h24q41 0 58 -7q29 -10 45 -24q18 -15 30 -37 q10 -18 11 -51v-19q0 -10 -2 -18q-8 -23 -29 -43q-16 -16 -39 -33q-20 -14 -47 -24q-10 -4 -47 -15q-68 -20 -133 -31q-43 -6 -129 -14q-37 -6 -111 -14q-55 -6 -110 -27q-6 -12 -21 -57q-2 -4 -8 -26.5t-10 -33.5q-4 -12 -11.5 -38.5l-11.5 -40.5q-16 -53 -27 -80 q-20 -55 -38 -94q-23 -47 -54 -95q-8 -12 -28 -37q-16 -18 -35 -34q-16 -14 -41 -25q-12 -5 -26 -5q-7 0 -15 1q-27 4 -45 18q-19 16 -25 39z" />
<glyph unicode="G" horiz-adv-x="1247" d="M301 473q4 125 51 252q45 125 121 225q82 111 180 203q47 47 103 90q43 33 112 74q55 33 119 51q68 20 119 21q100 0 178 -33q84 -35 141 -84q6 -6 11.5 -12.5t13.5 -14.5q18 -18 25 -28q12 -20 14 -35q1 -8 1 -16q0 -13 -3 -25q-10 -20 -23 -33q-20 -20 -30 -29l-37 -24 q-16 -10 -37 -15q-43 4 -66 17l-55 28q-10 6 -23.5 12.5t-27.5 14.5q-27 14 -55 16q-10 1 -21 1q-31 0 -63 -7q-39 -8 -86 -28q-45 -18 -82 -45q-33 -23 -74 -64q-74 -70 -121 -147q-51 -82 -78 -164q-16 -45 -22 -70q-12 -49 -17 -72q-8 -45 -8 -67q0 -33 6 -64 q2 -29 17 -59q12 -29 34 -47q27 -23 54 -31q29 -9 53 -9q6 0 12 1q29 0 54 8q41 14 57 23q27 14 53 35q8 6 45 43q51 55 76 96q31 52 49 104q10 18 12 33q4 20 9 33q-18 -4 -72 -17q-49 -12 -74 -16q-55 -14 -69 -16q-23 -4 -70 -4q-33 0 -53 14q-18 14 -29 39q-10 27 -8 51 q4 31 12 57l16 29q4 10 21 27q33 20 65 32l68 25l68 18l65 17l139 33q68 15 136 18q53 0 82 -25q29 -27 38 -67q5 -20 5 -43t-5 -47q-10 -57 -28 -97q-14 -41 -21 -51l-24 -49q-47 -102 -123 -199q-82 -104 -170 -182q-39 -35 -98 -76q-47 -33 -105 -63q-51 -27 -108 -43 q-59 -16 -107 -16q-7 0 -13 -1q-53 0 -104 21q-51 20 -90 59q-37 37 -61 86q-20 43 -39 103q-35 99 -35 208v17z" />
<glyph unicode="H" horiz-adv-x="1177" d="M223 207q4 18 9.5 36.5t9.5 37.5q10 41 20 71l49 146q25 70 54 143l61 152l59 149q14 31 23 57l20 56q10 29 23 55q16 37 22 55q4 8 14.5 27.5t16.5 32.5q18 33 39 57q18 25 49 51q28 25 62 31q15 3 27 3q29 0 53 -15q33 -20 45 -60q13 -31 12 -70v-16q-4 -47 -24.5 -96 t-32.5 -74q-18 -37 -39 -73q-18 -39 -39 -76q-16 -33 -31 -76q96 0 145 2q20 1 44 1q36 0 102 -3q4 6 8 18l6 19q20 61 29 92q4 14 11 45t11 45l25 90q16 57 27 88q9 28 24 56q20 37 35 53q23 29 43 41q27 15 48 15l7 -1q37 -6 56 -22q20 -18 32 -45q14 -31 17 -58l6 -61 q0 -55 -10 -131q-10 -72 -31 -137q-12 -37 -19 -54q-4 -12 -10 -25.5t-12 -29.5l-41 -113l-37 -118q-14 -47 -33 -119q-25 -98 -31 -112.5t-40 -113.5q-20 -41 -33 -61q-20 -35 -41 -57q-25 -31 -51 -56q-31 -27 -64 -32q-13 -3 -25 -3q-25 0 -44 13q-27 18 -33 53 q-8 23 -8 49q0 13 2 27q8 59 14 82l18 63l17 64q18 57 22 133h-45q-6 0 -22.5 1t-22.5 1q-31 -6 -63 -6q-4 0 -66 -6q-49 0 -100 -6l-31 -142q-4 -23 -41 -141q-20 -55 -26 -70q-14 -33 -43 -67q-2 -2 -23 -29q-12 -14 -27 -27q-8 -6 -32 -16q-8 -3 -20 -3q-7 0 -13 1 q-41 6 -62 25q-27 23 -36 49q-18 45 -18 92q-1 21 3 43z" />
<glyph unicode="I" horiz-adv-x="1128" d="M231 135q0 6 3.5 16.5t3.5 12.5q12 33 41 47q31 14 61 18q43 0 66 2l67 7q0 2 4 10q2 4 2 10l66 168q53 137 67 170l74 174l68 174l24 74q12 37 19 74q-4 -2 -9.5 -2t-9.5 -3q-6 -2 -16 -2l-19 -4l-18 -2h-6h-70q-33 0 -65 15q-31 6 -43 30q-14 27 4 60q27 37 57 59 q27 20 70 41q35 18 78 31q39 12 73 24q88 25 158 35q67 11 126 11q13 0 26 -1q35 0 75 -10q61 -14 70 -18q35 -18 57 -37q27 -23 29 -57q-25 -45 -47 -68q-31 -31 -70 -47q-51 -10 -82 -14q-27 -4 -84 -17q-14 -31 -26.5 -65.5t-26.5 -65.5q-8 -18 -14 -34.5l-13 -35.5 l-24 -67l-29 -82l-28 -82q-16 -53 -27 -80l-29 -80q-16 -49 -26 -73l-12.5 -38t-14.5 -38q-16 -49 -23 -74q-12 -49 -14 -72l17 -2l16 2h27h30q20 4 31 4q18 0 29 3q20 2 61 -3q31 -2 53 -16q14 -16 17 -31q2 -10 2 -32q0 -12 -8 -33l-13 -31q-14 -27 -32 -49 q-23 -25 -56 -29q-138 -25 -270 -30q-46 -2 -94 -3q-81 0 -168 7q-25 2 -64 10q-37 8 -57 20q-25 15 -43 37q-21 25 -21 64v8.5v9.5z" />
<glyph unicode="J" horiz-adv-x="1140" d="M287 618q0 6 1 14.5t1 16.5q0 10 8 31q6 23 20 39q10 12 35 29q12 8 41 16q23 6 39 4q37 0 55 -8q23 -10 39 -29q12 -16 23 -41q6 -14 10 -51q-1 -17 -1 -36q0 -30 3 -85q2 -20 3 -59t1 -60q0 -14 4 -43q2 -16 15 -41q9 -18 24 -30q18 -14 41 -15q23 6 39 21q20 16 31 33 l24 38q20 35 23 39q33 68 53 119q14 35 39 105q41 113 82 252q39 131 47 245q-2 2 -2 8q0 4 -4 9q-47 0 -69.5 2t-63.5 14q-31 14 -37 43q-2 10 -2 20q0 22 10 44q10 29 27 47q18 23 41 41q20 16 49 26q31 10 51 10q46 1 86 2q63 0 119 -4q106 -6 197 -20q45 -12 65 -45 q25 -37 27 -78q0 -20 -2 -31q0 -4 -3 -15t-6 -17q-10 -27 -24 -35q-16 -10 -37 -17q-14 -4 -41 -4q-8 0 -20.5 -1t-16.5 -1h-20q-14 0 -23 -2q-12 -4 -20 -8t-15 -18q-6 -12 -6 -23q0 -2 -1 -6t-3 -9t-2 -7q-27 -143 -53 -244q-37 -131 -82 -246l-49 -123q-20 -55 -60 -125 q-31 -55 -73 -119q-40 -58 -93 -110q-53 -51 -122 -76q-68 -25 -127 -24q-57 0 -99 20q-39 20 -71 55q-23 25 -50 78q-16 35 -34 84q-27 92 -37 195q-6 68 -6 132q0 37 2 74z" />
<glyph unicode="K" horiz-adv-x="1136" d="M213 74q0 31 2 47q2 8 3 17t2 15.5t3 16.5q8 33 23 76q16 49 22 76l17 51q10 39 14 51q14 43 16 51q6 27 19 53q2 8 8 24.5t8 25.5q2 4 8.5 22l10.5 29q6 16 22.5 53l22.5 51q16 43 30 90q20 72 29 92l33 89q27 76 33 90q18 35 36 75q20 43 43 78q29 45 58 70 q37 33 78 47q23 3 32 3q7 0 13 -1q25 -4 39 -14q16 -14 24 -29q9 -18 6 -43q-12 -70 -22 -102q-18 -63 -27 -101q25 18 57.5 44t67.5 50l129 95l62 34q27 14 65 29q20 8 66 17q31 6 59 0q29 0 47 -13q16 -10 26.5 -30.5t10.5 -43t-10 -49.5q-16 -51 -53 -88q-41 -41 -82 -67 l-107 -62l-106 -63l-80 -51q-37 -25 -60 -68q-6 -25 -2 -55q4 -33 9 -51q4 -16 16 -50q4 -8 8 -23.5t8 -23.5l54 -127l26 -60.5l29 -68.5q8 -18 14 -51q8 -37 10 -55.5t-2 -59.5q-2 -27 -16 -61q-12 -25 -21 -37l-30 -31q-14 -14 -35 -24t-41 -10q-23 -6 -45 -3 q-20 2 -39 13q-18 8 -29 22q-14 18 -18 31q-6 16 -14.5 36.5t-14.5 43.5l-24 78l-62 159l-61 158q-20 -57 -29 -86q-12 -43 -27 -86q-16 -57 -26 -88l-29 -84q-27 -66 -33 -76q-18 -33 -51 -73q-33 -29 -49 -37q-23 -12 -47 -19q-29 -8 -43 -8q-29 0 -41 2q-25 10 -33 27 q-10 21 -10 41z" />
<glyph unicode="L" horiz-adv-x="1112" d="M258 186q-3 23 -3 49q0 44 9 101q10 66 39 158q4 16 16 49q16 45 19 51q33 100 70 186q59 137 84 187q51 115 129 223q8 12 18 25.5t18 25.5q25 37 39 53q20 25 45 45q20 18 58 29q13 3 23 3q14 0 24 -5q23 -10 28 -25q8 -16 8.5 -40.5t-8.5 -47.5l-43 -125l-47 -124 l-43 -111l-43 -111l-43 -110q-14 -37 -39 -111l-24 -76q-18 -61 -23 -75q-6 -25 -10 -74q-1 -9 -1 -17q0 -28 9 -51q63 6 121 19l121 24l115 25q39 8 112 16q37 0 60 -14q29 -18 43 -35q18 -18 26 -43q3 -9 3 -18q0 -19 -11 -41q-8 -18 -22 -29q-16 -14 -31 -20 q-49 -29 -84 -43q-39 -16 -88 -31l-86 -25l-88 -24q-84 -20 -172 -33q-63 -9 -128 -9q-19 0 -38 1q-43 4 -70 20q-35 23 -49 45q-20 31 -29 62q-12 44 -14 71z" />
<glyph unicode="M" horiz-adv-x="1583" d="M240 170q0 35 14 86q20 113 47 201q31 101 68 202q31 92 73 185q49 106 90 182l60 98q33 53 67 97q18 23 39 45l43 43q20 20 47 37q20 14 54 20q10 2 20 2q25 0 47 -10q27 -12 47 -39q18 -25 24.5 -59.5t6.5 -65.5q-4 -31 -8 -91.5t-4 -66.5q-8 -100 -10 -155 q-2 -20 0 -39q4 -25 4 -37l147 170l150 170l71 72q47 47 72 69q39 35 78 60q37 23 88 32q55 -6 88 -26q35 -23 53 -60q16 -31 23 -82q2 -18 2 -39q0 -17 -2 -55q-4 -53 -15 -100q-10 -41 -28 -98q-14 -49 -20.5 -63.5l-13.5 -29t-13 -32.5l-52 -129q-31 -84 -41 -150 l-22 -145l-25 -136q-14 -80 -32 -137q-16 -25 -33 -37q-12 -10 -41 -26q-14 -8 -43 -17q-27 -8 -45 -10q-16 -2 -53 -2q-31 0 -50 8q-14 14 -18 43q-2 16 -2 51q0 82 10 144q16 98 29 147l39 150l47 151q10 29 26 82q12 39 23 80q-104 -115 -201 -242q-102 -137 -176 -253 q-37 -53 -45 -66q-8 -14 -19.5 -31.5l-23.5 -36.5l-24 -28q-16 -20 -26.5 -28.5t-31.5 -20.5q-16 -10 -33 -11q-37 -4 -57 4q-29 10 -45 25q-12 10 -29 39q-14 23 -16 47q-5 37 -5 69q0 13 1 25q0 4 2 41t4 58q2 25 6 50l8 50q2 16 5.5 50t5.5 50l-7 -12l-16 -45l-16 -43 q-4 -8 -8.5 -19.5t-8.5 -23.5l-12 -43l-20 -57l-17 -58q-8 -33 -10 -49q-4 -29 -8 -47q-12 -66 -23 -98q-10 -41 -18 -56q-16 -31 -37 -53q-22 -25 -49 -37q-22 -10 -42 -10q-8 0 -16 2q-41 6 -73 29q-29 20 -39 61q-6 37 -6 78z" />
<glyph unicode="N" horiz-adv-x="1220" d="M231 133q0 84 27 195q20 82 59 200q6 12 14.5 39t10.5 31q20 55 27 70q31 84 84 194q43 90 102 195l49 82l51 86q29 43 60 78q31 33 78 63q41 -6 67 -27q31 -23 43 -49q20 -41 27 -65q6 -29 14 -76q4 -31 8 -76q0 -10 13 -74q4 -37 8 -110q2 -18 4 -55t4 -56 q3 -55 12 -110q10 -59 21 -105q6 10 14 31l10 29q29 86 41 129l33 127q27 96 35 127q14 57 37 127q20 49 33 73q25 47 45 74q12 20 22 31q20 20 33 26q16 8 35 15q20 6 34 4q43 -6 68 -31t33 -59q5 -20 5 -43q0 -17 -3 -37q-6 -45 -21 -82q-18 -66 -30 -100l-31 -99 q-8 -27 -17.5 -51.5l-17.5 -44.5l-35 -98l-41 -121l-43 -121l-41 -115q-8 -23 -47 -114q-18 -41 -37 -70q-6 -10 -49 -64q-23 -25 -65 -57q-39 -29 -74 -35q-55 0 -88 25q-34 25 -55 61q-23 41 -37 78q-6 23 -29 80l-37 205q-14 82 -39 203q-23 -33 -32 -58l-25 -57l-29 -94 q-20 -61 -28 -92q-6 -23 -13.5 -44.5t-13.5 -44.5q-12 -45 -27 -90l-22 -59q-12 -34 -31 -61q-18 -27 -45 -47.5t-61 -20.5q-27 2 -47 14q-16 10 -33 29q-8 20 -12 45q-7 37 -5 47z" />
<glyph unicode="O" horiz-adv-x="1165" d="M299 258q-8 48 -8 102q0 60 10 127q18 123 64 242q43 117 110 225q66 109 164 209q43 47 102 92q41 33 113 70q61 33 121 47q59 15 104 15q8 0 15 -1q10 1 19 1q45 0 85 -13q49 -15 86 -43q39 -29 62 -65q29 -47 38 -86q14 -51 17 -97q1 -13 1 -26q0 -34 -5 -76 q-6 -55 -19 -107q-12 -49 -30 -106q-49 -137 -115 -254q-74 -133 -170 -240q-57 -66 -107 -108q-76 -68 -118 -96q-59 -39 -131 -66q-63 -23 -120 -23q-7 0 -14 1q-66 0 -112 20q-45 20 -82 64q-33 39 -51 88q-19 51 -29 104zM561 401q-1 -8 -1 -16q0 -20 5 -39 q6 -27 19 -39q14 -14 45 -18q41 0 86 22q39 18 78 56q31 27 65 73q37 49 53 76q57 86 97 170q45 96 71 172l25 84q10 39 10 84q0 40 -18 68q-18 27 -68 30q-59 -4 -100 -22.5t-86 -57.5q-43 -35 -72 -79q-41 -61 -57 -95q-41 -80 -47 -96q-8 -18 -35 -88q-31 -84 -39 -115 q-16 -59 -25 -112z" />
<glyph unicode="P" horiz-adv-x="1034" d="M215 106q4 37 10 54l31 76q16 45 33 75q16 35 53 131q33 86 47 129q31 82 47 148q20 84 39 145l37 140q16 68 47 139l6 8q12 47 43 90q29 39 74 72q47 35 88 49q43 16 94 16l94 6q61 4 93 5q88 0 157 -31q71 -31 111 -92q41 -59 47 -140q1 -13 1 -27q0 -69 -26 -141 q-12 -47 -41 -96q-27 -43 -67 -88q-45 -49 -84 -80q-47 -39 -96 -65q-102 -61 -219 -101q-109 -37 -220 -55q-8 -18 -10 -22l-8 -25q-14 -39 -23 -70l-18 -69l-9 -35l-9 -35q-14 -53 -21 -70q-10 -41 -33 -69q-20 -25 -61 -51q-35 -23 -72 -29q-16 -3 -29 -3q-21 0 -38 7 q-31 4 -45.5 18.5t-20.5 36.5q-3 12 -3 28q0 9 1 21zM717 782q55 6 106 25q53 18 107 47q6 4 23.5 11t25.5 14q25 16 45 32q35 31 41 37q16 18 27 47q8 23 8 49q0 33 -2 48q-4 12 -6 20q-4 12 -9 21q-8 12 -14 16t-20 4q-17 3 -36 3q-24 0 -46 -5q-43 -9 -86 -31 q-41 -20 -74 -53q-31 -31 -47 -80q-20 -59 -29 -102q-12 -70 -14 -103z" />
<glyph unicode="Q" horiz-adv-x="1126" d="M272 422q8 94 50 213q49 129 110 239q66 119 158 230q39 47 94 102q47 47 113 92q55 37 123 64q63 25 127 24q7 0 14 1q50 0 88 -19q43 -20 69.5 -57t43.5 -84q14 -45 18 -97q3 -31 3 -63q0 -74 -15 -152q-25 -123 -58 -223q-2 -6 -41 -100q-18 -43 -51 -103 q-18 -33 -63 -98q-31 -45 -78 -92q4 -10 11 -30.5t11.5 -31t11.5 -32t11 -31.5q8 -18 16 -59q2 -8 2 -17q0 -28 -14 -55q-8 -18 -25 -39q-10 -14 -36 -35q-16 -14 -41 -24q-27 -12 -45 -15q-8 -2 -23 -2q-4 0 -11 -1t-9 -1q-12 45 -31 84t-41 74q-47 -51 -113 -80 q-60 -27 -111 -27h-10q-57 0 -98 21q-43 22 -74 55q-27 29 -47 78q-20 47 -28 90q-14 60 -14 130q0 34 3 71zM500 369q-1 -12 -2 -22q0 -15 4 -28q8 -29 18 -38q16 -16 43 -23q3 -1 7 -1t16 3t24 12q8 6 21 19q8 8 16 20q-6 14 -12 29.5t-10 24.5q-10 25 -23 51 q-10 23 -14 55q-1 5 -1 11q0 23 11 53q8 25 18 38q16 20 33 31q23 14 41 21q23 6 41 4q47 0 80 -20.5t55 -53.5q33 70 47 104l39 105l33 100q15 49 25 99q8 41 10 61q3 29 3 39q0 8 -1 14q-4 27 -14 41q-12 16 -39 19q-49 -6 -84 -33t-68 -66q-41 -49 -57 -77l-18.5 -28.5 l-14.5 -22l-16 -25.5q-35 -57 -93 -176q-45 -94 -73 -177q-2 -8 -8.5 -22t-10.5 -31q-6 -18 -14 -55z" />
<glyph unicode="R" horiz-adv-x="1273" d="M223 125q0 27 10 63q25 82 52 148l59 147l68 154l63 154q33 111 47 194q8 47 25 94l33 95q12 33 32 63q18 29 50 59q25 25 61 45q31 16 68 21q115 14 196 16q131 4 195 4q41 0 67 -8q25 -8 56 -26q25 -16 45 -39q20 -25 34 -49q27 -57 29 -121v-14q0 -60 -22 -126 q-10 -35 -27 -61q-20 -35 -43 -59l-19 -23q-19 -23 -30 -33q-2 -2 -58 -51q-66 -53 -129 -90q-59 -35 -141 -64q111 -102 182 -200q6 -8 11.5 -16.5t9.5 -15.5t12 -17q12 -16 33 -50q14 -23 25 -53q12 -37 14 -61l-12 -45q-6 -22 -19 -43q-4 -14 -18 -35q-16 -25 -27 -35 q-16 -16 -33 -24q-18 -10 -39 -13q-20 -4 -37 -4q-34 0 -61 14q-39 20 -61 64q-20 51 -39 88l-39 86q-51 72 -98 127q-35 41 -111 117q-12 -20 -21 -41q-8 -18 -14 -41l-12 -34.5t-10 -31.5l-9.5 -29.5l-11.5 -35.5l-33 -88q-23 -51 -43 -88q-31 -41 -37 -47 q-33 -33 -40 -39q-25 -16 -44 -23q-15 -4 -26 -4l-17 2q-37 4 -57 21q-23 20 -31 43q-8 24 -8 59zM756 825q47 8 104 29q52 18 105 43l47 25q31 14 49 28q29 20 41 35q20 23 31 45q8 20 8 31q0 18 -2 26q-2 10 -15 23q-6 6 -26.5 6t-61.5 -1t-61 -1q-39 0 -125 -4l-4 -2v-6 q0 -4 2 -6q-12 -23 -14 -29q-2 -12 -13 -29l-39 -106q-16 -46 -26 -107z" />
<glyph unicode="S" horiz-adv-x="1167" d="M219 68q0 59 2 88q4 51 15 94q4 16 24 33q16 12 39 16q33 -4 47 -10q10 -4 45 -15q14 -6 43 -14q27 -8 47 -10q25 -2 82 -2q39 0 90 10q68 12 95 23q43 14 86 41q45 27 73 59q27 29 51 86q6 8 15 25q2 4 6 11t6 11v16l-4 7l-80 -5l-80 -6q-25 -2 -78 -2q-14 0 -39.5 -1 t-37.5 -1q-20 0 -70 4q-35 2 -70 13q-34 9 -61.5 24.5t-48.5 36.5q-20 20 -27 53q-8 41 -6 62q4 37 12 69q14 51 23 70q18 49 49 100q41 66 65.5 96.5t83.5 90.5q43 43 93 80q59 45 98 67q57 35 104 53q55 23 107 35q43 10 104 10q68 0 125.5 -14t106.5 -47q45 -31 73 -78 q27 -45 27 -110v-23q0 -6 -4 -22q-4 -20 -14 -31q-12 -12 -27 -19q-8 -4 -33 -8q-16 -4 -28 0q-68 9 -123 37q-25 14 -60 24.5t-65 12.5q-53 0 -108.5 -14.5t-112.5 -42.5q-37 -20 -54 -33q-25 -18 -47 -41t-41 -47q-14 -18 -24 -51q-8 -20 -8 -27q0 -15 6 -25 q10 -14 14 -16q14 -6 29 -4q29 0 63 6q10 2 32.5 5t35.5 5l65 13q23 4 66 4q25 0 74 -9q41 -6 67 -20q29 -14 53 -39q23 -23 35 -53q15 -28 19 -62q2 -17 1.5 -34t-1.5 -35q-2 -25 -15 -74q-4 -16 -22 -72q-23 -57 -58 -104q-39 -53 -82 -92q-46 -43 -98 -80 q-59 -43 -106 -66q-98 -55 -221 -90q-92 -26 -182 -25q-18 0 -36 1q-59 6 -118 28q-58 23 -107 54z" />
<glyph unicode="T" horiz-adv-x="1193" d="M446 68q-1 6 0 13q0 26 11 50q31 98 80 188l86 181q41 84 79 182q49 139 70 207q27 84 47 203q-43 0 -133 -5q-23 -2 -67 -4t-66 -4q-8 2 -16 11l-7 16q-4 12 -4 18t-4 19q0 31 2 45q4 35 11 47q14 25 28 37q27 23 37 26q33 14 41 17q14 4 43 8l221 20q6 0 91 8.5 t128 10.5q57 6 168 6q109 0 162 -2q18 -6 47 -23q20 -12 35 -36q12 -23 20 -43q6 -15 6 -31q0 -12 -3 -23q-6 -27 -21 -43q-12 -16 -37 -32q-20 -14 -47 -25q-16 -6 -45 -10q-82 -14 -129 -15q-74 0 -111 2l-176 -421l-186 -420q-16 -39 -43 -82q-20 -35 -51 -78 q-2 -2 -29 -35q-14 -18 -33 -33q-27 -23 -37 -26q-25 -10 -41 -10q-6 -1 -11 -1q-23 0 -50 9q-27 8 -45 30q-19 21 -21 48z" />
<glyph unicode="U" horiz-adv-x="1107" d="M287 319q6 89 37 185l45 121l47 123l51 122l51 123l19 58q4 14 14 57q6 18 14 55q8 41 17 58q16 33 41 57q2 2 57 45q49 27 65 33q37 12 66 18q31 -14 45 -33q14 -20 21 -45q6 -31 4 -57q-2 -25 -11 -63q-6 -27 -16 -64q-10 -33 -20 -61l-56 -142l-57 -141l-59 -143 q-31 -78 -54 -144q-8 -29 -20 -63q-14 -37 -17 -68q-4 -37 4 -57q10 -27 39 -35q25 0 50 12q27 14 47 31q14 12 39 41q4 4 32 45q28 49 49 98l43 101q8 23 18.5 48t20.5 52l39 102l37 99q4 10 11.5 30.5l13.5 37t12 30.5q10 27 22.5 51.5t20.5 44.5l47 95q15 28 37 61 q25 39 47 61q31 31 60 45q26 13 54 13h11q27 -4 47 -23q23 -23 33 -37q16 -29 20 -43q3 -10 3 -21q0 -15 -5 -32q-2 -4 -6 -11t-6 -11l-14 -23q-14 -12 -25 -29q-4 -6 -13 -15t-11 -13l-25 -56q-4 -10 -10 -31.5t-8 -25.5q-23 -63 -25 -70q-10 -41 -20 -71q-8 -20 -23 -72 q-8 -31 -25 -70q-31 -90 -80 -194.5t-108 -192.5q-29 -45 -98 -127q-51 -59 -113 -108q-61 -47 -121 -74q-63 -27 -116 -27q-5 0 -11 1q-8 -1 -16 -1q-36 0 -74 11q-33 10 -76 37q-34 22 -55 55q-25 39 -35 72q-24 63 -23 136q0 14 1 29z" />
<glyph unicode="V" horiz-adv-x="1112" d="M389 92q0 37 4 55q0 4 13 119q6 68 20 121l20 123q6 41 23 123q33 193 43 287q4 47 14.5 141t14.5 141q0 10 2 15q2 2 4 5t2 5q10 27 31 45l47 35q20 12 53 22q12 4 53 14q35 0 49 -14q16 -16 23 -37q8 -29 8 -51q0 -10 -1 -25.5t-1 -23.5q-12 -106 -23 -162 q-20 -102 -34 -151l-41 -160l-39 -162q0 -10 -4 -30.5t-4 -32.5v-29q3 -15 12 -25q29 25 41 47q16 29 33 52l34 61q6 12 35 59l90 156l93 154q16 27 83 118q70 92 91 117q8 8 23.5 26.5t17.5 20.5l43 49q23 23 47 41q16 12 57 25q31 -8 47 -29q10 -12 29 -53q6 -18 14 -59 q3 -14 3 -28q0 -18 -5 -38q-16 -41 -29 -59l-41 -58l-47 -53l-47 -53q-66 -90 -82 -115l-75 -119l-76 -123t-76 -122q-39 -59 -100 -140l-107 -139q-41 -45 -65 -69q-47 -47 -74 -66q-37 -27 -82 -45q-35 -15 -72 -15l-14 1q-31 4 -49.5 16t-24.5 39q-4 33 -4 53z" />
<glyph unicode="W" horiz-adv-x="1388" d="M254 176q4 78 12 119q16 82 27 123q15 61 37 123q10 31 21 61.5l22 61.5q43 119 84 202q47 96 110 199l60 90q41 61 65 90q39 47 80 78q43 33 96 49q9 1 17 1q30 0 43 -13q16 -16 20 -47q3 -28 -6 -62q-8 -33 -22 -63q-20 -51 -39 -88l-47 -88q-10 -18 -21 -33l-18 -35 l-103 -180q-53 -98 -84 -184q-8 -23 -20 -68q-6 -20 -10 -66q49 63 86 119l75 125l68 125q12 23 70 125l36 78q18 37 43 74q14 20 31 34q12 10 37 27q18 12 39 18q14 4 41 5h10q32 0 55 -19q29 -23 35 -55q3 -21 3 -42q0 -26 -5 -52q-2 -10 -5 -31t-6 -37t-7 -31l-29 -102 q-8 -35 -29 -105q-18 -70 -30 -131q-10 -57 -15 -127q37 66 74 146q49 106 64 145l27.5 68t29.5 78l53 145q31 76 39 94l41 92q8 12 16.5 26.5t14.5 27.5q8 14 33 49q10 14 34 35q14 12 45 16q45 -6 72 -33q25 -25 35 -67q5 -21 5 -51q0 -14 -1 -31q-2 -29 -14 -86l-21 -62 q-9 -31 -24 -61l-39 -94q-25 -61 -35 -95q-8 -29 -14 -43q-10 -25 -17 -45q-4 -10 -7 -22t-7 -23l-17 -45q-31 -84 -84 -180q-49 -90 -112 -174q-20 -29 -66 -82q-29 -35 -78 -76q-39 -33 -88 -59q-45 -25 -96 -31h-12q-41 0 -72 17q-33 18 -55 53q-23 37 -35 74 q-10 35 -14 79q-20 -29 -66 -82q-37 -41 -78 -77q-41 -35 -88 -58q-45 -21 -86 -21q-5 0 -10 1q-39 2 -69.5 18.5t-53 41t-35.5 57.5q-14 34 -16 67z" />
<glyph unicode="X" horiz-adv-x="1159" d="M203 117q2 14 6 29.5t8 29.5q22 65 68 123q20 27 94 117l117 121l116 122q4 4 12.5 14.5t12.5 14.5t12 14.5t13 14.5q-2 68 -17 149q-4 23 -7 47.5t-6 55t-5 47.5q-4 23 -9 59q0 6 -2 19.5t-3 23.5t-1 19q0 41 2 63q2 20 15 66q10 25 22 39q15 18 37 30q29 16 43 21 q29 8 43 10t41 2t37 -4q14 -8 20 -23q2 -6 5.5 -14t5.5 -14q25 -72 32 -139q8 -55 23 -144q57 61 82 92q53 66 82 97q47 51 88 86q47 41 100 67q33 -4 51 -16q27 -18 37 -37q14 -25 17 -49q1 -7 0 -14q0 -20 -6 -44q-29 -70 -78 -141q-43 -63 -105 -131q-63 -72 -121 -125 l-122 -121l36 -162l37 -161q14 -78 27 -125q14 -57 14 -129q-14 -25 -33 -41q-4 -4 -45 -33q-4 -4 -47 -25q-18 -10 -47 -16q-31 0 -49 12q-25 16 -35 29q-12 14 -22 39l-21 41q-31 84 -47 151q-14 53 -29 146l-96 -129q-18 -25 -100 -127l-22.5 -22.5t-26.5 -28.5 q-25 -27 -51 -52q-35 -31 -56 -41q-37 -18 -63 -18q-16 4 -27 8l-24 13q-8 4 -21 16q-6 6 -10 24q-5 13 -5 28q0 12 3 26z" />
<glyph unicode="Y" horiz-adv-x="1040" d="M309 100q0 39 17 72q23 61 47 102q20 33 65 99q37 53 74 96l78 94q-43 12 -70 39q-31 31 -43 62q-14 35 -20 77q-4 29 -4 84q4 86 24 172q20 84 62 174q10 29 28 58q12 18 45 51q23 23 56 39q27 12 61 16q33 4 45 -4q16 -10 23 -28q10 -31 10 -39q0 -29 -2 -43l-33 -125 l-31 -123q-2 -12 -6 -41q-4 -23 0 -43.5t12.5 -34.5t34.5 -14q12 2 33 14q10 6 29 25q8 8 24 28q8 10 25 27l47 61q41 55 47 64q41 49 60 76l57 77l20.5 23.5t17.5 21l19 25.5q31 39 66 64q29 16 45 20q12 3 24 3t23 -3q35 -8 49 -18q25 -18 35 -35q14 -25 16 -49 q1 -7 1 -16q0 -20 -5 -44q-23 -70 -78 -137q-70 -86 -110 -129l-131 -141l-129 -144l-133 -182q-92 -127 -129 -184l-60 -90q-18 -29 -61 -88q-27 -33 -33 -41q-12 -14 -37 -39q-16 -16 -41 -31q-23 -12 -45 -12q-6 -1 -12 -1q-30 0 -54 13q-29 16 -40 43q-13 28 -13 59z " />
<glyph unicode="Z" horiz-adv-x="1150" d="M242 147q31 72 69 127q49 70 90 119q74 86 101 115l102 113l242 251l248 248q-16 0 -50 4h-49h-41q-16 0 -45 -4h-39h-41h-90q-37 0 -84 15q-16 2 -34 10q-10 4 -27 16q-14 10 -16 25q-3 15 6 37q12 23 34 43q20 16 46 32q27 16 51 25q18 6 51 18q45 16 106 27 q53 10 103 12q8 0 21.5 1t19.5 1q14 0 43 4h41q5 0 14 0.5t13 0.5q7 0 14 -1q49 0 104 -12q59 -14 94 -37q39 -27 58 -69q9 -22 9 -49t-9 -58q-8 -25 -33 -74q-16 -33 -43 -69l-53 -70q-27 -35 -56 -67q-51 -59 -157 -170l-164 -164l-143 -144q-70 -68 -140 -149 q84 6 183 22q82 14 182 41l33 7q16 2 53 -2q25 -2 45 -17q16 -10 22 -35q6 -20 -10 -53q-16 -39 -45 -67q-27 -27 -67 -48q-108 -40 -216 -61l-213 -39q-39 -6 -112 -10q-15 -1 -32 -1q-27 0 -77 3q-29 2 -51 18q-16 12 -35 37q-16 23 -24 45q-6 15 -6 30q0 12 4 23z" />
<glyph unicode="[" horiz-adv-x="880" d="M219 109q0 53 19 108l47 150l49 149l21.5 70l27.5 88q20 61 57 155l49 123l54 125q37 82 59 123q31 55 74 119l29 29q12 12 32 18q92 16 188.5 20.5t178.5 -14.5q25 -2 41 -16.5t26 -32.5q10 -20 10.5 -43t-5.5 -47q-6 -23 -25 -41q-16 -16 -39 -33l-24.5 -12t-22.5 -10 q-25 -12 -45 -7q-43 6 -84 7q-14 0 -43 1t-43 1q-10 -12 -14 -23l-13 -24l-51 -142l-53 -143q-6 -14 -25.5 -66.5l-29.5 -78.5l-54 -146l-18 -51l-21 -51q-4 -10 -10 -28.5t-8 -23.5l-18 -49q-2 -6 -7.5 -17t-7.5 -17q-8 -27 -10 -35q20 -2 65 -2h70q12 2 33 2q23 0 35 2 q23 0 41 -6.5t32 -20.5q10 -10 15 -33q3 -18 -6 -43q-12 -31 -27 -51q-20 -29 -41 -43q-23 -16 -51.5 -32.5t-52.5 -18.5q-78 -12 -107 -16q-70 -8 -104 -9q-45 2 -88 13q-37 8 -72 32q-33 40 -33 91z" />
<glyph unicode="\" horiz-adv-x="847" d="M516 1212q4 41 4 66q0 27 19 68q6 16 16 26q16 16 27 23q20 12 30 16q15 6 31 6q40 6 67.5 -12.5t37.5 -48.5q12 -41 16 -72q2 -12 5 -35.5t5 -36.5q25 -139 33 -200q12 -102 18 -207l6 -143q0 -23 2.5 -70t2.5 -70q8 -78 10 -116l8 -117q0 -35 -4 -109q-4 -57 -27 -112 q-16 -35 -45 -62q-33 -29 -67 -35q-37 0 -57.5 20.5t-32.5 49.5q-14 31 -17 61q-2 27 -10 62q-31 223 -49 452q-18 227 -25 463q0 47 -2 68q-4 40 -2 65z" />
<glyph unicode="]" horiz-adv-x="884" d="M201 135q6 16 26 39q18 20 39 33q20 18 47 24q25 6 47 7l84 -7q29 -2 86 -2q2 4 6.5 10.5l8.5 12.5q2 4 5 12t5 12l53 142l51 139q6 14 26 66.5l30 78.5l53 146l18 51l21 51l20.5 51t20.5 52q2 6 5 17t5 17q8 27 10 35q-41 4 -63 4h-70q-6 0 -17 -1t-18 -1q-23 0 -34 -2 q-14 0 -39 8q-20 6 -31 21q-14 16 -16 33q-4 18 10 43q10 27 26 49q20 27 39 43q27 23 50 33q25 10 53 14q68 16 106 20l105 7q55 -4 84 -11q41 -8 73 -34q16 -20 23 -39q8 -29 8 -49q0 -16 -4 -54q-2 -18 -10 -55l-96 -301l-50 -156q-20 -61 -57 -155l-102 -248 q-51 -121 -133 -244l-29 -29q-14 -14 -35 -18q-94 -20 -190 -20q-86 0 -179 16q-47 8 -65 47q-18 40 -6 92z" />
<glyph unicode="^" d="M367 770q23 49 43 80q25 37 55 74q41 49 63 73l64 70q29 27 63 68q10 12 66 67q29 29 70 60q33 25 79 45q39 -12 58 -37q23 -31 35 -62q8 -23 20 -72t18 -71q2 -12 5.5 -38t5.5 -38q8 -49 8 -78q0 -53 -4 -80q-8 -47 -21 -83q-6 -14 -26 -39q-16 -20 -35 -31 q-29 -16 -43 -21q-29 -8 -43 -8q-23 -2 -43 4q-18 6 -31 19q-16 16 -20 30q-8 25 -9 39q-2 31 -2 90.5t-2 90.5l-86 -113l-84 -113q-6 -10 -22 -22q-12 -9 -25 -12q-25 -6 -28 -7h-25q-33 4 -45 11q-16 8 -33 24q-18 12 -24 35q-6 18 -2 45z" />
<glyph unicode="_" horiz-adv-x="1239" d="M158 49q-4 20 2 41q12 27 33 43q16 14 45 29q16 8 53 20q6 2 49 15q72 14 119 16l104 6q28 3 55 0q18 -2 54 -2q41 -4 57 -4h55h66q43 0 63 -2q82 -4 125 -4q33 -18 41 -25q25 -16 37 -32q14 -18 19 -46q4 -29 -15 -57q-14 -20 -26 -31q-14 -10 -33 -20q-25 -12 -37 -14 q-37 -6 -39 -7q-127 -6 -377 -6q-123 0 -372 4q-25 6 -39 15q-18 8 -27 26q-8 10 -12 35z" />
<glyph unicode="`" horiz-adv-x="438" d="M686 1583q0 53 2 78q8 20 8 27q0 14 6 24q6 12 23 37q12 18 31 31q27 18 35 20q18 6 38 6q23 0 39 -12q15 -12 25 -31q12 -25 14 -39q2 -8 3 -15t2 -12t3 -14q6 -37 3 -88q-4 -57 -21 -96q-4 -10 -16 -26l-23 -23q-16 -16 -27 -20q-20 -8 -28 -9q-45 0 -70 25 q-27 27 -35 59q-12 49 -12 78z" />
<glyph unicode="a" horiz-adv-x="1148" d="M170 129q2 25 14 66q41 119 99 231l123 225l133 223q63 104 147 218l80 96q45 55 90 94q43 37 105 72q57 33 112 35q51 0 86 -23t53.5 -59.5t24.5 -81.5q5 -37 5 -67q0 -12 -1 -23q-2 -78 -16 -181q-12 -92 -31 -184l-35 -178q-16 -100 -22 -176q4 -41 4 -60v-61 q-2 -20 -11 -62q-4 -25 -22 -63q-16 -37 -29 -55q-18 -28 -43 -49q-16 -14 -53 -35q-29 -16 -57 -19q-18 -3 -36.5 -3t-33.5 3q-31 6 -43 35q-14 27 -10 57q4 45 8 64q12 39 18 72q6 39 19 71h-45h-41q-31 0 -45 2q-22 3 -43 0q-47 0 -72 -2q-49 -4 -74 -8l-59 -92 q-16 -25 -29.5 -49.5l-25.5 -44.5q-12 -18 -29 -39q-4 -8 -37 -39q-16 -18 -39 -27q-25 -11 -39 -10h-6q-37 4 -59 21q-25 18 -33 45q-3 26 -3 42q0 10 1 19zM664 569h122q13 0 39.5 -0.5t39.5 -0.5q23 0 42 1l29 131q8 33 14 67t13 64q12 61 18 123q4 36 4 60q0 31 -6 57 q-59 -59 -102 -117q-45 -59 -82 -125q-49 -86 -70 -129z" />
<glyph unicode="b" horiz-adv-x="1230" d="M238 199q6 53 20 96q14 45 33 80l41 82q20 41 49 110l43 109q37 100 88 264q33 104 76 260q61 61 127 98q68 39 141 58q61 20 137 26q68 6 133 7q78 -4 136 -15q66 -12 114 -49q27 -20 41 -43q12 -20 21 -57q3 -17 3 -38q0 -13 -1 -28q-4 -37 -15 -69q-8 -31 -28.5 -68 t-42.5 -66q-33 -41 -51.5 -61.5t-57.5 -58.5q41 -33 58 -76q20 -49 22 -98q3 -23 3 -46q0 -30 -5 -59q-8 -45 -33 -111q-25 -68 -69 -122q-39 -49 -105 -105q-58 -49 -123 -86q-76 -43 -129 -63q-123 -51 -264 -72q-59 -8 -120.5 -8.5t-127.5 8.5q-49 6 -76 37 q-29 33 -34 74q-6 29 -7 57q1 17 3 33zM522 266q20 -2 40.5 -1.5t43.5 1.5q45 2 94 13q47 8 97 28q55 23 88 45q43 29 71 68q35 47 52 90q12 23 14 47q2 23 -4 43q-6 18 -25 31q-16 12 -45 8q-51 -4 -90 -16q-76 -25 -92 -33q-43 -20 -88 -49q-57 -37 -82 -60 q-6 -16 -13.5 -31.5t-13.5 -31.5q-4 -10 -11 -33t-11 -33q-12 -29 -14.5 -43t-10.5 -43zM729 836l107 30q61 16 112 39q59 27 101 60q47 39 73 90q8 16 8 24q0 16 -2 23q-4 10 -12 16q-6 4 -22 4h-41q-14 -2 -41 -3t-41 -1q-41 -2 -84 -24q-47 -25 -74 -56q-25 -29 -43 -77 q-16 -41 -22 -62q-6 -14 -10.5 -30.5z" />
<glyph unicode="c" horiz-adv-x="1144" d="M276 399q12 106 50 213q47 131 123 256q82 135 182 238q49 55 106 106q53 47 125 93q66 41 131.5 61.5t121.5 20.5q7 0 13 -1q82 -2 140 -45q53 -39 92 -100q14 -25 29 -63q16 -47 20 -68q3 -20 3 -44q0 -15 -1 -32q-4 -43 -16 -80q-6 -27 -21 -49q-20 -33 -34.5 -47 t-47.5 -31q-25 -12 -53 -6h-10q-36 0 -58 19q-25 22 -30 55q-10 31 -13 63q-2 12 -4 33t-4 33q-6 31 -26 51q-23 23 -56 23q-43 0 -88 -25q-37 -20 -76 -55q-31 -27 -65 -74q-33 -43 -53 -78q-51 -80 -94 -172q-33 -68 -70 -178l-12.5 -37.5t-10.5 -34.5q-12 -39 -18 -77 q-2 -13 -2 -26q0 -22 6 -40q10 -29 45 -37q12 -1 26 -1q38 0 99 11q70 12 129 50q28 22 55 36l58 33q23 10 39 13q12 2 36 2q29 4 45.5 -6.5t20.5 -30.5q4 -27 0 -43q-8 -29 -16 -45l-11 -21q-4 -8 -8 -20q-37 -57 -110 -109q-59 -43 -134 -76q-53 -29 -133 -53 q-59 -18 -133 -22q-10 -1 -18 -1q-47 0 -84 15q-53 20 -82 47q-37 33 -57 72q-18 35 -33 88q-16 68 -16 134q-1 31 3 62z" />
<glyph unicode="d" horiz-adv-x="1128" d="M236 203q4 51 18 102q6 18 53 144l58 145l65 151l62 152q14 29 24 64q4 16 10 31.5t13 31.5q10 33 22 63q20 51 27 64q18 49 39 78q27 37 61 69q33 31 76 54q35 18 84 22q68 6 133.5 6t126.5 -12q59 -12 112.5 -36.5t90.5 -65.5q35 -41 51 -101q12 -45 12 -118 q0 -57 -16 -129q-12 -51 -39 -134q-49 -145 -143 -286q-86 -129 -228 -256q-63 -59 -133 -109q-74 -51 -147 -84q-86 -39 -152 -51q-46 -9 -87 -9q-31 0 -58 5q-59 6 -86 37q-33 35 -41 78q-9 31 -9 71q0 11 1 23zM555 340q45 0 86 14q47 16 86 39q49 29 82 56q37 31 68 67 q68 70 114 156q45 82 76 164q2 6 6 17t6 17q6 18 11 35q2 12 5 22.5t5 22.5l6 43q2 11 1.5 20.5t-1.5 20.5q-2 16 -12 37q-16 18 -33 23q-35 12 -39 12q-29 4 -45 4h-45q-31 0 -45 -2q-22 -3 -43 0q-55 -96 -70 -127q-31 -65 -55 -129l-51 -131l-47 -129q-33 -98 -41 -127 q-19 -66 -25 -125z" />
<glyph unicode="e" horiz-adv-x="1175" d="M244 115q0 8 -0.5 22.5t-0.5 22.5q0 13 1 22q4 72 18 142q16 78 37 143q51 139 102 248l121 250q18 41 64 122l65 123q27 31 72 60q41 25 80 39q61 23 84 26q43 10 82 21q92 18 178 24q31 2 66 3q48 0 106 -5q33 -4 47 -12q23 -12 33 -29q14 -20 16 -43q1 -6 1 -12 q0 -20 -7 -41q-6 -20 -16 -35q-14 -20 -27 -30q-14 -10 -37 -23q-12 -6 -39 -10q-2 0 -34.5 -3t-49.5 -3q-14 0 -41.5 1t-40.5 1q-37 0 -80 -6q-57 -8 -83 -19q-37 -12 -82 -41q-43 -27 -64 -63q-4 -6 -8 -17.5t-8 -17.5q-12 -25 -17 -37l-2 -10q74 8 111 16l115 25 q88 14 110 16q55 6 109 6q31 0 53 -8q25 -8 37 -25q15 -18 18 -43q4 -25 -12 -53q-12 -33 -25 -47q-20 -25 -41 -39q-10 -6 -49 -26q-27 -12 -51 -17l-108 -12q-37 -4 -107 -8q-29 -4 -106 -17q-51 -8 -109 -37q-33 -20 -47 -34q-20 -20 -39 -45q-20 -29 -31 -48 q-8 -16 -20 -49q-10 -33 -27 -94q-8 -31 -12 -92q70 20 145 53l142 66q59 27 149 57q84 29 145 31h10q40 0 77 -21q37 -22 43 -67l-3 -13l-2 -6q-45 -51 -94 -86q-35 -25 -108 -65q-51 -29 -115 -56q-39 -16 -113 -53l-116 -49q-39 -16 -117 -45q-68 -25 -115 -35 q-59 -12 -112 -12q-33 2 -64 16.5t-43 40.5q-14 27 -14 62z" />
<glyph unicode="f" horiz-adv-x="970" d="M211 156q2 35 16.5 75.5t20.5 51t20 51.5l41 98l39 100l49 148q43 129 49 145l54 144l57 141l12 25q2 8 11 24q10 23 30 45l43 37q20 16 47 31q33 16 50 22l100 25q43 10 98 20q43 10 80 17l78 12l72 6q16 1 30 2q23 0 41 -4q33 -6 53.5 -24.5t32.5 -44.5q10 -16 23 -54 q5 -14 4.5 -30t-4.5 -33q-6 -20 -20.5 -30.5t-32.5 -20.5q-18 -8 -39 -13q-25 -4 -35 -4q-35 0 -109 -4q-33 -2 -112 -10q-10 -2 -29.5 -7t-24.5 -5q-27 -6 -51 -19q-33 -16 -49 -29q-25 -18 -43 -43q-25 -37 -41 -71q-20 -41 -31 -72q29 6 54 6q16 0 53 4t53 4h53 q10 0 20.5 -1t20.5 -1q16 0 41 -4q6 0 11.5 -2t12.5 -5t11 -5q16 -6 33 -18q27 -27 26 -64q0 -41 -18 -84q-6 -14 -14 -28.5t-25 -26.5q-16 -14 -31 -21q-12 -6 -32 -10q-45 -4 -68 -4h-65q-20 -2 -64 -2q-20 0 -61 -4q-43 -4 -64 -10q-39 -12 -63 -27q-35 -74 -60 -143 l-51 -146q-27 -86 -72 -174q-8 -18 -26 -39q-14 -18 -33 -33q-16 -14 -39 -20q-15 -4 -24 -4q-7 0 -15 2q-45 6 -63 29q-23 27 -29 57q-3 19 -3 40q0 15 1 32z" />
<glyph unicode="g" horiz-adv-x="1171" d="M283 313l-2 45q0 35 4 66q6 57 18 115q12 59 33 114q51 141 137 271q94 139 211 241q61 55 129 98.5t141 71.5q63 25 144 39q47 8 93 8q23 0 44 -2q33 0 59 -8q31 -10 52 -26q18 -16 28 -43q4 -10 4 -22q0 -18 -8 -40q-2 -16 -12 -35q-10 -20 -25 -35q-16 -16 -33 -24 q-14 -8 -38 -4h-13l-12 2q-20 1 -36 1q-34 0 -66 -5q-66 -10 -109 -29q-61 -25 -104 -53q-55 -35 -95 -78q-92 -88 -149 -193q-61 -109 -96 -208l-25 -70q-6 -20 -16 -78q-4 -25 -4 -72q0 -34 12 -61t38.5 -43t69.5 -16q68 0 121 32q47 29 96 88q35 41 70 113q25 49 47 113 q8 23 10 28q2 8 4.5 14.5t4.5 12.5q-6 -2 -22.5 -4t-22.5 -4q-18 -2 -50 -10q-16 -4 -48.5 -8.5l-47.5 -6.5q-28 -3 -49 6q-18 8 -30.5 26.5t-12.5 41.5t12 49q6 20 23 41q14 18 33 33q25 20 39 28.5t43 20.5l41.5 14.5t48.5 18.5l88 33q27 8 88 22q43 9 86 12q31 -4 57 -16 q23 -10 39 -35q20 -29 25 -49q6 -31 4 -59q-4 -25 -8 -41q-8 -29 -15 -43q-16 -49 -47 -111l-49 -106q-51 -96 -113 -179q-70 -94 -147 -159q-53 -49 -84 -70q-61 -41 -94 -57q-49 -25 -98.5 -37t-94.5 -12q-10 -1 -20 -1q-53 0 -92 15q-47 18 -89 49q-41 33 -65 74 q-27 49 -39 96q-12 41 -16 100z" />
<glyph unicode="h" horiz-adv-x="1183" d="M227 113q-1 11 0 22q0 33 6 70q10 53 21 90q29 84 37 100q2 6 19.5 44t25.5 59l47 104l43 105l33 98l30 98q16 66 29 96l37 97q25 49 39 73q29 49 47 72q16 25 27 37q20 25 32.5 35t36.5 26q16 10 39 15q17 3 31 2q34 0 51 -15q29 -25 31 -63q1 -15 1 -28q0 -33 -7 -60 q-14 -57 -29 -86q-31 -86 -68 -172q-12 -33 -24 -61.5l-21.5 -50t-23.5 -60.5q41 -4 63 -4h64q27 0 80 4l40.5 4t41.5 2l4 8t2 8l6 19q2 4 5 15l5 18q8 20 12 32q2 4 15 35q8 20 12 33q16 45 20 67q6 34 19 68q14 53 20 70q10 35 23 69q6 25 22 58q14 31 39 57q23 27 50 41 q21 12 44 12q8 0 17 -2q43 -3 68 -24q25 -20 32 -54q5 -20 6 -45q0 -12 -2 -28q-2 -37 -16 -78q-6 -23 -13 -43.5t-14 -36.5q-16 -53 -28 -80q-12 -41 -27 -82l-29 -82q-51 -145 -108 -340l-96 -342l-7 -16q-14 -25 -28 -39q-12 -12 -41 -33q-23 -16 -45 -24 q-25 -10 -45 -13q-27 -6 -45 2q-16 8 -27 25q-12 20 -14 35q-4 29 -4 43q3 68 18 123l31 110q16 43 24 78q6 27 23 80q-104 -6 -107 -6h-104h-61q-20 0 -58 4q-27 -63 -39 -88q-12 -29 -33 -86q-12 -29 -18 -64q-6 -31 -18 -61q-10 -45 -15 -59l-18 -64q-6 -20 -22.5 -40.5 t-34.5 -31.5q-25 -14 -44 -16q-9 -1 -17 -1q-13 0 -23 3q-49 10 -70 39q-22 31 -25 74z" />
<glyph unicode="i" horiz-adv-x="550" d="M209 98q0 8 2 28.5t4 31.5q8 47 25 112q18 70 34 115l70 193l72 192l73 191l74 190q8 16 15.5 33.5l15.5 34.5q12 29 41 63q4 4 12 16.5t12 16.5q16 20 27 31q16 16 33 24q27 14 37 16q9 1 16 2q33 0 55 -20q25 -20 31 -61q1 -9 1 -19q0 -23 -5 -55q-8 -49 -18.5 -76 l-21.5 -55.5l-21 -54.5l-41 -109l-47 -115l-43 -112q-29 -82 -39 -123q-16 -68 -35 -119l-35 -115q-4 -14 -41 -112q-16 -43 -37 -78q-33 -57 -47 -78q-2 -2 -29 -35q-16 -18 -34 -35q-20 -16 -39 -24q-22 -9 -43 -12q-20 0 -29 4q-12 6 -20.5 14t-14.5 20q-4 8 -8 25 q-3 26 -3 39q0 8 1 16z" />
<glyph unicode="j" horiz-adv-x="1148" d="M287 479q2 119 51 246q6 25 27 39q25 18 45 27q10 4 45 14q20 6 45 6q27 -6 37 -23q14 -20 16 -40q4 -29 4 -50v-49q0 -12 -2 -37.5t-2 -38t-2 -38t-2 -37.5q-2 -22 -2 -42t2 -40q3 -40 18 -74q12 -33 37 -53q23 -20 68 -21q0 2 2 4t4 4.5t4 4.5t2 4l4 16l2 4l25 53 q8 16 20 54l17 51l9 23.5t9 27.5q10 29 16.5 51.5t16.5 50.5q33 86 86 258q37 121 63 259q-41 4 -63 8q-35 6 -60 18q-23 12 -43 35q-18 22 -18 55q0 10 4 31q4 25 8 33q8 31 35 47q27 18 53 20q127 8 212 8q42 0 79 -2q135 -6 279 -28q22 -3 30 -19q14 -25 17 -28 q8 -25 8 -37q0 -27 -4 -41q-12 -43 -43 -68q-27 -20 -68 -35q-33 -10 -75 -14q-27 -2 -68 -2q-47 -150 -59 -194l-56 -195q-53 -188 -129 -389q-27 -74 -55 -123q-31 -53 -88 -115q-47 -49 -113 -86q-60 -33 -119 -33q-5 0 -10 1q-7 0 -13 -1q-58 0 -104 23q-55 29 -83 61 q-39 45 -58 89q-27 63 -37 102q-25 97 -25 201q1 12 1 24z" />
<glyph unicode="k" horiz-adv-x="1193" d="M233 113q-1 17 -1 31q0 30 6 59q10 59 20 92q10 37 35 106q10 27 18 54.5t17 54.5l41 108q22 52 43 111l16 49l16 47q8 16 21 49l20 48q14 39 47 112l54 111q4 6 16 28.5t21 34.5l43 60q8 8 24.5 28.5t24.5 28.5q10 10 30.5 22.5t32.5 16.5q9 1 17 1q27 0 47 -9 q25 -10 35 -45q3 -15 3 -32t-3 -36q-6 -33 -23 -74q-14 -35 -18 -41q-14 -27 -21 -38q-20 -37 -39 -80q-12 -23 -20 -58l157 117l154 119q23 14 68 47q31 23 69 47q41 27 72 39q43 18 72 20q33 -4 53 -18q18 -14 33 -41q10 -23 14 -55q1 -5 0 -11q0 -21 -8 -51 q-8 -27 -39 -51q-25 -18 -55 -33q-29 -18 -66 -30q-45 -16 -66 -29q-86 -49 -176 -119q-82 -63 -161 -137l16 -33.5l18 -38.5l37 -67q18 -45 62 -115q27 -43 59 -117q31 -68 41 -127q7 -38 7 -73t-7 -70q-10 -23 -31 -45q-18 -20 -38.5 -38.5t-49.5 -29.5q-25 -8 -51 -12 q-27 0 -45 12.5t-31 30.5q-10 16 -20 39q-12 29 -19 41l-45 131l-45 131q-14 25 -22 47q-10 27 -25 47q-20 29 -31 39q-16 16 -47 27l-20 -53l-25 -56q-10 -31 -20 -51q-8 -16 -21 -53q-10 -25 -18 -60l-17 -57q-10 -43 -14 -57.5t-9 -28.5t-9 -29q-2 -18 -15 -39 q-12 -22 -30 -36q-20 -16 -41 -23q-15 -4 -26 -4q-8 0 -15 2q-51 10 -72 39q-22 31 -25 74z" />
<glyph unicode="l" horiz-adv-x="972" d="M229 160q8 66 17 94q4 29 8 43l12 43q20 63 41 111l49 112l54 117l49 117l33 100q8 27 17 54.5l15 45.5q27 86 31 97l39 98q8 20 28.5 57t41 55.5t55.5 41.5q27 16 63 22q13 2 25 2q20 0 35 -6q18 -8 32 -29q8 -12 13 -47q2 -18 -2 -55q-2 -18 -15 -59q-6 -20 -18 -54 q-31 -80 -74 -168l-78 -170l-77 -170q-53 -125 -70 -170q-8 -20 -27 -88q-4 -16 -11 -50t-7 -38q82 10 158 39l159 66q18 8 37 15t37 15q35 14 72 21q25 6 53 -2q23 -6 39 -23q14 -14 14 -41q0 -31 -14 -55q-23 -41 -64 -78q-33 -29 -81 -61q-41 -27 -91 -49l-90 -43 q-51 -20 -94 -35q-61 -20 -92 -28.5t-92 -16.5q-23 -3 -44 -3t-42 3q-18 2 -45 10q-29 8 -41 14q-16 8 -33 25q-18 18 -23 35q-5 23 -4 46q-1 19 2 40z" />
<glyph unicode="m" horiz-adv-x="1406" d="M242 125q0 10 -1 20q0 73 19 148q22 86 49 172q49 145 101 272q47 117 129 273q16 37 57 106.5t66 104.5q12 16 40 49q20 25 46 45q27 23 51 37q28 15 55 18q11 1 19 1q17 0 28 -5q23 -10 33 -25q8 -10 16 -38q6 -22 6 -43q0 -160 -8 -289q-8 -123 -33 -297l142 203 l139 202q45 53 64 80q41 57 67 86q33 35 76 72q35 31 90 47q37 -6 55 -23q27 -23 37 -45q12 -27 19 -59q4 -20 4 -63q1 -16 0 -31q0 -53 -9 -105q-8 -47 -36 -141q-12 -45 -23 -68l-29 -69l-28 -70q-8 -18 -14.5 -34.5t-12.5 -34.5q-8 -25 -20 -78q-10 -47 -21 -76l-39 -145 q-23 -76 -55 -144q-16 -33 -29 -49l-35 -49l-16 -18q-16 -17 -27 -25q-23 -20 -53 -27q-10 -2 -20 -2q-14 0 -29 4q-23 6 -39 23q-12 12 -22 37q-10 23 -7 47q10 45 15 59l20 62q8 29 14.5 45l14.5 35.5t16 44.5l41 127q10 31 39 131q16 61 31 131q-53 -72 -119 -172 l-117 -176q-61 -86 -129 -166q-66 -78 -151 -148q-27 0 -43 10q-16 12 -29 29q-14 20 -16 39q-4 29 -4 45l-3 67q0 27 3 50q2 29 5 59.5t5 61.5l12 120q8 84 10 121l-51 -125q-8 -20 -43 -125q-6 -16 -20 -69l-19 -70q-6 -39 -14 -65q0 -4 -7 -30l-11 -40q-6 -20 -23 -61 q-14 -35 -33 -60q-12 -14 -24 -22q-16 -10 -29 -13q-20 -4 -31 -4q-18 0 -26 2q-45 6 -65.5 39t-20.5 74z" />
<glyph unicode="n" horiz-adv-x="1153" d="M207 102q-1 11 -1 22q0 17 3 32q4 12 14 38.5t15 41.5q2 6 34 77l39 80l31 80l45 143l43 142q8 27 15.5 49l13.5 40.5l16 49.5q20 61 53 139q12 31 45 88q39 70 52 88l28 41l31 41q10 14 37 37q20 16 43 23q23 4 39 -2q16 -4 28 -19q12 -10 21 -26q4 -4 12 -33 q10 -33 15 -80l6 -82q4 -45 8 -131q4 -90 10 -133q16 -139 51 -256q4 14 11.5 45l11.5 47l24 90q23 86 48 170q23 76 55 170l29 78q14 41 41 84q23 39 59 67q31 25 84 29q27 -4 35 -12q14 -14 20 -29q8 -18 10 -35q2 -10 4.5 -18t2.5 -18q1 -11 0 -24q0 -19 -3 -56 q-2 -25 -18 -82q-6 -14 -16 -47q-8 -31 -19 -47l-37 -99q-39 -123 -65 -217l-60 -215q-25 -94 -41 -141q-39 -113 -51 -143.5t-30 -61.5q-16 -27 -43 -57q-23 -25 -56 -45q-31 -18 -65 -25q-49 4 -76 31q-23 23 -43 63q-14 31 -28.5 78l-24.5 78q-27 143 -35 192 q-18 113 -29 197q-10 -35 -23.5 -72t-25.5 -75l-47 -150q-18 -51 -39 -96q-29 -66 -45 -99q-16 -31 -35 -57q-16 -25 -39 -47q-25 -25 -45 -35q-16 -8 -33 -8l-16 2q-23 2 -45.5 18.5t-32.5 34.5q-14 22 -16 47z" />
<glyph unicode="o" horiz-adv-x="1206" d="M295 449q10 115 51 225q47 125 123 244q76 117 182 221q47 49 108.5 98t121 80t129.5 51q66 19 114 19q6 0 13 -1q55 0 104 -22.5t78 -57t51 -81.5q18 -39 29 -95q14 -68 14 -136q0 -37 -4 -76q-14 -127 -51 -230q-43 -123 -123 -239q-84 -123 -182 -222 q-49 -51 -109 -96q-55 -45 -121 -80q-61 -35 -129 -53q-59 -17 -110 -17q-8 0 -17 1q-61 0 -104 20q-47 23 -78 59q-35 43 -51 82q-20 51 -29 95q-13 72 -13 143q0 34 3 68zM553 420q-1 -8 -1 -18q0 -13 3 -42q4 -33 18 -53q18 -27 39 -37q25 -13 51 -12h9q6 -1 11 0 q25 0 54 10q39 14 66 33q41 29 59 47q28 28 49 55q27 37 58 91q8 14 45 88q20 41 39 84l32 84l37 114q20 63 23 115q0 27 -6 51q-4 20 -23 41q-16 18 -39 29q-20 9 -42 9q-5 0 -11 -1q-35 0 -72 -12q-39 -12 -69 -33q-31 -18 -64 -49q-20 -18 -53 -60q-47 -61 -86 -133 q-27 -47 -59 -139q-35 -98 -46 -131q-14 -53 -22 -131z" />
<glyph unicode="p" horiz-adv-x="995" d="M219 133q4 39 14 72q33 106 78 225q47 121 92 225q14 27 29 70q14 39 39 117q16 49 33 114l16 55.5t19 57.5q18 55 43 111q23 51 71 94q45 39 101 63q49 23 110 35q51 10 107 14q15 1 29 1q77 0 143 -15q88 -18 139 -65q25 -25 41 -64q16 -37 18 -76l2 -34q0 -28 -4 -52 q-8 -51 -20 -88q-18 -51 -49 -96q-27 -39 -72 -88q-35 -37 -88 -80q-46 -37 -92 -67q-94 -63 -215 -121q-111 -52 -221 -86q-23 -78 -43 -156q-14 -51 -52 -154q-8 -33 -20 -55q-16 -29 -39 -51q-27 -27 -49 -37q-15 -7 -33 -7l-22 3q-39 4 -62 22q-20 18 -35 50 q-9 20 -9 47q0 8 1 16zM686 762q63 16 115 41q39 18 112 59q10 6 16.5 10.5t14.5 9.5t19 11q18 10 51 35q23 16 43 41q18 22 30 49q5 15 5 22q0 20 -11 31l-7 7q-7 7 -11 12q-8 6 -25 14q-57 27 -116 26q-5 1 -10 1q-24 0 -52 -13q-33 -14 -53 -41q-16 -27 -31 -59 q-12 -31 -22 -60q-8 -25 -16.5 -49t-18.5 -49q-13 -32 -33 -98z" />
<glyph unicode="q" horiz-adv-x="1150" d="M281 414q16 113 55 225q45 131 110 246q78 137 160 235q43 51 103 105q51 45 118 86q61 37 129 59q56 19 111 19h16q63 0 105 -21q47 -23 73.5 -53.5t47.5 -79.5q18 -47 24 -94q8 -49 8 -101t-8 -106q-14 -106 -53 -217q-45 -119 -106 -228q-68 -121 -152 -215 q0 -25 6 -47q4 -18 19 -41q8 -18 8 -51q0 -29 -15 -55q-10 -18 -28 -37q-23 -23 -37 -33q-22 -15 -43 -24q-20 -8 -45 -13l-13 -2l-18 2l-10 2l-12 7l-11 12q-2 8 -10 31q-4 12 -8 32q-49 -37 -102.5 -57t-104.5 -20q-8 0 -16 -1q-47 0 -97 15q-51 14 -90 45q-43 33 -65 72 q-25 43 -37 92q-18 63 -18 133q1 39 6 78zM543 416q-1 -15 -2 -26q0 -24 6 -42q8 -29 31 -51q20 -20 63 -27q18 0 37 6q14 4 35 19q-4 8 -8.5 13t-7.5 11.5l-7 14.5q-14 23 -18 41q-8 29 -8 47q0 27 8 51q8 18 22 39q14 18 35 37q23 18 41 26q29 12 43 13q18 -2 34.5 -16.5 t24.5 -28.5l17 -33q4 -8 8 -17.5t8 -17.5q45 57 72 115q33 68 49 117l37 114q16 51 27 117q1 9 0 20v20v19q0 31 -9 50q-8 20 -26.5 34.5t-42.5 14.5q-9 1 -18 0q-29 0 -58 -9q-41 -12 -76 -32q-39 -23 -67.5 -51.5t-55.5 -65.5q-47 -70 -80 -145q-41 -98 -57 -148l-22 -72 q-16 -53 -23 -79q-8 -39 -12 -78z" />
<glyph unicode="r" horiz-adv-x="1255" d="M248 125q-3 23 -3 46t3 46q6 43 22 96q25 80 31 95l39 96l43 100q29 66 41 98l39 119q2 8 15.5 52.5t21.5 66.5q29 78 41 115t45 114q14 35 22 48q16 25 33 45q6 8 43 38q16 14 49 29q33 16 49 21q47 12 52 12l49 6q37 4 51 8q12 0 34.5 4t32.5 4q23 2 66 2q53 0 80 -2 q57 -4 80 -8q29 -4 71 -20q37 -12 62 -33q29 -29 39 -57q10 -31 14 -72q1 -10 1 -21q0 -27 -5 -59q-4 -31 -20 -82q-10 -31 -35 -67q-29 -45 -47 -66q-37 -41 -58 -59q-45 -41 -63 -56q-59 -51 -142 -102q-70 -43 -153 -74q25 -53 35 -82q16 -49 32 -82q18 -40 43 -73 q27 -37 62 -58q12 -10 55 -34q33 -18 51 -37q23 -18 31 -47q3 -12 4 -24q0 -21 -10 -42q-14 -29 -29 -43q-23 -23 -41 -33q-10 -6 -49 -20q-14 -6 -47 -10q-22 -3 -42.5 -3.5t-39.5 3.5q-37 6 -67.5 24.5t-55.5 42.5q-16 16 -41 53q-23 47 -71.5 137.5l-71.5 135.5 q-4 6 -12.5 15t-14.5 20q-10 16 -32 28q-2 -8 -8.5 -22.5t-8.5 -22.5t-8 -22.5t-8 -22.5q-6 -14 -21 -63l-16 -66q-4 -16 -9 -31.5t-9 -29.5l-19 -64q-10 -33 -16 -47q-14 -29 -29 -45q-18 -20 -39 -33q-19 -11 -39 -11q-4 0 -8 1q-27 4 -43 14q-16 12 -29 29q-8 14 -16 39 q-6 21 -6 43zM709 813q49 2 120 21q47 12 123 53q59 27 107 80q43 49 65 108q5 12 5 18q0 13 -13 21q-8 4 -20 8q-4 1 -9 1l-16 -1q-15 2 -30.5 2t-32.5 -2q-45 -4 -64 -4q-14 0 -29.5 -2l-31.5 -4q-20 -2 -62 -2q-16 -2 -26 -18q-2 -4 -8.5 -13.5t-8.5 -13.5q0 -4 -3 -12.5 t-3 -10.5q-2 -6 -3 -12t-3 -12q-31 -76 -39 -103q-14 -51 -18 -102z" />
<glyph unicode="s" horiz-adv-x="1171" d="M240 197q-3 14 -3 28q0 19 5 39q2 14 16 34.5t27 31.5q18 14 34.5 20t34.5 2q37 -4 52 -8q18 -6 38 -22l39 -25q6 -4 11.5 -7t8.5 -6t8 -6.5l11 -7.5q63 -29 150 -28q53 0 96 8t98 39q37 29 51.5 43t34.5 47q23 37 27 45l18 45q12 27 19 59q8 39 6 56q-10 8 -29 8 q-46 0 -92 -12l-94 -25l-92 -25q-40 -11 -77 -10h-15q-7 -1 -15 0q-33 0 -65 10q-37 12 -62 37q-29 29 -41 56q-16 35 -18 69q-3 23 -3 47q0 52 13 111q18 82 55 162q12 35 45 82q31 43 66 75q49 45 78 65.5t86 53.5q96 57 178 76q96 23 176 22q59 -4 107 -14q49 -12 92 -41 q31 -25 35 -31q18 -23 26 -40q10 -23 13 -46q1 -6 0 -12q0 -22 -7 -43q-6 -29 -24 -47q-16 -16 -41 -27q-29 -12 -47 -14q-25 -2 -45.5 0t-57.5 14l-55 21q-16 8 -53 20q-25 8 -60 9q-7 1 -14 0l-72 -13q-39 -14 -86 -41q-41 -23 -73 -59q-31 -33 -52 -78q-6 -23 -6 -45 q0 -27 2 -41l7 -18q0 -4 2 -8.5t4 -8.5l12 -12q6 -6 18 -6q49 8 74 16l35.5 13.5t40.5 13.5q51 20 90 31q53 14 88 14t70 -10q29 -8 55 -29q29 -20 43 -41q12 -16 29 -53q19 -51 18 -108v-17q-2 -61 -33 -137q-35 -94 -102 -187q-68 -94 -156 -164q-35 -33 -94 -69.5 t-98 -52.5q-61 -25 -103 -35q-43 -10 -100 -10q-74 0 -135 20q-59 20 -115 55q-18 14 -47 39q-25 23 -41 47q-14 23 -20 56z" />
<glyph unicode="t" horiz-adv-x="1146" d="M477 1112q-1 6 -1 13q0 25 11 46q16 31 39 48q37 27 54 34q18 8 59 21l28.5 8l28.5 8q29 8 72 15q18 2 35.5 6l36.5 8q57 12 157 29q45 6 158 20l86 6q10 0 28.5 0.5t27.5 0.5q15 0 28 -1q23 -2 68 -14q37 -10 59 -27q29 -23 41 -43q16 -29 16 -63q-14 -29 -45 -60 q-27 -27 -65 -32q-21 -5 -47 -6l-27 1q-25 2 -72 3q-18 2 -57 2q-20 0 -57 -15q-10 -27 -23 -55l-24 -55l-95 -238l-92 -237l-33 -89q-29 -74 -34 -90l-12.5 -38.5t-18.5 -49.5l-35 -88q-25 -57 -27 -61q-12 -25 -36 -62q-20 -29 -50 -51q-31 -25 -65 -26q-43 6 -64 26 q-23 23 -30 49q-5 18 -6 42q0 11 2 26q4 39 12 78q10 45 20 78l23 71q16 51 43 107l49 106q10 23 24.5 51.5l28.5 57.5q25 49 47 110q33 98 45 148q20 82 29 147l-49 -6q-35 -4 -51 -10q-14 -2 -47 -6l-47 -6q-37 -4 -64 2q-35 6 -53 20q-25 12 -29 41z" />
<glyph unicode="u" horiz-adv-x="1165" d="M297 250q-2 21 -2 44q0 30 4 73q6 68 20 122q27 106 33 125l43 125l56 140q29 74 57.5 139t66.5 137q55 102 78 135q25 33 70 58q41 23 82 22q9 1 17 1q12 0 20 -3q20 -8 26 -16q9 -12 13 -31q4 -25 2 -37q-2 -39 -17 -90q-10 -39 -30 -90l-64 -156l-65 -153 q-37 -78 -70 -156q-23 -51 -59 -158q-16 -49 -23 -73q-6 -23 -6 -40q0 -14 4 -26q2 -18 14 -27q10 -8 27 -14q12 -6 31 -8q12 -2 34 -2h12q61 0 111 31q59 37 101 86q41 51 73 114q29 59 50 115q41 113 65 203q33 117 47 200l19 84l20 82q8 31 21 54q18 33 34 49 q27 27 48 37q29 14 55 8q25 -2 45 -17q16 -10 31 -32q8 -14 16 -43q4 -16 8 -50q0 -57 -10 -129q-10 -68 -25 -133q-15 -68 -37 -135q-29 -90 -45 -135q-43 -121 -106 -225q-63 -102 -158 -211q-39 -43 -92 -94q-55 -51 -106 -87q-53 -35 -115 -61q-53 -23 -119 -22 q-9 0 -17 -1q-54 0 -104 17q-51 16 -94 57t-63 86q-25 54 -27 111z" />
<glyph unicode="v" horiz-adv-x="1003" d="M367 152q-1 19 -1 38q0 59 7 119q12 106 22 160q16 106 29 160l35 162q10 74 26 167q10 76 35 170l4 19.5l4 19.5q2 16 17 41q16 37 20 45q16 29 31 43q12 12 41 33q20 14 47 19q23 6 41 -0.5t31 -18.5q10 -10 16 -29q4 -12 4 -34q-2 -14 -5 -43t-5 -43q-4 -23 -16 -84 q-10 -43 -33 -162l-29 -162q-12 -84 -18 -162q-8 -106 -11 -159q25 39 70 116l66 119l65 119l64 121q59 111 73 133q37 65 80 129q14 18 43 59l41 56q20 23 47 43q23 16 58 20q33 -4 49 -20q20 -20 28 -41q6 -16 7 -56q0 -18 -13 -59q-37 -106 -94 -207l-28.5 -48l-34.5 -56 l-66 -105q-63 -119 -123 -219l-127 -217l-65 -102q-37 -59 -74 -109q-35 -45 -90 -90q-53 -43 -109 -57q-6 0 -18 1t-19 1l-36 6q-8 2 -31 10q-16 6 -27 20q-14 23 -22 64q-6 33 -6 70z" />
<glyph unicode="w" horiz-adv-x="1454" d="M291 182q-1 16 -1 31q0 55 9 106q8 43 37 140q9 37 24 73q4 12 14.5 37t14.5 37q8 20 35 76q16 33 31 76q22 58 37 116l30 115q27 92 33 111l43 112q4 8 13.5 22.5l13.5 20.5q10 18 34 39q10 10 39 35q23 18 45 19q29 4 52 -7q25 -10 36 -22q18 -18 25 -39q6 -23 6 -45 q-4 -35 -14 -61l-25 -62l-94 -270q-39 -111 -88 -273q63 100 123 183l131 178l59 78l62 79q20 27 65 76q37 41 72 70q16 10 29 10q18 0 28 2q23 2 43 -6q18 -8 31 -27q8 -29 10 -43q3 -22 0 -43q0 -78 -6 -155q-10 -139 -14 -160q-6 -35 -14 -100q-4 -33 -17 -99l121 293 q51 125 102 291q6 20 13 39q8 25 14 37q8 20 20 41q10 18 33 35q35 14 51 14q5 0 13.5 0.5t11.5 0.5q6 0 10 -1q18 -2 41 -10q16 -6 27 -25q16 -41 16 -98q0 -61 -10 -111q-14 -72 -29 -114q-8 -25 -32 -115q-34 -101 -80 -203q-45 -100 -101 -201l-110 -192 q-63 -104 -133 -184q-25 -29 -39 -41q-18 -16 -45 -35t-47 -27q-25 -9 -50 -12q-29 0 -41 6q-16 8 -26 24.5t-17 36.5q-4 12 -8 37q-10 98 -10 241.5t10 248.5l-114 -164q-78 -106 -121 -160l-74 -86q-45 -57 -70 -82q-43 -43 -75 -65q-37 -27 -82 -35q-39 4 -60 20 q-25 20 -37 45q-12 23 -18 58q-6 30 -6 63z" />
<glyph unicode="x" horiz-adv-x="1196" d="M205 123q0 37 10 65q14 35 33 62q23 31 45 57l19 23q19 23 30 32l53 54l125 125l123 127q23 23 31 34q2 4 26 33l-24 139q-6 35 -13.5 71t-13.5 71l-8 61q-4 41 -4 64q0 18 4 63q4 37 18 70q8 18 25 39q12 14 36.5 28.5t41.5 18.5q12 4 45 8q14 3 27 3q17 0 32 -5 q25 -8 41 -31q8 -25 13 -53l8 -57q2 -41 10 -119q0 -4 6 -119q63 59 131 146l58 69q18 23 61 72q8 8 25 29q8 10 28 30q15 15 31 25q14 8 37 12q33 -4 53 -16q25 -15 37 -37q12 -23 16 -51q1 -7 1 -15q0 -24 -7 -47q-31 -68 -80 -129q-57 -72 -104 -119q-18 -18 -121 -110 q-29 -25 -119 -109l53 -235l56 -236q9 -37 12 -73q1 -9 1 -18q0 -34 -11 -64q-12 -25 -31 -43q-16 -16 -43 -33q-20 -12 -47 -23q-14 -6 -49 -10q-39 0 -60 18q-25 20 -34 46q-14 33 -23 59l-7 28.5t-9 30.5l-21 148q-4 35 -10 71.5l-12 75.5q-51 -47 -86 -88 q-23 -25 -42.5 -49.5t-37.5 -44.5q-37 -45 -72 -92q-12 -18 -38.5 -49l-35.5 -41q-6 -8 -13 -16.5l-15 -18.5q-20 -25 -33 -35l-37 -29q-16 -10 -41 -14q-34 3 -55 18q-20 14 -35 43q-10 21 -10 60z" />
<glyph unicode="y" horiz-adv-x="1042" d="M334 72q0 16 12 49q27 92 78 192q45 90 113 185q-23 39 -35 82q-8 29 -17 90q-4 31 -4 96q0 33 4 98q6 94 25 189q18 98 59 190q16 33 21 39q12 18 28 35q6 6 37 26q16 10 41 15q23 6 47 2q14 -2 33 -17q16 -14 23 -30q8 -25 8 -39q-4 -27 -9 -50.5l-10 -45.5 q-12 -57 -16 -97q-6 -53 -10 -151q-1 -19 -1 -38q0 -56 7 -110l152 179l155 176l80 92l82 90q23 20 53 37q18 10 40 10q9 0 18 -2q29 -4 47 -18.5t26 -38.5q8 -23 9 -52q0 -18 -13 -55q-25 -49 -47 -74q-55 -63 -59 -67l-74 -74l-76 -74l-160 -176q-92 -106 -149 -184 q-68 -92 -131 -193q-63 -102 -111 -198l-32 -64q-20 -37 -43 -57q-25 -31 -60 -43q-32 -11 -56 -11q-5 0 -9 1q-25 0 -43 12q-14 10 -25 31q-8 16 -8 43z" />
<glyph unicode="z" horiz-adv-x="1187" d="M252 113q-1 7 -1 14q0 22 7 43q23 55 74 123q37 51 94 115q82 92 102 112q80 82 105 111l248 254l247 252q-74 -4 -114 -9q-51 -6 -117 -18q-29 -4 -59.5 -10t-59.5 -13q-51 -10 -116 -14q-33 -4 -52 -2q-28 3 -49 12q-18 8 -29 29q-10 18 7 51q41 51 82 76q47 29 100 47 q70 25 104 33l103 24q111 23 217 31q51 4 97 5q56 0 108 -7q29 -2 63 -18q33 -14 53 -33q16 -16 35 -49q10 -18 10 -42q0 -10 -2 -22q-46 -65 -98 -123l-108 -116l-115 -113l-111 -115l-125 -125l-125 -127l-110 -118q-51 -55 -105 -127q31 18 76 37q43 18 78 28 q25 10 74 27q25 8 78 29q33 14 75 24q37 9 74 12q5 0 10 1q53 0 84 -29q16 -16 19 -39q4 -31 -9 -51q-12 -31 -36.5 -55.5t-55.5 -45.5q-25 -14 -63 -28q-16 -6 -32.5 -13.5t-33.5 -13.5l-81 -26.5l-76 -24.5q-139 -43 -158 -47q-88 -20 -158 -29q-52 -6 -97 -6q-27 0 -52 2 q-27 2 -43 22q-14 16 -25 41q-4 17 -8 54z" />
<glyph unicode="{" d="M231 156q0 33 13 65q14 39 41 86q20 37 59 82q29 35 72 74q40 37 80 67h-29h-25q-25 -2 -59.5 4.5t-52.5 20.5q-22 15 -31 37q-10 25 2 57q14 43 43 68q35 29 65.5 41t75.5 20q37 6 70 6q-18 28 -31 62q-16 47 -20 67q-6 33 -2 76q2 29 20 80q27 70 78 139q45 61 119 119 q31 28 67 49q33 18 74 33q37 12 74 18.5t70 -0.5q29 -2 57 -20q20 -12 43 -39q18 -23 24 -51q6 -35 -4 -66q-6 -23 -20 -39q-15 -18 -37 -30q-20 -12 -41 -15q-29 -4 -41 0q-8 2 -15 4.5t-16 4.5q-10 2 -34 6q-23 4 -46 -2q-18 -4 -43 -19q-23 -12 -38 -33q-16 -18 -23 -45 q-2 -20 4 -45q4 -14 17 -39q6 -12 22 -36q20 -31 23 -35l24 -37q16 -29 23 -43q8 -20 12 -47t-2 -51q-8 -25 -29 -48q-18 -23 -41 -40q14 -14 21 -35q8 -27 -2 -47q-20 -47 -70 -91l-90 -75l-98 -84q-55 -47 -86 -92l28 -21q29 -16 33 -18q27 -8 35 -11q25 -4 41 -2 q20 6 43 -2q18 -6 27 -20q12 -20 12 -35q0 -25 -10 -43q-14 -27 -29 -47q-16 -23 -41 -43q-23 -20 -47 -35q-18 -10 -51 -18q-72 -12 -131 6q-61 20 -99 53q-29 25 -41 41q-16 23 -26 51q-11 31 -11 62z" />
<glyph unicode="|" horiz-adv-x="520" d="M174 2q16 84 19 90q4 23 10 45.5l12 44.5l88 285l100 285q8 27 47 127t48 127l51 122q27 68 47 125q18 35 29 66q12 34 30 67q20 39 41 64q25 31 58 51q35 10 53 0t29 -28q8 -18 12 -46q4 -25 0 -47q-6 -35 -23 -100l-11 -52t-11 -48q-53 -207 -137 -439l-27 -71l-31 -74 q-10 -23 -26 -72q-14 -41 -27 -69l-37 -99q-8 -33 -14 -47q-4 -8 -9.5 -21.5t-9.5 -27.5l-30 -76l-33 -75l-33 -66q-16 -33 -41 -66q-12 -20 -20 -30q-4 -4 -12.5 -16.5t-12.5 -16.5l-31 -25q-12 -10 -32 -16q-29 0 -41 10q-14 12 -21 33q-4 14 -4 43v43z" />
<glyph unicode="}" d="M180 47q-6 29 6 66q2 20 19 39q16 20 37 28q29 12 41 15q23 4 41 0q12 -4 32 -9l33 -8q18 -2 45 4t47 19q14 8 37 35q16 20 23 43q0 25 -6 45q-4 14 -17 38q-2 4 -22.5 35t-22.5 35l-24 37q-16 29 -23 43q-8 20 -12 47t2 51q8 25 28 47q12 14 41 39q-12 20 -20 37 q-8 18 2 47q14 27 31 47q12 14 41 43q16 16 45 41l45 37l100 84q45 41 84 94q-6 4 -14 10.5t-15 8.5q-4 2 -10 6t-11 7t-9 5q-18 8 -35 11q-25 4 -41 2q-20 -6 -43 2q-20 6 -29 20q-10 16 -10 35q0 25 10 43q12 27 29 47q20 27 39 43q14 12 47 33q16 10 49 18q74 12 133 -2 q55 -14 101 -55q29 -25 38 -41q14 -23 24.5 -53.5t10.5 -61.5q0 -33 -12 -65q-14 -39 -41 -86q-25 -43 -57 -82q-29 -35 -72 -74q-40 -37 -80 -68h29h24q27 0 58 -6q33 -6 53 -18q25 -14 33 -35q10 -25 -2 -57q-16 -41 -45 -68q-33 -29 -66 -43q-41 -16 -76 -22 q-27 -4 -69 -5q20 -31 32.5 -61.5t18.5 -67.5q6 -31 2 -73q-2 -29 -21 -80q-27 -70 -77 -139q-45 -63 -117 -121q-61 -53 -141 -82q-78 -29 -146 -19q-33 6 -59 23q-25 16 -41 41q-19 22 -25 51z" />
<glyph unicode="~" horiz-adv-x="1155" d="M385 737q8 27 30.5 53.5t45.5 43.5q27 20 53 34l55 31l60 25q31 14 57 22l57 17q28 6 56 6q33 2 59 -15q25 -16 45.5 -32.5l36.5 -28.5q18 -12 47 -16q76 10 129 43q39 18 72 28q39 12 67 10q23 0 48 -10q29 -12 38 -22q16 -16 23 -37q6 -18 2 -49q-8 -25 -18 -39 q-14 -16 -31 -31q-20 -16 -39 -25q-33 -14 -41 -16q-12 -4 -24.5 -10t-24.5 -10q-25 -8 -51 -23q-33 -12 -65 -22.5t-52 -18.5q-61 -20 -117 -22q-39 0 -61 14q-33 20 -47 35l-37 28q-20 18 -45 21q-20 -2 -58 -14q-28 -9 -55 -25q-31 -16 -53 -37q-6 -6 -23.5 -19.5 t-25.5 -21.5h-11l-4 1q-4 1 -6 1q-25 2 -41 14.5t-28 28.5q-14 16 -21 39q-6 20 -2 49z" />
<glyph unicode="&#x85;" horiz-adv-x="1255" d="M174 82q-4 39 6 65q12 37 41 62q31 28 62 49q37 27 65 39q33 14 66 18q31 2 53 -16q20 -18 20 -47q4 -37 -4 -68q-16 -68 -18 -71q0 -2 -8 -19.5t-13 -27.5q-8 -23 -28 -43q-39 -33 -66 -41q-29 -10 -53 -7q-39 4 -59 17q-27 16 -41 37q-21 22 -23 53zM514 86 q-2 29 10 64q14 41 37 65l57 57q41 31 62 41q37 16 63 17q37 0 61.5 -18.5t29.5 -51.5q8 -25 4 -65q-3 -37 -19 -74q-10 -33 -28 -58q-20 -25 -50 -45q-35 -23 -59 -30q-31 -10 -59 -6q-34 -3 -56 12q-18 12 -37 39q-12 20 -16 53zM866 84q8 39 15 63q8 25 32 62 q18 27 52 55q23 23 51 39q25 14 55 10q41 0 62 -18q25 -22 36 -49q12 -29 11 -62q-4 -37 -19 -69q-14 -35 -37 -58q-27 -29 -53 -43q-35 -20 -61 -28q-35 -10 -62 -11q-27 -2 -49 10.5t-29 39.5q-10 28 -4 59z" />
<glyph unicode="&#x2026;" horiz-adv-x="1255" d="M174 82q-4 39 6 65q12 37 41 62q31 28 62 49q37 27 65 39q33 14 66 18q31 2 53 -16q20 -18 20 -47q4 -37 -4 -68q-16 -68 -18 -71q0 -2 -8 -19.5t-13 -27.5q-8 -23 -28 -43q-39 -33 -66 -41q-29 -10 -53 -7q-39 4 -59 17q-27 16 -41 37q-21 22 -23 53zM514 86 q-2 29 10 64q14 41 37 65l57 57q41 31 62 41q37 16 63 17q37 0 61.5 -18.5t29.5 -51.5q8 -25 4 -65q-3 -37 -19 -74q-10 -33 -28 -58q-20 -25 -50 -45q-35 -23 -59 -30q-31 -10 -59 -6q-34 -3 -56 12q-18 12 -37 39q-12 20 -16 53zM866 84q8 39 15 63q8 25 32 62 q18 27 52 55q23 23 51 39q25 14 55 10q41 0 62 -18q25 -22 36 -49q12 -29 11 -62q-4 -37 -19 -69q-14 -35 -37 -58q-27 -29 -53 -43q-35 -20 -61 -28q-35 -10 -62 -11q-27 -2 -49 10.5t-29 39.5q-10 28 -4 59z" />
<glyph horiz-adv-x="499" d="M518 1174q0 68 25 141q8 20 28 37q23 18 37 24q22 9 43 13q4 0 18.5 3t20.5 3q27 -12 43 -35q8 -12 23 -53q8 -27 12 -60q4 -41 8 -59q6 -41 10 -125q2 -59 -20 -133q-10 -25 -23 -39q-10 -12 -34 -33q-12 -10 -41 -22q-18 -8 -41 -9q-31 12 -47 35q-18 25 -27 53 q-8 31 -12 64q-2 25 -11 59q-12 64 -12 136z" />
<glyph unicode="&#x2018;" horiz-adv-x="499" d="M518 1174q0 68 25 141q8 20 28 37q23 18 37 24q22 9 43 13q4 0 18.5 3t20.5 3q27 -12 43 -35q8 -12 23 -53q8 -27 12 -60q4 -41 8 -59q6 -41 10 -125q2 -59 -20 -133q-10 -25 -23 -39q-10 -12 -34 -33q-12 -10 -41 -22q-18 -8 -41 -9q-31 12 -47 35q-18 25 -27 53 q-8 31 -12 64q-2 25 -11 59q-12 64 -12 136z" />
<glyph horiz-adv-x="491" d="M414 907q0 16 12 49q14 39 29 64q4 6 16 28.5t21 34.5l45 62l45 59q14 14 47 56q25 31 51 57q18 18 55 47q25 20 64 27q29 0 45 -12.5t22 -35.5q6 -25 4 -45q-4 -37 -10 -51q-25 -76 -80 -160q-43 -66 -123 -149l-39 -41q-12 -12 -40 -37q-14 -12 -43 -29 q-23 -12 -50 -16q-23 0 -41 14q-20 16 -24 33q-6 22 -6 45z" />
<glyph unicode="&#x2019;" horiz-adv-x="491" d="M414 907q0 16 12 49q14 39 29 64q4 6 16 28.5t21 34.5l45 62l45 59q14 14 47 56q25 31 51 57q18 18 55 47q25 20 64 27q29 0 45 -12.5t22 -35.5q6 -25 4 -45q-4 -37 -10 -51q-25 -76 -80 -160q-43 -66 -123 -149l-39 -41q-12 -12 -40 -37q-14 -12 -43 -29 q-23 -12 -50 -16q-23 0 -41 14q-20 16 -24 33q-6 22 -6 45z" />
<glyph horiz-adv-x="841" d="M535 1133q0 33 6 69.5t20 71.5q8 16 29 35q23 18 37 24q22 9 43 13l43 6q29 -14 39 -35q12 -25 18 -53q8 -37 10 -57.5t11 -57.5q0 -10 2 -32.5t2 -33.5q4 -45 4 -65q0 -45 -2 -68q-4 -35 -13 -71q-6 -23 -20 -39q-16 -20 -33 -31q-18 -12 -40.5 -18.5t-41.5 -4.5 q-29 10 -47 37q-16 20 -27 54q-12 35 -16 61q-10 53 -12 61q-4 20 -8 65.5t-4 68.5zM840 1178q0 47 2 71q4 49 12 74q8 20 29 37q14 12 39 22q14 6 43 11q14 2 39 2q28 -12 43 -37q10 -16 22 -53q8 -27 12 -60q2 -25 11 -59l8 -62q4 -41 4 -61.5t-4 -65.5q-2 -31 -17 -67 q-8 -18 -24 -39q-14 -16 -35 -31q-23 -16 -41 -20q-20 -6 -41 -6q-29 8 -45 30.5t-23 53.5l-12 61q-2 25 -10 59l-6 70q-6 68 -6 70z" />
<glyph unicode="&#x201c;" horiz-adv-x="841" d="M535 1133q0 33 6 69.5t20 71.5q8 16 29 35q23 18 37 24q22 9 43 13l43 6q29 -14 39 -35q12 -25 18 -53q8 -37 10 -57.5t11 -57.5q0 -10 2 -32.5t2 -33.5q4 -45 4 -65q0 -45 -2 -68q-4 -35 -13 -71q-6 -23 -20 -39q-16 -20 -33 -31q-18 -12 -40.5 -18.5t-41.5 -4.5 q-29 10 -47 37q-16 20 -27 54q-12 35 -16 61q-10 53 -12 61q-4 20 -8 65.5t-4 68.5zM840 1178q0 47 2 71q4 49 12 74q8 20 29 37q14 12 39 22q14 6 43 11q14 2 39 2q28 -12 43 -37q10 -16 22 -53q8 -27 12 -60q2 -25 11 -59l8 -62q4 -41 4 -61.5t-4 -65.5q-2 -31 -17 -67 q-8 -18 -24 -39q-14 -16 -35 -31q-23 -16 -41 -20q-20 -6 -41 -6q-29 8 -45 30.5t-23 53.5l-12 61q-2 25 -10 59l-6 70q-6 68 -6 70z" />
<glyph d="M426 903q0 23 10 49q18 57 68 127q37 53 94 121q6 6 47 57q16 20 51 56q29 29 56 47q31 20 65 31q33 4 47 -7q20 -12 25 -30q6 -25 4 -47q-4 -27 -14 -50q-33 -90 -86 -167q-57 -84 -125 -154q-8 -10 -18.5 -19.5t-18.5 -19.5q-25 -25 -39 -37t-43 -29q-14 -8 -45 -12 q-29 0 -45.5 10.5t-26.5 30.5q-6 12 -6 43zM680 791q-4 27 2 40q2 8 14.5 24.5t20.5 25.5q12 14 37 47l34 49q23 39 68 98q39 53 68 101l30 41l37 43q12 12 41 32q18 12 47 17q27 0 45.5 -12.5t26.5 -32.5q6 -14 6 -45q0 -16 -12 -50q-25 -84 -80 -163q-51 -74 -125 -148 l-39 -39l-43 -37q-18 -14 -45 -30q-29 -16 -47 -19q-20 0 -39 6q-14 6 -31 21q-14 15 -16 31z" />
<glyph unicode="&#x201d;" d="M426 903q0 23 10 49q18 57 68 127q37 53 94 121q6 6 47 57q16 20 51 56q29 29 56 47q31 20 65 31q33 4 47 -7q20 -12 25 -30q6 -25 4 -47q-4 -27 -14 -50q-33 -90 -86 -167q-57 -84 -125 -154q-8 -10 -18.5 -19.5t-18.5 -19.5q-25 -25 -39 -37t-43 -29q-14 -8 -45 -12 q-29 0 -45.5 10.5t-26.5 30.5q-6 12 -6 43zM680 791q-4 27 2 40q2 8 14.5 24.5t20.5 25.5q12 14 37 47l34 49q23 39 68 98q39 53 68 101l30 41l37 43q12 12 41 32q18 12 47 17q27 0 45.5 -12.5t26.5 -32.5q6 -14 6 -45q0 -16 -12 -50q-25 -84 -80 -163q-51 -74 -125 -148 l-39 -39l-43 -37q-18 -14 -45 -30q-29 -16 -47 -19q-20 0 -39 6q-14 6 -31 21q-14 15 -16 31z" />
<glyph horiz-adv-x="724" d="M350 526q-9 46 0 99q10 53 31 102q12 39 33 76q18 33 51 74t63 63q55 41 74 51q40 22 80 31q41 10 82 6q45 0 77.5 -20.5t55.5 -53.5q18 -27 25 -73q6 -43 -11 -86q-23 -70 -65 -136q-47 -72 -103 -120q-57 -57 -129 -90q-78 -35 -141 -33q-53 2 -86 35q-27 26 -37 75z " />
<glyph unicode="&#x2022;" horiz-adv-x="724" d="M350 526q-9 46 0 99q10 53 31 102q12 39 33 76q18 33 51 74t63 63q55 41 74 51q40 22 80 31q41 10 82 6q45 0 77.5 -20.5t55.5 -53.5q18 -27 25 -73q6 -43 -11 -86q-23 -70 -65 -136q-47 -72 -103 -120q-57 -57 -129 -90q-78 -35 -141 -33q-53 2 -86 35q-27 26 -37 75z " />
<glyph horiz-adv-x="825" d="M371 653q-4 29 4 52q25 37 59 59q29 18 72 29q37 8 78 12q27 2 71 6q18 -2 56 -2q10 0 28.5 -1t26.5 -1q20 0 70 -4q27 -2 67 -19q27 -10 45 -39q16 -25 4 -65q-16 -29 -28 -41q-14 -16 -37 -31q-14 -10 -43 -22q-14 -6 -43 -11l-174 -6q-115 -4 -170 -2q-27 4 -43 15 q-18 12 -27 30q-12 16 -16 41z" />
<glyph unicode="&#x2013;" horiz-adv-x="825" d="M371 653q-4 29 4 52q25 37 59 59q29 18 72 29q37 8 78 12q27 2 71 6q18 -2 56 -2q10 0 28.5 -1t26.5 -1q20 0 70 -4q27 -2 67 -19q27 -10 45 -39q16 -25 4 -65q-16 -29 -28 -41q-14 -16 -37 -31q-14 -10 -43 -22q-14 -6 -43 -11l-174 -6q-115 -4 -170 -2q-27 4 -43 15 q-18 12 -27 30q-12 16 -16 41z" />
<glyph horiz-adv-x="1218" d="M375 655q-2 18 10 47q31 41 61.5 59.5t75.5 29.5q53 12 80 14q39 4 74 6h119h118h117q37 0 115 -4q10 0 21.5 -1t26.5 -3t24 -2q33 -2 67 -17q31 -12 49 -36q18 -27 10 -66q-12 -29 -26 -43q-20 -20 -38.5 -30.5t-45.5 -20.5q-16 -6 -45 -10q-37 -3 -80 -7l-82 -6 q-63 -6 -186 -14q-2 0 -183 -6q-61 0 -90 4q-39 6 -84 18q-31 10 -51 20.5t-39 28.5q-14 14 -18 39z" />
<glyph unicode="&#x2014;" horiz-adv-x="1218" d="M375 655q-2 18 10 47q31 41 61.5 59.5t75.5 29.5q53 12 80 14q39 4 74 6h119h118h117q37 0 115 -4q10 0 21.5 -1t26.5 -3t24 -2q33 -2 67 -17q31 -12 49 -36q18 -27 10 -66q-12 -29 -26 -43q-20 -20 -38.5 -30.5t-45.5 -20.5q-16 -6 -45 -10q-37 -3 -80 -7l-82 -6 q-63 -6 -186 -14q-2 0 -183 -6q-61 0 -90 4q-39 6 -84 18q-31 10 -51 20.5t-39 28.5q-14 14 -18 39z" />
<glyph horiz-adv-x="1347" d="M555 754q23 72 49 133q12 23 33 67q6 14 27 70l34 92q16 41 27 92h-59q-10 0 -30 -1t-28 -1q-12 4 -16 15q-2 6 -2 22q-4 12 0 29q6 27 6 28q2 6 20 25q14 14 25 18q23 8 29 11q20 4 28 4q70 4 107 8q6 0 46 4t62 8q14 2 42 4t42 4l86 7q29 0 41 -11q16 -12 25 -32 q23 23 37 28q25 10 39 11q33 0 49 -23q14 -20 18 -51q4 -39 4 -115q0 -57 -6 -119l53 82q27 39 60 78l33 43q20 29 30 41q15 18 31 31q14 10 37 14q25 0 35 -8q12 -10 22 -23q9 -12 13 -30q2 -6 5 -17.5t3 -15.5q2 -23 2 -74q0 -35 -12 -76l-25 -67l-16 -35q-6 -12 -15 -37 q-8 -27 -10 -35q-4 -25 -8 -37l-27 -75q-12 -37 -33 -72q-10 -18 -20 -33q-4 -6 -12.5 -14t-12.5 -14q-15 -15 -30 -25q-10 -6 -35 -14q-37 -6 -51 14q-16 25 -9 53q6 25 17 58l20 57q14 31 27 65q12 33 22 66q-8 -12 -24.5 -31.5t-30.5 -40.5l-55 -71q-8 -12 -62 -70 q-29 -31 -67 -57q-27 0 -39 20q-12 23 -10 49q0 8 1 19.5t3 25t2 21.5q2 23 6 63l-4 -12q0 -2 -5 -14.5t-7 -20.5l-9 -35q-10 -29 -10 -32q-2 -14 -12 -33q-8 -23 -19 -39q-16 -25 -26 -35q-18 -18 -35 -26q-23 -10 -43 -9q-20 0 -31 9q-14 10 -18 22q-6 16 -6 31q0 10 4 35 q12 49 20 75q10 35 29 78q28 83 61 166q45 111 74 166q-49 -16 -74 -21q-41 -6 -69 -4q-78 -168 -92 -202l-82 -203l-6 -19q-2 -4 -4.5 -8t-4.5 -8q-14 -18 -20 -33q-6 -12 -17 -22q-10 -12 -32 -35q-18 -18 -41 -18q-43 -4 -66 24q-20 27 -8 68z" />
<glyph unicode="&#x2122;" horiz-adv-x="1347" d="M555 754q23 72 49 133q12 23 33 67q6 14 27 70l34 92q16 41 27 92h-59q-10 0 -30 -1t-28 -1q-12 4 -16 15q-2 6 -2 22q-4 12 0 29q6 27 6 28q2 6 20 25q14 14 25 18q23 8 29 11q20 4 28 4q70 4 107 8q6 0 46 4t62 8q14 2 42 4t42 4l86 7q29 0 41 -11q16 -12 25 -32 q23 23 37 28q25 10 39 11q33 0 49 -23q14 -20 18 -51q4 -39 4 -115q0 -57 -6 -119l53 82q27 39 60 78l33 43q20 29 30 41q15 18 31 31q14 10 37 14q25 0 35 -8q12 -10 22 -23q9 -12 13 -30q2 -6 5 -17.5t3 -15.5q2 -23 2 -74q0 -35 -12 -76l-25 -67l-16 -35q-6 -12 -15 -37 q-8 -27 -10 -35q-4 -25 -8 -37l-27 -75q-12 -37 -33 -72q-10 -18 -20 -33q-4 -6 -12.5 -14t-12.5 -14q-15 -15 -30 -25q-10 -6 -35 -14q-37 -6 -51 14q-16 25 -9 53q6 25 17 58l20 57q14 31 27 65q12 33 22 66q-8 -12 -24.5 -31.5t-30.5 -40.5l-55 -71q-8 -12 -62 -70 q-29 -31 -67 -57q-27 0 -39 20q-12 23 -10 49q0 8 1 19.5t3 25t2 21.5q2 23 6 63l-4 -12q0 -2 -5 -14.5t-7 -20.5l-9 -35q-10 -29 -10 -32q-2 -14 -12 -33q-8 -23 -19 -39q-16 -25 -26 -35q-18 -18 -35 -26q-23 -10 -43 -9q-20 0 -31 9q-14 10 -18 22q-6 16 -6 31q0 10 4 35 q12 49 20 75q10 35 29 78q28 83 61 166q45 111 74 166q-49 -16 -74 -21q-41 -6 -69 -4q-78 -168 -92 -202l-82 -203l-6 -19q-2 -4 -4.5 -8t-4.5 -8q-14 -18 -20 -33q-6 -12 -17 -22q-10 -12 -32 -35q-18 -18 -41 -18q-43 -4 -66 24q-20 27 -8 68z" />
<glyph unicode="&#xa2;" horiz-adv-x="940" d="M283 567q0 70 26 142q27 74 80 149q45 63 121 139q27 29 68 64q37 31 73 53q43 27 82 43q45 18 82 25l19 45l18 45q16 37 20 45q20 35 29 45l33 41q18 20 45 24q25 0 37 -2t33 -14q12 -8 22 -25q8 -14 8 -36q-2 -35 -12 -76l-20 -80q55 -20 83 -49q35 -35 54 -82 q16 -31 24 -92q6 -55 -10 -107q-4 -16 -18 -41q-12 -22 -31 -37q-20 -16 -39 -24q-25 -10 -45 -8q-31 0 -53.5 16t-28.5 43q0 10 -2 30.5t-4 28.5q-4 37 -8 56l-29 -90q-20 -61 -33 -93q-8 -25 -18 -51l-21 -53l-41 -102q41 27 72 39q43 18 76 20q20 2 37 -10q12 -8 14 -27 q4 -25 2 -39q-2 -20 -12 -39q-18 -39 -51 -71.5t-70 -55.5q-43 -27 -82 -43q-45 -20 -82 -30q-2 -4 -5 -14.5t-5 -14.5q-6 -14 -10 -29l-37 -80q-14 -33 -45 -77q-4 -6 -12.5 -17.5t-12.5 -17.5q-8 -12 -28.5 -32.5t-32.5 -29.5q-20 -14 -39 -16q-31 -2 -58 16 q-25 18 -20 54q10 61 12 65q14 53 21 70l16 53l17 57q-68 23 -113 68q-47 47 -70 104q-26 64 -26 125zM532 631q0 -18 7 -37q6 -16 16 -35q12 -20 20 -31l68 185l70 184l-54 -51l-23.5 -24.5t-25.5 -28.5q-29 -37 -41 -58q-18 -31 -30 -61q-7 -21 -7 -43z" />
<glyph unicode="&#xa3;" horiz-adv-x="1327" d="M354 760q0 29 11 49q23 39 55 59q35 23 72 31q41 10 77 12q12 2 70 7q33 84 74 155l86 154q31 37 71 59q45 25 80 37q16 6 84 20l38 7.5t42 9.5q90 16 174 18q98 4 168 -4q33 -4 47 -12q23 -12 35 -31q14 -20 16 -41q4 -29 -4 -51q-8 -25 -16 -37q-10 -16 -29 -31 q-16 -14 -35 -22q-12 -6 -38 -10q-43 -6 -82 -6q-53 0 -82 2q-23 2 -78 -2q-35 -2 -84 -17q-37 -10 -80 -39q-37 -25 -61 -67q-12 -18 -25 -45q-14 -31 -25 -47q45 0 72 -3q40 -3 68 -18q33 -18 43 -41q12 -27 -4 -72q-4 -16 -19 -36q-10 -16 -31 -33q-23 -18 -36 -25 q-16 -6 -39 -10q-4 0 -35 -3t-47 -3q-51 0 -80 -2l-37 -97q-6 -18 -13 -33.5t-11.5 -27.5l-12.5 -33q-16 -45 -26 -94q-9 -46 -13 -92q104 35 148 55l143 66q72 35 148 59q84 29 145 31q23 2 47 -4q29 -8 41 -17q23 -14 29 -28q10 -20 10 -41v-15q-41 -47 -96 -86 q-47 -33 -109 -65q-66 -35 -115 -55q-27 -10 -114 -56l-117 -49q-63 -27 -119 -47q-72 -27 -119 -39q-58 -15 -116 -18q-43 4 -66 12q-31 12 -45 38.5t-14 59.5v68q6 63 22 145q18 86 41 148q25 74 39 108l45 107h-47h-45q-29 4 -41 12q-18 12 -24 33q-11 20 -11 43z" />
<glyph unicode="&#xa5;" horiz-adv-x="1095" d="M236 225q-2 16 6 49q16 37 45 56q35 20 63 28q23 6 70 11l34.5 4t28.5 2q20 35 23 39l22 39q-18 2 -53 2q-20 0 -57 4q-23 0 -41 12q-16 12 -27 31q-10 20 -10 41q0 25 8 47t27 41q20 20 39 31q14 8 47 20q10 4 26.5 7t20.5 5q-4 90 -2 137q4 94 10 142q8 45 29 135 q14 63 47 135q16 33 20 39q12 18 29 35q6 6 37 26q16 10 41 15q16 4 47 0q18 -2 33 -17q16 -14 20 -30q6 -18 6 -39q-12 -66 -16 -96q-4 -25 -7 -49.5t-7 -47.5q-2 -39 -5.5 -75.5t-5.5 -73.5q-6 -77 7 -148q25 33 96 115l98 115q76 82 98 108l95 109q25 25 43 49q6 8 43 45 q23 20 51 33q31 14 53 8q31 -4 49.5 -18.5t26.5 -38.5q6 -16 6 -52q0 -25 -10 -55q-25 -49 -47 -74q-55 -63 -60 -67l-73 -74l-76 -74l-97 -104l-94 -107q27 -2 51 -12q29 -10 43 -24q18 -18 21 -41q4 -27 -10 -58q-6 -23 -26.5 -47t-41.5 -37q-29 -16 -51 -22 q-29 -6 -51 -6q-41 0 -123 -4l-31 -41l-29 -43h50h45q2 0 45 -7q22 -3 43 -12q23 -10 33 -22q8 -10 12 -35q2 -20 -10 -49q-16 -33 -31 -47q-18 -18 -45 -35q-18 -12 -51 -23q-18 -6 -52 -10q-29 -2 -86 -2q-14 0 -41.5 -1t-42.5 -1q-12 -23 -32 -51q-16 -23 -43 -45 q-18 -16 -52 -31q-27 -12 -55 -8q-29 0 -47 12q-16 10 -22.5 34.5t-4.5 47.5q4 27 13 51q-18 0 -27 2q-16 4 -27 4q-25 2 -41 15q-18 12 -28 32q-10 18 -12 41z" />
<glyph unicode="&#xa9;" horiz-adv-x="1492" d="M258 379q0 53 23 115q18 61 59 139q41 80 84 135q41 53 108 125q53 57 123 113q66 57 133 100q53 35 148 78q70 31 147 51q70 18 146 14q71 0 129 -18q59 -18 106 -53q39 -29 78 -82q31 -43 51 -103q43 -104 33 -239q-10 -133 -63 -269q-18 -49 -58 -108 q-35 -55 -78 -101q-53 -57 -96 -90q-49 -37 -108 -73q-111 -66 -230 -101q-113 -33 -227 -32q-119 -4 -215 32.5t-172 102.5q-33 27 -64 71q-27 39 -43 90q-14 46 -14 103zM500 416q2 -29 16 -60q12 -27 32.5 -47t47.5 -37q52 -34 117 -49q70 -16 137 -16q70 0 135 14 q72 16 139 49q68 31 123.5 86.5t79.5 120.5q39 106 51 187q14 86 -2 174q-6 43 -24 75q-23 43 -47 62q-31 25 -68 39q-33 12 -86 12q-49 0 -102.5 -12.5t-102.5 -36.5q-55 -27 -98 -57q-53 -37 -88 -72q-88 -76 -152 -170q-68 -98 -96 -193q-14 -36 -12 -69zM565 434 q-2 51 21 119q14 45 37 80q10 14 57 72q27 31 70 67q49 41 73 59q31 23 80 51.5t84 43.5q59 25 84 30q47 10 84 11q23 0 59 -9q25 -6 48 -24q20 -14 26 -41q8 -29 -4 -57q-12 -33 -24 -48q-18 -20 -39 -38q-18 -16 -47 -27q-27 -10 -52 -10q-16 4 -28.5 8t-28.5 8 q-34 -3 -68 -24q-45 -29 -65 -43l-60 -52q-29 -25 -45 -59q-8 -14 -4 -29q4 -16 11 -20q10 -8 22 -10q8 -2 29 -3q8 2 20.5 2.5t20.5 2.5q18 2 41 12q37 10 77 14q25 0 41 -8q18 -8 29 -27q12 -20 12 -39q0 -23 -8 -45q-14 -39 -53 -71q-33 -27 -80 -41q-51 -16 -94 -25 q-51 -10 -90 -10q-66 0 -115 20q-55 23 -84 64q-35 45 -37 96z" />
<glyph unicode="&#xad;" horiz-adv-x="960" d="M362 655q-6 25 5 50q27 39 61 59q37 23 76 31q40 9 80 12q12 0 36.5 1t36.5 3h45q31 0 46 -2q6 0 22 -1t23 -1h45q33 0 90 -4q61 -4 88 -8q25 -6 39 -15q20 -10 30 -22q14 -16 17 -35q4 -25 -4 -45q-8 -18 -29 -39q-16 -16 -39 -33q-16 -12 -45 -22q-14 -6 -47 -11 q-109 -8 -242 -8q-59 0 -118.5 1t-120.5 1q-47 6 -74 45q-17 23 -21 43z" />
<glyph unicode="&#xae;" horiz-adv-x="1562" d="M283 365q-2 47 8 118q8 55 33 125q29 82 63 142q43 72 92 133q49 59 115 123q59 57 131 108q68 53 139 94q70 41 150 74q76 33 149 47q82 16 146 14q76 0 131 -16q63 -18 110 -51t82 -80q33 -45 56 -102q47 -111 36 -244q-10 -141 -61 -270q-25 -66 -64 -125 q-33 -49 -90 -115q-39 -43 -108 -102q-58 -49 -123 -86q18 -31 0 -70q-8 -18 -25 -35q-20 -20 -32 -27q-23 -10 -41 -16q-20 -6 -37 -6q-23 0 -68 4q-34 3 -55 25q-74 -23 -141.5 -35t-135.5 -12q-63 0 -120 12q-63 14 -111 33q-45 18 -92 55q-41 33 -70 80q-37 51 -49 94 q-15 53 -18 111zM524 420q0 -45 15 -80q16 -39 47 -64q6 12 14 33t10 27q4 10 11.5 30.5t11.5 28.5q27 55 51 123q10 27 29 94l24 93l31 92l33 92q4 12 12 32.5t18 32.5q-92 -66 -167 -159q-78 -96 -109 -191q-15 -46 -25 -92q-6 -31 -6 -92zM774 211q8 -2 25 -2h26h35 q10 0 35 4l-33 63q-20 39 -45 58q-2 -4 -8 -23q-4 -12 -8 -18l-6 -19q-8 -29 -11 -32q-2 -8 -5 -15.5t-5 -15.5zM918 608q39 2 90 17q39 10 88 34q37 18 75 62q29 31 48 80q4 16 -5 20q-10 6 -22 6q-37 0 -53.5 -2t-51.5 -2q-33 -4 -51 -4q-8 0 -25.5 -1t-25.5 -1l-16 -10 v-4q0 -2 -3 -10.5t-3 -12.5q0 -6 -5 -22q-15 -37 -24 -74q-12 -45 -16 -76zM956 1036q59 12 115 13q18 0 55 1t58 1q41 -4 61 -4q33 0 64 -7q20 -4 57 -16q33 -10 51 -27q27 -23 33 -41q12 -33 12 -57q0 -31 -6 -63q-8 -45 -16 -66q-20 -55 -66 -102q-37 -41 -92 -88 q-70 -53 -106 -78q-53 -35 -113 -58q25 -68 31 -82q25 -53 39 -79q41 18 94 53q46 31 86 67q27 25 67 82q23 33 47 93q18 46 31 92q16 61 23 92q8 41 8 90q0 59 -6 86q-6 35 -27 74q-18 35 -49 59.5t-70 36.5q-49 14 -86 12q-72 2 -147 -22q-74 -25 -148 -62z" />
<glyph unicode="&#xb4;" horiz-adv-x="438" d="M633 1497l5 14.5t3 12.5q2 8 10 24q23 43 51 82q20 27 66 76q14 16 33 35q12 12 37 33q12 10 41 22q25 10 43 10q12 0 32 -8q10 -4 23 -20q8 -10 8 -31q0 -23 -4 -35q-2 -10 -14 -26q-4 -4 -13 -27q-10 -18 -53 -78q-33 -45 -65 -76q-47 -43 -76 -57q-45 -23 -88 -23 q-25 3 -37 25q-12 20 -2 47z" />
<glyph unicode="&#x2000;" horiz-adv-x="901" />
<glyph unicode="&#x2001;" horiz-adv-x="1806" />
<glyph unicode="&#x2002;" horiz-adv-x="901" />
<glyph unicode="&#x2003;" horiz-adv-x="1806" />
<glyph unicode="&#x2004;" horiz-adv-x="600" />
<glyph unicode="&#x2005;" horiz-adv-x="450" />
<glyph unicode="&#x2006;" horiz-adv-x="299" />
<glyph unicode="&#x2007;" horiz-adv-x="299" />
<glyph unicode="&#x2008;" horiz-adv-x="223" />
<glyph unicode="&#x2009;" horiz-adv-x="360" />
<glyph unicode="&#x200a;" horiz-adv-x="98" />
<glyph unicode="&#x2010;" horiz-adv-x="960" d="M362 655q-6 25 5 50q27 39 61 59q37 23 76 31q40 9 80 12q12 0 36.5 1t36.5 3h45q31 0 46 -2q6 0 22 -1t23 -1h45q33 0 90 -4q61 -4 88 -8q25 -6 39 -15q20 -10 30 -22q14 -16 17 -35q4 -25 -4 -45q-8 -18 -29 -39q-16 -16 -39 -33q-16 -12 -45 -22q-14 -6 -47 -11 q-109 -8 -242 -8q-59 0 -118.5 1t-120.5 1q-47 6 -74 45q-17 23 -21 43z" />
<glyph unicode="&#x2011;" horiz-adv-x="960" d="M362 655q-6 25 5 50q27 39 61 59q37 23 76 31q40 9 80 12q12 0 36.5 1t36.5 3h45q31 0 46 -2q6 0 22 -1t23 -1h45q33 0 90 -4q61 -4 88 -8q25 -6 39 -15q20 -10 30 -22q14 -16 17 -35q4 -25 -4 -45q-8 -18 -29 -39q-16 -16 -39 -33q-16 -12 -45 -22q-14 -6 -47 -11 q-109 -8 -242 -8q-59 0 -118.5 1t-120.5 1q-47 6 -74 45q-17 23 -21 43z" />
<glyph unicode="&#x2012;" horiz-adv-x="960" d="M362 655q-6 25 5 50q27 39 61 59q37 23 76 31q40 9 80 12q12 0 36.5 1t36.5 3h45q31 0 46 -2q6 0 22 -1t23 -1h45q33 0 90 -4q61 -4 88 -8q25 -6 39 -15q20 -10 30 -22q14 -16 17 -35q4 -25 -4 -45q-8 -18 -29 -39q-16 -16 -39 -33q-16 -12 -45 -22q-14 -6 -47 -11 q-109 -8 -242 -8q-59 0 -118.5 1t-120.5 1q-47 6 -74 45q-17 23 -21 43z" />
<glyph unicode="&#x202f;" horiz-adv-x="360" />
<glyph unicode="&#x205f;" horiz-adv-x="450" />
<glyph unicode="&#x20ac;" horiz-adv-x="1294" d="M246 461q-2 20 8 49q12 33 35 51q23 20 55 33q31 12 62 18q10 2 59 9q4 12 14 32q2 4 13 35h-23h-20q-27 0 -43 10q-18 12 -27 29q-10 20 -10 40.5t10 47.5q20 41 47 59q35 25 66 35q49 16 73.5 20.5t65.5 8.5q59 88 126.5 164t155.5 145q57 45 84 60q41 23 90 43 q43 16 91 26q45 8 88 6q37 0 75 -14q34 -12 62 -31q29 -18 51 -45q25 -29 41 -55q16 -23 31 -61q16 -39 20 -68q4 -25 4 -74q0 -33 -14 -80q-8 -31 -20 -51q-16 -27 -35 -45q-14 -14 -47 -31q-25 -12 -54 -6q-39 -2 -65.5 18.5t-32.5 55.5q-12 31 -12 63q0 23 -8 64 q-2 27 -27 51q-18 20 -53 23q-35 0 -64 -15q-33 -16 -59 -37q-31 -25 -53 -49l-48 -53h11q33 2 75 -4q41 -6 66 -23q27 -18 39 -47q12 -31 -6 -73q-10 -31 -29 -50q-25 -25 -45 -34q-25 -12 -53 -19q-31 -6 -51 -4h-80h-78q-4 -6 -10 -17.5t-8.5 -17.5t-8.5 -17t-8 -18 q6 -2 21 -2h20q47 0 74 -4q43 -6 67 -20q29 -16 41 -45q10 -25 -8 -74q-4 -16 -18 -37q-10 -14 -31 -28q-25 -16 -39 -22.5t-39 -10.5q-35 -8 -80 -8h-80q-4 -20 -4 -33q0 -14 4 -35q2 -12 14.5 -24.5t28.5 -12.5q49 0 125 14q66 12 127 50q23 14 45 30q18 14 50 29 q20 14 47 18q33 4 47 7q31 4 43 -7q18 -14 20 -30q4 -23 -2 -45.5t-18 -44.5q-4 -18 -6 -21q-2 -4 -5.5 -9t-5.5 -9q-18 -27 -49 -58q-25 -25 -59 -49q-27 -18 -68 -41q-55 -31 -65 -35q-90 -41 -135 -55q-76 -25 -134 -26q-76 -2 -141 28q-68 31 -96 88q-35 61 -47 129 q-14 82 -6 150q-14 2 -39 2q-23 0 -35 2q-33 0 -47 10q-18 12 -31 31q-8 12 -12 41z" />
<glyph unicode="&#xe000;" horiz-adv-x="1370" d="M0 1370h1370v-1370h-1370v1370z" />
<glyph unicode="&#xfb01;" horiz-adv-x="1521" d="M1180 98q0 8 2 28.5t4 31.5q8 47 25 112q18 70 34 115l70 193l72 192l73 191l74 190q8 16 15.5 33.5l15.5 34.5q12 29 41 63q4 4 12 16.5t12 16.5q16 20 27 31q16 16 33 24q27 14 37 16q9 1 16 2q33 0 55 -20q25 -20 31 -61q1 -9 1 -19q0 -23 -5 -55q-8 -49 -18.5 -76 l-21.5 -55.5l-21 -54.5l-41 -109l-47 -115l-43 -112q-29 -82 -39 -123q-16 -68 -35 -119l-35 -115q-4 -14 -41 -112q-16 -43 -37 -78q-33 -57 -47 -78q-2 -2 -29 -35q-16 -18 -34 -35q-20 -16 -39 -24q-22 -9 -43 -12q-20 0 -29 4q-12 6 -20.5 14t-14.5 20q-4 8 -8 25 q-3 26 -3 39q0 8 1 16zM211 156q2 35 16.5 75.5t20.5 51t20 51.5l41 98l39 100l49 148q43 129 49 145l54 144l57 141l12 25q2 8 11 24q10 23 30 45l43 37q20 16 47 31q33 16 50 22l100 25q43 10 98 20q43 10 80 17l78 12l72 6q16 1 30 2q23 0 41 -4q33 -6 53.5 -24.5 t32.5 -44.5q10 -16 23 -54q5 -14 4.5 -30t-4.5 -33q-6 -20 -20.5 -30.5t-32.5 -20.5q-18 -8 -39 -13q-25 -4 -35 -4q-35 0 -109 -4q-33 -2 -112 -10q-10 -2 -29.5 -7t-24.5 -5q-27 -6 -51 -19q-33 -16 -49 -29q-25 -18 -43 -43q-25 -37 -41 -71q-20 -41 -31 -72q29 6 54 6 q16 0 53 4t53 4h53q10 0 20.5 -1t20.5 -1q16 0 41 -4q6 0 11.5 -2t12.5 -5t11 -5q16 -6 33 -18q27 -27 26 -64q0 -41 -18 -84q-6 -14 -14 -28.5t-25 -26.5q-16 -14 -31 -21q-12 -6 -32 -10q-45 -4 -68 -4h-65q-20 -2 -64 -2q-20 0 -61 -4q-43 -4 -64 -10q-39 -12 -63 -27 q-35 -74 -60 -143l-51 -146q-27 -86 -72 -174q-8 -18 -26 -39q-14 -18 -33 -33q-16 -14 -39 -20q-15 -4 -24 -4q-7 0 -15 2q-45 6 -63 29q-23 27 -29 57q-3 19 -3 40q0 15 1 32z" />
<glyph unicode="&#xfb02;" horiz-adv-x="1943" d="M1200 160q8 66 17 94q4 29 8 43l12 43q20 63 41 111l49 112l54 117l49 117l33 100q8 27 17 54.5l15 45.5q27 86 31 97l39 98q8 20 28.5 57t41 55.5t55.5 41.5q27 16 63 22q13 2 25 2q20 0 35 -6q18 -8 32 -29q8 -12 13 -47q2 -18 -2 -55q-2 -18 -15 -59q-6 -20 -18 -54 q-31 -80 -74 -168l-78 -170l-77 -170q-53 -125 -70 -170q-8 -20 -27 -88q-4 -16 -11 -50t-7 -38q82 10 158 39l159 66q18 8 37 15t37 15q35 14 72 21q25 6 53 -2q23 -6 39 -23q14 -14 14 -41q0 -31 -14 -55q-23 -41 -64 -78q-33 -29 -81 -61q-41 -27 -91 -49l-90 -43 q-51 -20 -94 -35q-61 -20 -92 -28.5t-92 -16.5q-23 -3 -44 -3t-42 3q-18 2 -45 10q-29 8 -41 14q-16 8 -33 25q-18 18 -23 35q-5 23 -4 46q-1 19 2 40zM211 156q2 35 16.5 75.5t20.5 51t20 51.5l41 98l39 100l49 148q43 129 49 145l54 144l57 141l12 25q2 8 11 24 q10 23 30 45l43 37q20 16 47 31q33 16 50 22l100 25q43 10 98 20q43 10 80 17l78 12l72 6q16 1 30 2q23 0 41 -4q33 -6 53.5 -24.5t32.5 -44.5q10 -16 23 -54q5 -14 4.5 -30t-4.5 -33q-6 -20 -20.5 -30.5t-32.5 -20.5q-18 -8 -39 -13q-25 -4 -35 -4q-35 0 -109 -4 q-33 -2 -112 -10q-10 -2 -29.5 -7t-24.5 -5q-27 -6 -51 -19q-33 -16 -49 -29q-25 -18 -43 -43q-25 -37 -41 -71q-20 -41 -31 -72q29 6 54 6q16 0 53 4t53 4h53q10 0 20.5 -1t20.5 -1q16 0 41 -4q6 0 11.5 -2t12.5 -5t11 -5q16 -6 33 -18q27 -27 26 -64q0 -41 -18 -84 q-6 -14 -14 -28.5t-25 -26.5q-16 -14 -31 -21q-12 -6 -32 -10q-45 -4 -68 -4h-65q-20 -2 -64 -2q-20 0 -61 -4q-43 -4 -64 -10q-39 -12 -63 -27q-35 -74 -60 -143l-51 -146q-27 -86 -72 -174q-8 -18 -26 -39q-14 -18 -33 -33q-16 -14 -39 -20q-15 -4 -24 -4q-7 0 -15 2 q-45 6 -63 29q-23 27 -29 57q-3 19 -3 40q0 15 1 32z" />
<glyph unicode="&#xfb03;" horiz-adv-x="2492" d="M2151 98q0 8 2 28.5t4 31.5q8 47 25 112q18 70 34 115l70 193l72 192l73 191l74 190q8 16 15.5 33.5l15.5 34.5q12 29 41 63q4 4 12 16.5t12 16.5q16 20 27 31q16 16 33 24q27 14 37 16q9 1 16 2q33 0 55 -20q25 -20 31 -61q1 -9 1 -19q0 -23 -5 -55q-8 -49 -18.5 -76 l-21.5 -55.5l-21 -54.5l-41 -109l-47 -115l-43 -112q-29 -82 -39 -123q-16 -68 -35 -119l-35 -115q-4 -14 -41 -112q-16 -43 -37 -78q-33 -57 -47 -78q-2 -2 -29 -35q-16 -18 -34 -35q-20 -16 -39 -24q-22 -9 -43 -12q-20 0 -29 4q-12 6 -20.5 14t-14.5 20q-4 8 -8 25 q-3 26 -3 39q0 8 1 16zM1182 156q2 35 16.5 75.5t20.5 51t20 51.5l41 98l39 100l49 148q43 129 49 145l54 144l57 141l12 25q2 8 11 24q10 23 30 45l43 37q20 16 47 31q33 16 50 22l100 25q43 10 98 20q43 10 80 17l78 12l72 6q16 1 30 2q23 0 41 -4q33 -6 53.5 -24.5 t32.5 -44.5q10 -16 23 -54q5 -14 4.5 -30t-4.5 -33q-6 -20 -20.5 -30.5t-32.5 -20.5q-18 -8 -39 -13q-25 -4 -35 -4q-35 0 -109 -4q-33 -2 -112 -10q-10 -2 -29.5 -7t-24.5 -5q-27 -6 -51 -19q-33 -16 -49 -29q-25 -18 -43 -43q-25 -37 -41 -71q-20 -41 -31 -72q29 6 54 6 q16 0 53 4t53 4h53q10 0 20.5 -1t20.5 -1q16 0 41 -4q6 0 11.5 -2t12.5 -5t11 -5q16 -6 33 -18q27 -27 26 -64q0 -41 -18 -84q-6 -14 -14 -28.5t-25 -26.5q-16 -14 -31 -21q-12 -6 -32 -10q-45 -4 -68 -4h-65q-20 -2 -64 -2q-20 0 -61 -4q-43 -4 -64 -10q-39 -12 -63 -27 q-35 -74 -60 -143l-51 -146q-27 -86 -72 -174q-8 -18 -26 -39q-14 -18 -33 -33q-16 -14 -39 -20q-15 -4 -24 -4q-7 0 -15 2q-45 6 -63 29q-23 27 -29 57q-3 19 -3 40q0 15 1 32zM211 156q2 35 16.5 75.5t20.5 51t20 51.5l41 98l39 100l49 148q43 129 49 145l54 144l57 141 l12 25q2 8 11 24q10 23 30 45l43 37q20 16 47 31q33 16 50 22l100 25q43 10 98 20q43 10 80 17l78 12l72 6q16 1 30 2q23 0 41 -4q33 -6 53.5 -24.5t32.5 -44.5q10 -16 23 -54q5 -14 4.5 -30t-4.5 -33q-6 -20 -20.5 -30.5t-32.5 -20.5q-18 -8 -39 -13q-25 -4 -35 -4 q-35 0 -109 -4q-33 -2 -112 -10q-10 -2 -29.5 -7t-24.5 -5q-27 -6 -51 -19q-33 -16 -49 -29q-25 -18 -43 -43q-25 -37 -41 -71q-20 -41 -31 -72q29 6 54 6q16 0 53 4t53 4h53q10 0 20.5 -1t20.5 -1q16 0 41 -4q6 0 11.5 -2t12.5 -5t11 -5q16 -6 33 -18q27 -27 26 -64 q0 -41 -18 -84q-6 -14 -14 -28.5t-25 -26.5q-16 -14 -31 -21q-12 -6 -32 -10q-45 -4 -68 -4h-65q-20 -2 -64 -2q-20 0 -61 -4q-43 -4 -64 -10q-39 -12 -63 -27q-35 -74 -60 -143l-51 -146q-27 -86 -72 -174q-8 -18 -26 -39q-14 -18 -33 -33q-16 -14 -39 -20q-15 -4 -24 -4 q-7 0 -15 2q-45 6 -63 29q-23 27 -29 57q-3 19 -3 40q0 15 1 32z" />
<glyph unicode="&#xfb04;" horiz-adv-x="2914" d="M2171 160q8 66 17 94q4 29 8 43l12 43q20 63 41 111l49 112l54 117l49 117l33 100q8 27 17 54.5l15 45.5q27 86 31 97l39 98q8 20 28.5 57t41 55.5t55.5 41.5q27 16 63 22q13 2 25 2q20 0 35 -6q18 -8 32 -29q8 -12 13 -47q2 -18 -2 -55q-2 -18 -15 -59q-6 -20 -18 -54 q-31 -80 -74 -168l-78 -170l-77 -170q-53 -125 -70 -170q-8 -20 -27 -88q-4 -16 -11 -50t-7 -38q82 10 158 39l159 66q18 8 37 15t37 15q35 14 72 21q25 6 53 -2q23 -6 39 -23q14 -14 14 -41q0 -31 -14 -55q-23 -41 -64 -78q-33 -29 -81 -61q-41 -27 -91 -49l-90 -43 q-51 -20 -94 -35q-61 -20 -92 -28.5t-92 -16.5q-23 -3 -44 -3t-42 3q-18 2 -45 10q-29 8 -41 14q-16 8 -33 25q-18 18 -23 35q-5 23 -4 46q-1 19 2 40zM1182 156q2 35 16.5 75.5t20.5 51t20 51.5l41 98l39 100l49 148q43 129 49 145l54 144l57 141l12 25q2 8 11 24 q10 23 30 45l43 37q20 16 47 31q33 16 50 22l100 25q43 10 98 20q43 10 80 17l78 12l72 6q16 1 30 2q23 0 41 -4q33 -6 53.5 -24.5t32.5 -44.5q10 -16 23 -54q5 -14 4.5 -30t-4.5 -33q-6 -20 -20.5 -30.5t-32.5 -20.5q-18 -8 -39 -13q-25 -4 -35 -4q-35 0 -109 -4 q-33 -2 -112 -10q-10 -2 -29.5 -7t-24.5 -5q-27 -6 -51 -19q-33 -16 -49 -29q-25 -18 -43 -43q-25 -37 -41 -71q-20 -41 -31 -72q29 6 54 6q16 0 53 4t53 4h53q10 0 20.5 -1t20.5 -1q16 0 41 -4q6 0 11.5 -2t12.5 -5t11 -5q16 -6 33 -18q27 -27 26 -64q0 -41 -18 -84 q-6 -14 -14 -28.5t-25 -26.5q-16 -14 -31 -21q-12 -6 -32 -10q-45 -4 -68 -4h-65q-20 -2 -64 -2q-20 0 -61 -4q-43 -4 -64 -10q-39 -12 -63 -27q-35 -74 -60 -143l-51 -146q-27 -86 -72 -174q-8 -18 -26 -39q-14 -18 -33 -33q-16 -14 -39 -20q-15 -4 -24 -4q-7 0 -15 2 q-45 6 -63 29q-23 27 -29 57q-3 19 -3 40q0 15 1 32zM211 156q2 35 16.5 75.5t20.5 51t20 51.5l41 98l39 100l49 148q43 129 49 145l54 144l57 141l12 25q2 8 11 24q10 23 30 45l43 37q20 16 47 31q33 16 50 22l100 25q43 10 98 20q43 10 80 17l78 12l72 6q16 1 30 2 q23 0 41 -4q33 -6 53.5 -24.5t32.5 -44.5q10 -16 23 -54q5 -14 4.5 -30t-4.5 -33q-6 -20 -20.5 -30.5t-32.5 -20.5q-18 -8 -39 -13q-25 -4 -35 -4q-35 0 -109 -4q-33 -2 -112 -10q-10 -2 -29.5 -7t-24.5 -5q-27 -6 -51 -19q-33 -16 -49 -29q-25 -18 -43 -43q-25 -37 -41 -71 q-20 -41 -31 -72q29 6 54 6q16 0 53 4t53 4h53q10 0 20.5 -1t20.5 -1q16 0 41 -4q6 0 11.5 -2t12.5 -5t11 -5q16 -6 33 -18q27 -27 26 -64q0 -41 -18 -84q-6 -14 -14 -28.5t-25 -26.5q-16 -14 -31 -21q-12 -6 -32 -10q-45 -4 -68 -4h-65q-20 -2 -64 -2q-20 0 -61 -4 q-43 -4 -64 -10q-39 -12 -63 -27q-35 -74 -60 -143l-51 -146q-27 -86 -72 -174q-8 -18 -26 -39q-14 -18 -33 -33q-16 -14 -39 -20q-15 -4 -24 -4q-7 0 -15 2q-45 6 -63 29q-23 27 -29 57q-3 19 -3 40q0 15 1 32z" />
</font>
</defs>
</svg>
