<?xml version="1.0" standalone="no"?>
<!DOCTYPE svg PUBLIC "-//W3C//DTD SVG 1.1//EN" "http://www.w3.org/Graphics/SVG/1.1/DTD/svg11.dtd" >
<svg xmlns="http://www.w3.org/2000/svg">
<metadata>
This is a custom SVG webfont generated by Font Squirrel.
Copyright   : Copyright c Iconian FontsShyFonts Type Foundry 2000
</metadata>
<defs>
<font id="webfont6y99ZSek" horiz-adv-x="1585" >
<font-face units-per-em="2048" ascent="1638" descent="-410" />
<missing-glyph horiz-adv-x="1329" />
<glyph unicode=" "  horiz-adv-x="1329" />
<glyph unicode="&#x09;" horiz-adv-x="1329" />
<glyph unicode="&#xa0;" horiz-adv-x="1329" />
<glyph unicode="!" horiz-adv-x="708" d="M119 174q0 27 22 43q25 18 62 30.5t82 18.5q41 6 88 2q59 2 110 -10q39 -10 78 -37q27 -18 41 -51q12 -27 2 -55q-4 -23 -26 -41q-31 -23 -60 -33q-49 -16 -78 -21q-57 -8 -88 -6q-49 6 -96 23q-43 15 -74 37q-25 16 -47 47q-16 22 -16 53zM309 563q8 55 25 121l14 55.5 t19 67.5l20 67q14 49 16 66q2 10 2.5 32.5t2.5 35.5q4 45 4 65q4 29 16 86q8 37 43 82q16 27 43 47q31 23 61 35q45 16 74 18q35 2 82 -4q51 -16 72 -34q25 -23 37 -46q12 -25 12 -53q0 -35 2 -51q-8 -66 -16 -100q-10 -39 -33 -101q-18 -49 -43 -98q-33 -74 -47 -100 q-35 -53 -51 -92q-18 -41 -54 -95q-31 -45 -75 -88q-47 -43 -119 -73q-49 6 -70 24q-18 14 -29 41q-8 18 -8 47v45z" />
<glyph unicode="&#x22;" horiz-adv-x="1200" d="M324 1104l12 65t24.5 68t49.5 61q29 27 88 50q8 0 12 2q8 4 14 4l35 4q41 -2 68 -17q23 -10 37 -32q12 -18 18 -41q2 -6 4 -19.5t4 -19.5q4 -66 2 -96q0 -14 -3 -47t-5 -50q-6 -25 -6 -53q0 -18 -12 -55q-8 -25 -35 -51q-23 -23 -74 -39l-33 -2h-24q-72 14 -111 47 q-33 27 -49 67q-14 35 -14 78q0 53 -2 76zM922 944q0 8 1 20.5t1 18.5q0 27 -2 37l4 39q6 22 6 43q4 45 4 67q0 37 8 68q4 12 8 29q2 10 15 30q10 16 24 27q18 12 47 18q20 4 31 5h33q41 -6 67 -23q33 -20 43 -33q14 -16 25 -41q6 -14 18 -39q8 -41 9 -90l-7 -92 q-6 -16 -14 -53q-6 -25 -22 -55q-14 -25 -45 -50q-27 -20 -78 -36q-31 -8 -58 -11q-45 6 -63 17q-23 12 -37 28q-10 12 -14 37t-4 39z" />
<glyph unicode="#" horiz-adv-x="1736" d="M205 711q6 20 24 32q20 14 47 23q20 6 66 14l74 6q25 2 73 2q12 0 34 1.5t32 1.5l6 81q2 23 14 82q-49 3 -98 0q-47 -2 -96 0q-41 4 -57 11q-29 10 -43 20q-23 14 -29 27q-6 16 -6 32q25 29 63 39q55 16 92 21q33 4 103 8q52 3 98 6q2 20 16 47q16 33 35 49q31 27 60 39 q37 15 92 19q14 0 43 -4q22 -3 37 -13q20 -12 26 -18q10 -10 11 -23q0 -2 -7 -47l-6 -47q115 -4 170 -4q53 0 168 -4q2 6 4 22.5t4 22.5q4 25 15 43q16 33 41 51q27 20 69 17q39 0 64 -8q12 -4 25.5 -9.5t27.5 -9.5l27 -10l22 -17l17 -14l2 -12q2 -14 2 -41q0 -8 3 -23.5 t3 -17.5q14 0 29.5 -1t34 -3t30.5 -2q35 -2 92 -15q45 -10 74 -26q29 -18 35 -43q0 -6 -13 -23q-6 -8 -26 -20q-6 -4 -37 -12q-23 -6 -45 -7h-90q-14 0 -43 1t-45 1q0 -2 -6 -82q-2 -16 -6.5 -43.5t-6.5 -35.5q49 -4 84 -4q31 0 88 -5q39 -2 76 -16q33 -12 45 -33 q-2 -18 -20 -32l-39 -31q-20 -14 -49 -23q-31 -10 -64 -12h-74q-12 0 -36.5 -1t-36.5 -1l-13 -53q-8 -37 -14 -54q-2 -8 -16 -22q-10 -10 -31 -21q-12 -6 -41 -14q-14 -4 -47 -4q-59 0 -90 18q-33 18 -43 41q-12 25 -12 54q0 8 6 51q-90 -4 -176 0t-177 0v-45q0 -18 -4 -47 q-2 -16 -24 -29q-25 -14 -47 -23q-20 -6 -58 -14q-31 -6 -61 -6q-49 10 -76 29q-25 18 -37 43q-10 23 -14 49q-2 27 -4 49q-143 4 -215 8q-27 0 -47 6q-18 6 -37 15q-25 12 -29 18q-9 13 -12 25zM881 788q61 2 178 2.5t178 2.5q0 29 4 81q4 55 2 82h-346z" />
<glyph unicode="$" horiz-adv-x="1538" d="M100 555l9 14q35 16 41 19q20 4 30 4q29 -4 43 -4l43 -6q68 -10 138.5 -22.5l144.5 -24.5q111 -18 295 -27q45 0 71 2q35 2 70 12q37 10 55 21q23 12 23 35q3 28 -19 49q-27 27 -53 41q-34 18 -80 30q-68 18 -90 23q-8 2 -94 12t-129 18.5t-129 18.5t-94 12l-80 19 q-40 9 -74 24q-31 14 -51 35q-18 18 -12 43q10 29 39 45q27 16 73 33q29 10 90 27l50.5 11t38.5 9q129 29 202 37q139 16 209 22l29 101l29 102q4 10 11 21.5t13 23.5q10 20 35 45q18 18 55 35q29 12 86 17q55 0 84 -5q33 -4 76 -20q29 -10 49.5 -30.5t13.5 -43.5 q-6 -31 -18 -57q-14 -31 -29 -53q-16 -39 -28 -60q-14 -27 -15 -57q2 -2 11 -6q2 -2 6 -4t6 -4l33 -2h12q63 -6 119 -21q58 -15 110 -31q49 -14 64 -20q41 -16 57 -25q25 -12 43 -30q16 -16 17 -37q-3 -12 -19 -19q-20 -8 -34.5 -10t-41.5 -2h-41q-66 4 -96 4q-47 0 -94 6 q-35 4 -96 8q-33 2 -97 2h-49q-18 0 -51 -4q-23 -2 -41 -12q-16 -8 -18 -22q8 -20 20 -29q31 -20 41 -25q33 -12 51 -18q14 -4 27.5 -9t23.5 -10l152 -43q23 -6 154 -45q47 -20 57 -26q37 -20 51 -31q25 -18 35 -33q12 -16 8 -41q-4 -27 -24 -47q-25 -25 -51.5 -41 t-71.5 -37q-31 -14 -78 -28q-111 -35 -180 -52q-88 -20 -197 -26l4 -12l-4 -54q-2 -18 -2 -53q4 -16 4 -51q0 -20 -4 -53q-2 -10 -5 -28.5t-5 -29.5q-6 -31 -35 -55q-18 -15 -43 -25q-20 -8 -53 -14l-62 -6q-20 -2 -61 -2q-8 0 -23.5 1t-28 2t-22.5 3q-33 6 -57 23 q-2 20 0 41l12 73q6 37 21 72q16 49 20 76l16 78v2q-2 2 -2 4q-86 2 -184 16q-68 10 -170 37q-80 22 -147 55q-59 31 -111 74q-2 2 -8 9t-10 13q-11 15 -9 23z" />
<glyph unicode="%" horiz-adv-x="2234" d="M254 995q0 35 2 52q12 53 41 98q31 51 88 92q41 31 64 43q31 14 79 33q31 10 93 22q49 8 102 13q53 2 111 0q76 -4 110 -11q57 -10 100 -24q51 -16 76 -37q33 -27 49.5 -51.5t26.5 -55.5q12 -37 12 -57t-4 -57q6 -53 -26 -111q-31 -53 -103 -102q-70 -47 -168 -72 q-102 -25 -225 -18q-70 0 -104 4q-39 4 -99 20q-39 10 -84 33q-29 14 -59 41q-33 23 -49 45q-12 16 -25 49q-8 22 -8 51zM289 49q12 34 43 62q18 16 33.5 31.5l27.5 27.5q68 59 178 147l181 146l278 237l287 236l291 235l286 238q25 14 27 16q12 10 27 21q4 4 15 9t15 7 q14 8 39 13q29 0 78 -9q31 -6 66 -20q27 -12 47 -33q16 -16 16 -39q-59 -82 -153 -170q-106 -100 -189 -164l-207 -157l-202 -158l-386 -303l-376 -305q-12 -12 -37 -33q-31 -25 -35 -31q-18 -14 -31 -35q-10 -16 -33 -34q-14 -16 -43 -29q-25 -10 -65 -10q-51 4 -74 10 q-33 8 -57.5 24.5t-34.5 30.5q-12 19 -12 39zM545 997q2 -20 18 -39q12 -14 43 -28q31 -12 72 -10q57 -2 100 12q41 14 70 37q27 20 39 47q12 29 12 51q4 16 4 47q0 25 -12 47q-23 23 -64 31q-43 9 -92 6q-55 -2 -92 -22.5t-55.5 -41t-28.5 -51.5q-6 -16 -10 -49 q-6 -21 -4 -37zM1346 303q2 18 10 59q6 27 22 58q20 37 37 55q23 25 62 51q45 27 88 41q61 18 108 27q98 16 117 16q82 4 121 4q66 0 98 -4q61 -8 92 -16q41 -12 76 -31q41 -23 57 -39q16 -14 37 -43q14 -18 21 -47q8 -33 8 -49q0 -14 -4 -47q-8 -49 -47 -105 q-35 -51 -105 -96q-35 -25 -69 -43q-40 -22 -86 -37t-99 -24q-35 -6 -106 -10q-121 -12 -211 12t-146 67q-57 45 -77 96.5t-4 104.5zM1655 274.5q6 -26.5 26 -47.5q23 -23 58 -34q37 -12 94 -7q43 0 74 13q35 14 49 28q20 20 29 39q10 23 12 37q4 29 4 49q0 23 -14 51 q-10 23 -45 39q-33 16 -89 17q-33 0 -49 -2q-33 -4 -47 -8q-33 -10 -39 -13q-20 -10 -30 -20q-16 -16 -25 -45q-4 -14 -8 -47q-6 -23 0 -49.5z" />
<glyph unicode="&#x26;" horiz-adv-x="1896" d="M223 492q-2 45 33 90q31 39 92 77q51 33 137 64q66 25 162 45q-131 55 -211 129l-35 35q-18 18 -30.5 36.5t-18.5 37t0 41.5q2 29 27 63q23 31 59 59q41 31 86 54q53 27 103 43q111 45 231 65q135 23 260 23q51 0 166 -4q59 -2 166 -15q72 -8 154 -28q63 -16 131 -52 l18 -18q10 -10 12 -20q-16 -45 -59 -70q-14 -10 -47 -31q-25 -14 -66 -18q-31 4 -84 8q-82 6 -84 6l-98 11t-94 10q-113 10 -199 8q-49 -4 -71 -6q-25 -2 -66 -15q-31 -10 -55 -22q-27 -12 -29 -31q-8 -37 18 -82q25 -41 93 -63q86 -25 155 -33q41 -4 81 -10.5t81 -12.5 q43 -4 88 -7t90 -7q63 -6 176 -14q6 16 22.5 32.5t41.5 28.5q31 16 55 21q43 8 70 6q47 0 88 -13q47 -14 65 -28q23 -16 35.5 -39t5.5 -45q-6 -55 -22 -125q-23 -94 -33 -125q-29 -96 -39 -125l-43 -125q-10 -18 -31 -59q-12 -27 -38 -60q-18 -23 -58 -55q-29 -23 -80 -47 q-45 -18 -104 -33q-55 -12 -115 -18q-78 -8 -119 -11q-20 0 -60 -1t-60 -3q-82 -2 -191 9q-61 6 -176 30q-76 16 -162 47q-90 33 -141 60q-74 41 -115 71q-61 47 -92 80q-37 39 -59 88q-21 42 -17 93zM631 477q-4 -31 14 -53q20 -27 49 -47q37 -27 72 -41q37 -16 88 -33 q94 -29 201 -43q88 -12 223 -12q33 0 86 4q20 2 40.5 3t41.5 3q33 119 47 176l45 176q-45 4 -65 6q-10 2 -32 3.5t-32 1.5l-66 6q-23 2 -65 2q-70 0 -201 -8q-84 -6 -194 -23q-29 -4 -86 -16q-47 -10 -82 -25q-29 -12 -60 -35q-24 -18 -24 -45z" />
<glyph unicode="'" horiz-adv-x="600" d="M299 1024q-6 43 0 86q2 10 5 31.5t5 32.5q6 35 21 65q16 37 43 64q31 31 84 51q8 2 19 4t13 2q10 2 33 2q43 -4 66 -14q29 -14 43 -29q18 -18 26 -35l19 -35q10 -29 20 -75q10 -43 4 -80q-8 -45 -12 -70q-6 -43 -20 -72q-16 -35 -50 -65q-33 -29 -94 -51q-10 -2 -30.5 -2 t-30.5 -3q-41 4 -60 11q-16 6 -38 24q-18 14 -27 29l-19 31q-12 47 -20 98z" />
<glyph unicode="(" horiz-adv-x="1421" d="M176 598q10 111 57 215q51 111 132 209q51 55 100 98q66 57 119 97q76 53 141 88q80 41 168 73q78 29 164 47q84 18 184 15q45 -2 86 -17q37 -12 61.5 -30.5t36.5 -40.5q14 -23 11 -45q-6 -6 -23 -15q-14 -8 -29 -10q-16 -4 -34 -8l-33 -8q-199 -45 -324 -115 q-131 -74 -217 -162q-82 -84 -127 -188q-41 -92 -47 -193q-3 -40 0 -80q4 -47 14 -82q12 -39 33 -77q16 -31 60 -74q78 -66 198 -119q127 -55 254 -90q113 -23 121 -25q45 -10 121 -22q20 -8 29 -14q12 -9 6 -19q0 -18 -21 -39q-14 -14 -51 -33q-27 -12 -68 -22 q-53 -12 -77 -14q-47 -6 -101 -2q-66 4 -96 8q-61 8 -92 16l-86 25q-172 51 -297 123q-119 70 -207 163q-84 80 -131 179q-41 88 -35 188z" />
<glyph unicode=")" horiz-adv-x="1419" d="M295 1348q6 20 31 38q18 14 59 29q43 16 76 21q6 0 35.5 5t46.5 7q55 4 168 0q72 -2 157 -16q65 -18 123.5 -37t110.5 -43q125 -59 213 -129t147 -152q57 -80 82 -164q25 -88 17 -170q-6 -68 -33 -129q-29 -66 -70 -125q-51 -74 -94 -121q-49 -55 -117 -118l-125 -109 q-59 -51 -155 -106q-78 -45 -195 -78q-108 -31 -246 -25q-45 4 -82 13q-35 8 -69 22q-31 14 -53 35q-20 18 -25 41q-2 12 8 20q4 4 31 13q20 8 43 10q29 4 41 6q102 16 182 45q90 33 152 70q70 41 120 84q55 45 97 90q89 98 135 203q47 104 55 210q12 82 -39 164 q-49 82 -143 148q-96 68 -229 117q-143 53 -293 75q-6 0 -22.5 3t-24.5 5q-25 2 -50 11q-29 8 -41 14q-18 9 -24 23z" />
<glyph unicode="*" horiz-adv-x="1312" d="M180 731q8 18 21 29q25 18 37 24l45 19l49 18q57 20 117 39q100 31 118 37l-102 39q-70 25 -103 39l-43 18q-35 14 -43 21q-6 4 -28 26q-14 14 -15 27q6 14 23 31q6 6 39 24q20 12 51 19q20 4 57 8h19q4 0 8 -1t8 -1l43 -10l111 -56l106 -55q2 14 2 47v47q2 18 11 49 q6 23 26.5 47.5t53.5 38.5q41 18 92 19q27 0 51 -6q33 -8 45 -15q25 -12 31 -18q14 -14 14 -25q-6 -20 -20 -84q-12 -53 -21 -82q27 12 84 33l84 33q27 10 84 27q31 8 90 12q37 -4 57 -8q8 -2 48 -19q23 -10 34 -24q12 -15 13 -31q2 -10 -9 -29q-6 -12 -38 -22 q-98 -25 -207 -62l-205 -65q90 -29 176 -60q68 -25 178 -57q29 -14 35 -24q10 -16 2 -33q0 -10 -12 -31q-10 -16 -29 -29q-29 -18 -43 -24q-27 -10 -59 -10q-16 0 -45 4q-14 2 -39 10l-37 12l-17.5 6l-17.5 6q-31 16 -76 31q-40 12 -73 31q2 -6 8 -29q2 -8 2 -26 q0 -6 1 -12.5t1 -14.5q0 -4 6 -29q-6 -16 -29 -32q-16 -12 -53 -23q-41 -12 -66 -16q-49 -8 -71 -9q-31 0 -51 11q-18 10 -29 22q-12 16 -16 27l-9 28q-6 27 -2 60q0 14 2 29.5l4 31.5l-100 -39l-98 -36l-37 -7q-12 -2 -39 -2q-43 4 -66 9q-31 6 -61 16q-39 12 -49 20 q-23 19 -29 31z" />
<glyph unicode="+" horiz-adv-x="1255" d="M119 705q2 16 24 28q20 12 52 19q51 12 61 12q34 3 61 6q33 4 91 8q29 2 79 2q12 0 36 1t34 1h68q2 25 10 74q6 41 20 74q4 16 23 33q23 23 39 30q25 12 55 19q41 8 72 8q29 0 53 -6q29 -6 43 -15q16 -8 31 -22q12 -10 14 -27q-4 -45 0 -88q4 -49 -2 -88q49 -2 149.5 -2 t149.5 -6q23 -2 68 -10q35 -6 59 -19q33 -16 41 -24q12 -12 12 -35q-4 -18 -14 -29q-14 -14 -33 -22q-27 -12 -49 -17q-37 -8 -53 -8q-31 0 -88.5 -1t-84 -1t-84 -1t-87.5 -1l-8 -78l-7 -37q-4 -25 -4 -39q-6 -18 -26 -32q-27 -18 -54 -27q-20 -8 -65 -16q-23 -4 -76 -9 q-49 10 -72 23q-28 15 -43 36.5t-18 43.5q-4 29 -4 47q0 16 4 45v43q-29 2 -80 2q-14 0 -39.5 -1t-38.5 -1q-27 2 -76 2h-73q-10 0 -35 4q-29 4 -31 6l-28 11l-25 12v2q-29 20 -37 33q-12 17 -14 37z" />
<glyph unicode="," horiz-adv-x="600" d="M109 -74q0 25 16 54q16 31 37 53q14 16 51 49l55 49q27 20 56 45q31 25 65 45q29 16 80 35q43 15 98 18q39 -4 56 -10q25 -10 39 -20q14 -12 20 -27q6 -16 4 -29q2 -14 0 -28q0 -27 -16 -56q-14 -27 -39 -51q-23 -23 -58 -47l-63 -45l-18.5 -11l-15.5 -9t-19 -13 q-31 -20 -60 -34q-16 -8 -65 -25q-41 -14 -78 -16q-10 2 -28.5 2t-28.5 2q-25 4 -43 10q-16 6 -26.5 16.5t-12.5 20.5q0 2 -3 10t-3 12z" />
<glyph unicode="-" d="M289 686q-4 10 2 21q33 29 82 41q68 16 112 20q82 8 123 8q45 0 119 4q31 -2 90 -2q14 0 45 -1t45 -1q61 0 92 -2t93 -2q12 0 35.5 1t35.5 1q25 0 74 -4h76q25 0 82 -4q49 -4 80 -8q35 -6 71 -17q31 -10 56 -26q23 -16 28 -37q-6 -16 -24 -29q-23 -14 -43 -22 q-16 -6 -58 -15q-31 -6 -59 -6q-243 -6 -479 -6q-319 0 -482 2q-45 0 -73 10q-59 23 -62 23q-10 4 -26 16q-2 2 -10.5 7.5t-12.5 9.5q-9 9 -12 18z" />
<glyph unicode="." horiz-adv-x="677" d="M201 162q6 27 30 47q29 25 62 39q37 16 82 24q51 10 96 11q43 2 94 -9q47 -10 76 -24q31 -15 49 -37q16 -18 17 -47q-6 -63 -76 -109q-29 -16 -88 -39q-51 -18 -111 -16q-66 0 -108 14q-45 14 -76 37q-25 18 -41 53q-12 28 -6 56z" />
<glyph unicode="/" horiz-adv-x="1320" d="M82 74q4 29 14 53q16 37 29 53l16.5 24.5t20.5 28.5l45 50q43 51 104 112q29 29 109 115l127 139q72 76 125 139l209 205q117 109 227 201q40 31 74 61l73 64q25 16 41 24q20 10 52 21q35 12 61 14q33 4 64 -2q4 -2 14 -3t14 -1l31 -6q12 -2 24 -10q10 -6 13 -15 q-2 -33 -25 -63q-14 -20 -47 -61l-55 -66l-60 -66q-190 -227 -417 -456l-465 -449q-23 -14 -64 -51q-33 -29 -71 -53q-45 -27 -86 -43q-49 -18 -113 -19q-35 2 -62 23q-24 19 -22 37z" />
<glyph unicode="0" horiz-adv-x="1835" d="M240 659q6 111 55 215q51 106 139 205q35 37 103 95q43 37 135 86q76 41 168 65q96 27 207 29q182 0 315 -33q137 -33 237 -88q101 -55 166 -129q63 -74 101 -152q39 -84 47 -159q10 -84 -2 -154q-12 -109 -64 -207q-55 -109 -153 -194q-49 -43 -123 -88 q-57 -35 -160 -72q-84 -31 -188 -49q-96 -18 -207 -15q-117 0 -205 21q-94 23 -170 55q-61 27 -137 80q-57 41 -103 88q-92 94 -131 195q-40 102 -30 206zM639 612q0 -10 1 -34.5t1 -38.5q0 -33 10 -78q10 -41 31 -78q22 -37 61 -68q41 -31 99 -51q55 -18 147 -22 q66 -2 133 10q55 10 115 35q45 18 92 51q35 25 64 59q57 63 86 133q31 74 32 138q6 74 0 147q-6 68 -43 146q-23 43 -49 73q-25 29 -78 60q-46 28 -104 43q-59 16 -133 12q-82 -4 -139 -25q-51 -18 -97 -57q-47 -41 -69 -70q-18 -25 -47 -69q-47 -76 -78 -158 q-29 -80 -35 -158z" />
<glyph unicode="1" horiz-adv-x="749" d="M231 1202q4 23 17 49q8 16 39 43q18 16 63 35q37 14 88 19q74 -6 135 -25q53 -16 108.5 -47t84.5 -59q31 -31 51 -68q10 -37 14 -78q3 -40 0 -80q-12 -106 -20 -168q-16 -111 -29 -166l-18 -84q-6 -20 -10 -42.5t-9 -43.5q0 -4 -8 -35.5t-10 -48.5q-8 -59 -10 -84l-6 -43 q-4 -23 0 -45q0 -12 -4 -41q-2 -6 -2 -20t-3 -20q-4 -25 -8 -39q-6 -18 -20 -37q-12 -14 -41 -33q-23 -14 -68 -21q-61 -6 -112 7q-47 10 -88 36q-20 25 -27 43q-4 12 -8 46q-2 14 -2 45q0 8 2 22t2 23q6 82 20 151l31 152q39 150 57 309q0 41 2 59q4 29 0 58q-4 33 -14 57 q-12 29 -37 53q-45 23 -55 27q-35 14 -55 27q-29 16 -39 30q-17 19 -11 37z" />
<glyph unicode="2" horiz-adv-x="1910" d="M272 1026q-2 14 7 43q12 45 55 78q45 37 102 61q61 28 135 49q80 23 146 37q160 35 321 47q156 12 332 9q47 0 98 -11q45 -8 82 -24q35 -14 64 -37q28 -22 49 -43q39 -45 66 -98q25 -47 14 -101q2 -31 -14 -71q-14 -35 -43 -70q-18 -23 -62 -66l-70 -63l-184 -141 l-186 -142q-14 -12 -36 -28.5l-44 -34.5q-35 -29 -70 -68q-35 -37 -53 -67q-20 -33 -31 -72q6 0 213 18q139 12 211 23l104.5 12t96.5 10q98 9 203 13h32q25 0 35 -2q27 -8 47 -21l37 -24q12 -8 29 -25q12 -12 10 -29q-57 -33 -123 -49q-90 -25 -147 -33q-143 -23 -158 -24 q-106 -12 -156 -21q-10 0 -360 -30q-180 -14 -365 -6q-45 0 -92 14q-37 12 -61 33q-25 23 -37 45t-8 49q2 35 22 74q18 37 47 71q31 39 66 70q49 45 76 65l207 164l206 162l82 72q27 25 72 74q41 43 57 75q20 39 27 78q6 20 -4 41q-8 16 -35 35q-18 12 -57 22q-31 8 -80 5 q-117 0 -213 -21q-176 -37 -199 -43q-29 -10 -43 -20q-12 -8 -33 -25q-8 -8 -24 -27q-16 -20 -25 -28q-8 -14 -26 -27q-23 -14 -43 -22q-16 -6 -54 -15q-18 -4 -61 -4q-55 -2 -86 8q-35 12 -49 33q-17 23 -19 43z" />
<glyph unicode="3" horiz-adv-x="1855" d="M246 1057q9 18 24 30q31 29 78 54q55 29 98 47q35 14 109 39l113 37q90 27 241 59q115 25 260 29q102 0 187 -21q82 -20 155 -53q45 -20 64 -33q31 -20 49 -38.5t33 -43.5q10 -18 10 -47q-3 -34 -25 -67q-25 -39 -51 -66q-35 -35 -69 -61l-78 -58q131 4 231 -20 q104 -25 178 -70t103 -100q31 -59 10 -119q-6 -59 -39 -109q-37 -57 -88 -102q-53 -47 -127 -90q-70 -41 -158 -80q-82 -39 -174 -68q-86 -29 -196 -51q-117 -25 -211 -32q-109 -10 -217 -7q-55 2 -109 21q-33 10 -84 41q-35 29 -53 51q-23 29 -23 59q-4 6 4.5 14.5 t14.5 12.5t22.5 8t26.5 6q6 0 18.5 1t18.5 1h37l123 5q80 4 120 10q131 16 236 39q121 27 213 63q41 16 92 41q41 20 78 47q25 16 53 56q18 25 23 59q6 20 2 35q-6 16 -25 32q-20 16 -47 24.5t-70 8.5q-199 0 -331 -12q-168 -16 -318 -55q-27 -10 -84 -23q-35 -8 -84 -22 q-39 2 -75 16q-29 10 -62 29q-27 16 -45 34q-18 20 -22 41q2 16 22 37q10 10 47 31q27 14 60 27q10 4 19 7t13 5t12.5 5l20.5 7l186 58l66 19l55.5 16.5t65.5 21.5q35 14 78 35q29 14 65 43q23 18 45 47q18 25 19 49v23q0 8 -9 24q-6 12 -18 19q-14 6 -39 10 q-53 -4 -102 -13q-39 -8 -97 -22q-72 -18 -94 -27q-61 -20 -92 -28q-59 -18 -139 -47q-66 -25 -146 -43q-39 4 -71 12q-29 8 -62 22q-18 10 -43 27q-22 17 -22 33z" />
<glyph unicode="4" horiz-adv-x="1705" d="M117 707q4 31 12 57q8 23 27 57l37 56l38 55l99 110q55 61 112 109l26.5 21.5l29.5 23.5q29 27 59 47q31 23 70 41q37 18 86 31q39 2 82 -10.5t69 -26.5q33 -12 54 -33q23 -23 24 -41q-25 -45 -82 -102l-100 -101l-53 -53l-54 -55q-33 -37 -47 -55q-16 -23 -33 -58l7 -16 l2 2l141 -6q72 -4 137 -12l144 -13q71 -6 141 -6h35h6q16 61 20 92l13 92q4 33 8 91q2 27 10 90q0 6 2 19t2 20q2 18 4 38l6 37q2 16 13 39q6 16 20 34.5t41 31.5q31 16 57 20q37 6 74 4q59 -4 84 -12q41 -14 62 -29q29 -23 38 -39q14 -27 13 -45q-2 -20 -5 -56t-3 -54 q-2 -53 -13 -113q-4 -66 -4 -94q0 -49 -14 -92v-49q0 -29 8 -47q27 -4 61 -17q14 -4 50 -24q23 -12 32 -29q12 -16 9 -37q0 -12 -15 -31q-12 -14 -28 -28q-23 -16 -45 -25q-25 -9 -62 -6q-22 -40 -31 -86q-4 -20 -4 -66v-63q0 -43 -2 -64l-6 -63q-12 -41 -14 -45 q-14 -25 -33 -43q-16 -16 -57 -35q-35 -16 -82 -18q-34 -3 -68 0q-37 4 -63 12q-23 8 -50 22q-22 12 -24 31q-10 14 -16 35q-6 18 -7 35v37q0 10 4 34q8 18 9 48q0 23 10 47q8 33 12 47q8 27 10 47q0 6 1 19.5t1 19.5q0 25 -6 37q-61 6 -125 6q-43 0 -125 4l-210 8 q-74 2 -213 14q-106 10 -200.5 31t-174.5 60q-25 18 -33 41q-6 16 -10 45z" />
<glyph unicode="5" horiz-adv-x="1880" d="M270 637q6 63 19 125q16 82 26 125q4 10 31 121q18 70 33 120q6 25 22.5 51.5t42.5 47.5q90 47 197 71q111 25 231 37q80 8 244 13q82 2 242 2q51 0 102 -7q49 -6 96 -18q88 -37 76 -94q4 -18 -14 -29q-22 -12 -49 -18q-33 -4 -51 -2q-27 4 -52 0q-61 2 -175.5 -2 t-174.5 -9q-33 -2 -95.5 -9t-72.5 -9q-78 -8 -162 -33q-10 -55 -20 -88l-10 -39.5t-15 -50.5l-24 -90q-8 -31 -17 -92v-19l2 -10q58 49 142 92q82 43 182 74q102 33 211 47q102 14 225 14q143 6 250 -20q115 -29 188.5 -76t108.5 -110q35 -61 12 -127q-6 -59 -51 -121 q-37 -51 -115 -111q-76 -59 -153.5 -100t-179.5 -86q-104 -45 -197 -78q-90 -33 -217 -59q-115 -25 -231 -37q-121 -12 -244 -6q-39 4 -98 20q-41 10 -74 37q-29 23 -41 47q-14 27 -17 53q-6 18 17 41q25 25 65 27q18 0 54 1t55 3q35 2 106 2q39 2 115 2q63 0 112.5 8 t114.5 27q70 20 101 35l90 43q51 25 86 47l76 49q37 23 71 51t56 55q20 25 26 60q2 14 0 33q-4 18 -14 32q-12 14 -39 25q-23 8 -61 8q-119 -6 -207 -35q-127 -41 -185 -63l-176 -74l-176 -74l-96 -28q-49 -16 -109 -13q-66 4 -104 23q-45 23 -66 49q-29 37 -36 57 q-15 35 -9 62z" />
<glyph unicode="6" horiz-adv-x="1736" d="M223 481q2 51 23 111q16 47 43 108q20 47 59 107l68 106l67 103q31 47 78 104q29 35 96 99q55 51 119 92q43 20 92 28q53 10 107 13h53q31 0 49 -9q8 -8 18.5 -17t14.5 -13q8 -8 12 -23q2 -6 11 -28q6 -14 2 -31l-99 -105l-104 -102l-62 -66l-55 -67q-18 -23 -47 -68 q-20 -31 -33 -69q57 29 131 49q68 18 150 31q68 10 158 14q106 4 161 4q66 0 127 -6q59 -6 119 -19q55 -12 107 -30q47 -18 88 -45q72 -47 100.5 -108.5t19.5 -119.5q-16 -98 -90 -182q-84 -94 -200 -160q-66 -39 -133 -67q-98 -41 -154 -56q-92 -25 -172 -34 q-96 -12 -186 -11q-88 0 -164 13q-59 10 -146 36q-66 20 -127 54q-55 29 -102 63q-95 65 -148 142q-53 79 -51 159zM657 336q-6 -33 21 -53q29 -23 72 -35q55 -16 98 -21q61 -6 106 -4q74 0 111 4t106 17q52 9 99 24q53 18 86 37q80 45 114.5 94.5t40.5 106.5q8 20 -2 51 t-36 51q-29 23 -72 35q-45 12 -105 10q-94 0 -168 -14q-57 -10 -149 -43q-70 -20 -137 -53q-66 -31 -105 -70q-34 -31 -55 -67q-23 -37 -25 -70z" />
<glyph unicode="7" horiz-adv-x="1699" d="M238 1106q8 41 53 80q37 33 110 63q68 29 146 47q53 12 160 29q172 22 344 25q203 4 348 -4q70 -2 149 -13q90 -10 150 -26q72 -18 117 -45q47 -27 57 -72q-8 -16 -29 -49l-33 -49q-4 -6 -34 -48l-33 -49l-262 -319l-273 -320q-18 -18 -26 -28l-19 -31l-16 -31 q-2 -4 -17 -28q-18 -43 -22 -54l-16 -55q-10 -18 -11 -23q-2 -8 -10 -24t-14 -25q-10 -12 -23 -20q-20 -8 -69 -17q-37 -6 -76 -6q-53 -2 -98 11q-43 12 -74 30q-29 18 -43.5 45t-7.5 50q6 63 41 118q37 59 81 113l240 297l238 297q29 33 67 88q20 29 58 90q-25 0 -74 4 t-76 4q-49 4 -78 4q-12 0 -38.5 1t-39.5 1q-100 0 -182 -8q-96 -10 -174 -31q-35 -10 -72 -30q-61 -33 -63 -35q-23 -16 -51 -29q-27 -12 -70 -12q-88 -2 -168 18q-37 14 -55 27q-22 16 -12 39z" />
<glyph unicode="8" horiz-adv-x="1773" d="M236 360q0 47 36 97q39 51 103 86q88 47 163.5 73.5t194.5 47.5q-78 12 -119 22q-55 14 -112 35q-52 18 -99 43t-75 51q-31 27 -43.5 59.5t-3.5 65.5q6 41 30 78q23 35 64 72q43 39 88 67q72 45 106 62q55 31 123 55q53 20 139 41q82 20 154 28.5t160 8.5q143 0 272 -31 q123 -29 219 -84q33 -16 90 -53q35 -23 72 -60q25 -25 47 -65q16 -31 17 -70q6 -55 -29 -102q-37 -49 -102 -90q-57 -37 -156 -70q-84 -29 -186 -45q90 -18 161 -45q80 -29 136 -64q57 -35 88 -79q31 -43 18 -95q-4 -29 -31 -73q-20 -37 -57 -70q-43 -41 -82 -66 q-57 -39 -100 -57q-57 -29 -119 -49q-82 -27 -135 -39q-70 -14 -146 -25q-74 -10 -151 -6q-139 0 -273 25q-125 23 -233 76q-41 16 -94 51q-35 23 -72 59q-33 33 -47 66q-16 36 -16 69zM678 342q0 -14 6 -27q2 -4 21 -22q8 -8 32.5 -20.5t38.5 -16.5q43 -14 103 -20 q51 -6 106 -7q123 -2 240 29q20 8 43 21q31 16 37 22q16 12 24 26.5t8 28.5q3 28 -18 56q-18 25 -62 47q-37 20 -92 33q-43 10 -110 10q-76 0 -135 -15q-61 -14 -119 -36q-6 -4 -23.5 -11.5t-25.5 -11.5q-29 -16 -39 -25q-16 -12 -27 -30q-8 -15 -8 -31zM768 981 q-6 -28 12 -55q16 -25 56 -47q33 -20 86 -33q41 -10 106 -10q74 0 139 18q59 16 115 43q14 8 43 29q22 15 37 30q16 16 24 33q10 20 11 35q0 27 -17 49q-20 29 -49 45q-35 20 -76 33q-35 10 -98 10q-68 0 -139 -16q-61 -14 -119 -41q-53 -25 -88 -57q-37 -35 -43 -66z" />
<glyph unicode="9" horiz-adv-x="1730" d="M162 846q9 68 49 135q37 63 111 127q66 57 167 109q100 49 224 83q94 29 178 39q96 12 188 13q100 0 168 -11q88 -14 152 -32q74 -23 133 -49q47 -20 104 -64q98 -66 146 -145q47 -82 47 -164q-2 -57 -27 -125q-18 -55 -53 -123q-29 -59 -70 -121q-39 -61 -82 -121 q-53 -57 -61 -69l-59 -74q-2 -2 -66 -72q-33 -35 -78 -67q-47 -33 -100 -58q-51 -23 -129 -43q-10 -2 -53 4q-23 2 -41 13q-16 8 -27 22q-6 8 -2 27v26q4 8 4 13q0 10 2 14q16 39 51 84q51 66 66 82l74 80q74 78 75 80q57 61 99 119q51 72 67 122q-61 -47 -133 -77 q-82 -35 -168 -56q-100 -23 -194 -37q-113 -16 -201 -14q-66 0 -127 6q-59 6 -119 19q-43 8 -106 32q-53 20 -88 43q-39 27 -62 52q-23 27 -39 57.5t-18 58.5q-4 42 -2 62zM545 842q-6 -27 0 -51.5t28 -47.5q27 -27 60 -36q43 -12 96 -11q96 0 176 21q45 12 158 49 q53 18 131 57q55 27 102 72q35 35 58 66q29 39 30 67q4 29 -22 47q-25 18 -66 31q-29 8 -90 16q-33 4 -94 4q-104 6 -221 -18q-100 -20 -182 -64q-78 -41 -121 -92q-43 -52 -43 -110z" />
<glyph unicode=":" horiz-adv-x="643" d="M170 182q0 27 25 45q31 23 63 33q31 8 84 16q47 6 90 7q53 4 92 -2q45 -6 78 -18.5t51.5 -31t8.5 -45.5q-10 -29 -27 -59q-14 -27 -51 -53q-20 -16 -35 -25q-18 -10 -45 -20q-16 -6 -53 -15q-29 -6 -58 -6q-68 4 -108 21q-51 20 -70 41q-29 29 -37 55t-8 57zM291 748 q6 23 20 45q14 25 39 45q25 23 64 34q33 10 86 15q43 0 84 -10q39 -10 61 -27q27 -20 35 -39q10 -23 4 -43v-51q0 -29 -18 -53q-6 -16 -23 -25q-25 -12 -39 -16q-25 -8 -49 -11q-33 -4 -51.5 -4t-50.5 4q-20 2 -47 11q-29 8 -41 14q-18 8 -27 20q-33 20 -41 41q-9 25 -6 50z " />
<glyph unicode=";" horiz-adv-x="698" d="M147 -45q4 27 17 47q16 27 37 47q31 31 47 45q47 39 51 43l31.5 23.5l29.5 21.5q41 29 70 45q33 18 84 35q41 14 102 21q25 2 58 -7q23 -6 39 -18q18 -14 20 -27q2 -14 -4 -30v-19v-12q-2 -27 -20 -53q-20 -31 -43 -54q-16 -16 -58 -49q-18 -14 -65 -47l-18.5 -11 l-15.5 -9t-20 -13q-25 -16 -57 -32q-31 -15 -67 -25q-41 -10 -80 -10l-33 6l-23 2q-23 2 -39 12q-10 6 -24 21q-12 12 -14 22q-5 17 -5 25zM365 682q-4 33 0 51q0 25 18 53q18 27 47 48q29 18 78 32q49 12 100 10t100.5 -20t73.5 -39q29 -25 43 -51q14 -25 11 -53 q4 -27 -15 -47q-20 -25 -49 -41q-27 -16 -76 -27q-43 -9 -92 -6q-18 0 -55 4l-55 6q-4 0 -52 12q-25 6 -43 19q-30 22 -34 49z" />
<glyph unicode="&#x3c;" horiz-adv-x="1292" d="M104 676q12 25 39 45q23 18 64 35q4 2 32.5 14t45.5 18q10 4 36.5 13.5t40.5 15.5q29 10 179 57l184 58l94 29l99 30q66 16 100 23q70 12 106 14q37 -4 56 -8q25 -6 47 -19q18 -10 32.5 -24t16.5 -29q4 -16 -6 -28q-10 -14 -37 -23q-297 -96 -318 -104l-317 -109l315 -82 q137 -35 318 -76q16 -6 31 -16q10 -8 14 -18q4 -12 4 -22.5t-4 -23.5q-9 -28 -43 -49q-37 -25 -94 -26q-29 -2 -82 2q-31 2 -78 10l-74 18q-25 6 -69 19l-162 43l-160 47l-61 16l-64 19q-61 20 -94 28q-51 12 -88 33q-4 2 -9 5t-10 5q-6 2 -18 11q-23 8 -41.5 20.5 t-24.5 28.5z" />
<glyph unicode="=" horiz-adv-x="1636" d="M299 539q-4 12 8 24q8 8 33 19q14 6 47 14q14 4 47 8q125 8 162 10q47 2 137 2q14 0 43 -1t43 -1q29 0 86 -4q29 -2 90 -2h88q8 0 24.5 -1t25.5 -1q35 0 51 2q10 0 22.5 1t24.5 1q33 0 47 -2h72q53 0 80 -2q45 -4 73 -8q35 -6 64 -18q27 -12 39 -27q12 -16 6 -39 q-6 -20 -29 -33q-25 -14 -53 -22q-31 -9 -68 -13q-6 0 -30.5 -3t-36.5 -3q-203 -8 -455 -8q-201 0 -451 10q-41 0 -71 9q-27 8 -58 22q-27 12 -41 31q-18 23 -20 35zM342 854q25 31 76 49q47 16 114 27q61 9 130 12q23 0 63.5 1t60.5 3h80q51 0 78 -2q23 0 43.5 -1t40.5 -1 h82q25 2 51 0q18 -2 53 -2q25 4 54 0h53q51 0 109 -6q72 -8 106 -16q53 -14 84 -33q35 -23 43 -49q6 -18 -8 -33q-12 -12 -39 -23q-25 -8 -60 -12q-43 -4 -63 -2q-170 2 -508 2q-340 0 -510 -2q-34 0 -61 6q-29 6 -47.5 18.5t-24.5 29t0 34.5z" />
<glyph unicode="&#x3e;" horiz-adv-x="1288" d="M332 399q4 18 10 29q8 14 39 21l319 112l316 117l-314 90l-313 86q-23 6 -33 14.5t-14 20.5t-4 22q0 8 4 21q12 25 43 49q29 23 92 27q45 -2 123 -15q14 -2 115 -24q37 -8 110 -29q18 -6 54 -14t55 -15q158 -43 246 -71q152 -49 229 -84q12 -8 14 -11q6 -6 21 -10 l19.5 -10t21.5 -12q20 -12 22 -27q-12 -25 -39 -45q-29 -23 -61 -39l-78 -35q-66 -27 -78 -30l-182 -64q-119 -41 -180 -59l-98 -31q-66 -20 -99 -29q-61 -14 -102 -22q-51 -8 -109 -13q-59 6 -100 27q-37 18 -49 53z" />
<glyph unicode="?" horiz-adv-x="1730" d="M242 1030q6 43 43 80q39 39 90 68q59 33 121 55q90 33 137 45q143 39 305 57q152 18 324 15q126 -3 245 -19q119 -14 217 -55q96 -43 140 -102q41 -55 41 -121q-25 -53 -80 -101q-53 -45 -131 -82q-84 -41 -172 -69q-113 -37 -191 -60q-115 -33 -198 -53 q-109 -27 -189 -49q35 -10 68 -12q8 0 23.5 -2t27.5 -3t22 -1q12 0 37 -1.5t37 -1.5q27 0 72 -4q106 -4 158 -4q72 0 159 -10q6 -8 10.5 -24.5t4.5 -22.5q0 -29 -33 -53q-39 -29 -82 -41q-45 0 -69.5 -2t-69.5 -2q-25 -2 -70 -2h-70q-154 0 -231 6q-129 10 -225 26 q-41 8 -101 23q-43 10 -86 31q-40 18 -61 43q-23 27 -21 55q6 29 35 53q16 14 70 43q40 22 86 37l94 33l256 67l260 68l88 25q31 8 84 28q43 16 70 37q29 23 35 47q-3 34 -43 55q-33 18 -93 31q-49 10 -118 15q-86 4 -117 4q-92 0 -205 -11q-86 -8 -194 -36 q-68 -23 -101 -50q-14 -10 -78 -59q-27 -31 -71 -51q-51 -25 -111 -27q-25 0 -61 8q-28 6 -49 19q-16 10 -31 26q-10 15 -8 31zM489 170q-4 33 23 59.5t74 44.5q51 20 102 29q59 10 119 6q63 2 127 -6q68 -10 113 -27q49 -18 77.5 -46.5t16.5 -63.5q-6 -29 -23 -57 q-14 -25 -55 -50q-31 -20 -86 -32q-51 -12 -105 -13q-68 0 -135 13q-80 14 -125 28q-59 23 -88 51q-33 33 -35 64z" />
<glyph unicode="@" horiz-adv-x="2672" d="M242 649q-4 78 26 146q31 70 94 137q61 65 148 123q80 53 195 106q104 47 231 88q119 39 260 64q143 27 281 35q133 8 288 2q133 0 224 -11q96 -10 209 -34q98 -20 186 -56q100 -39 160 -75q139 -86 200 -191q63 -106 54 -217q0 -51 -15 -94q-18 -55 -43 -92 q-31 -45 -76 -88q-43 -41 -108 -78q-57 -37 -141 -70q-82 -31 -168 -49q-98 -20 -185 -29q-106 -10 -192 -10q-150 -2 -318 10q-133 10 -307 39q-90 16 -137 29q-78 20 -127 41q-55 25 -94 55q-37 31 -37 74q0 33 20.5 61.5t59.5 55.5q29 18 88 45q37 16 104 34 q125 33 244 48q137 16 256 16q51 0 75.5 -2t76.5 -2q-2 23 -21 51q-16 27 -45 49q-20 16 -70 39q-35 16 -94 27q-12 0 -38.5 2t-39 2t-39 4t-41.5 4q-45 2 -67.5 22.5t-20.5 40.5q4 23 22.5 41.5t49.5 30.5q39 16 70 21q40 6 80 6q47 0 141 -8q61 -6 133 -23q65 -15 117 -37 q51 -20 90 -53q78 -61 104 -131q28 -71 19 -141q-6 -76 -49 -150q-45 -78 -125 -137q58 0 116 6q43 4 111 20q57 14 100 31q39 16 80 45q35 25 53 53q14 23 29 58q8 23 17 59q4 18 8 60q14 53 -2 112q-14 53 -60 105q-47 53 -110 94q-61 39 -156 72q-84 29 -197 45 q-96 14 -227 10q-147 8 -290.5 -6.5t-272.5 -48.5q-127 -33 -238 -84q-108 -49 -184 -111q-74 -59 -115 -131q-41 -74 -32 -145q-2 -41 4 -93q6 -47 28 -92q22 -43 62 -86q41 -43 96 -76q53 -33 133 -63q68 -25 160 -45q78 -16 178 -27q92 -10 186 -6q18 2 52 -2 q25 -3 43 -12q20 -10 28 -21q8 -12 6 -24q-4 -23 -22 -39q-20 -16 -51 -33q-25 -12 -70 -22q-35 -8 -80 -9q-121 0 -237 13q-98 10 -224 39q-94 20 -198 63q-90 37 -164 84q-82 51 -127 96q-51 51 -86 108.5t-47 114.5q-14 66 -8 117zM1200 526q10 -10 31 -20q10 -4 43 -14 q25 -8 49 -11q16 -2 49 -10q51 -12 109 -18q41 -4 110 -9q55 27 90 62q33 33 56 72l-56 6l-57 6q-37 -2 -108 -2q-53 0 -109 -6l-41 -2q-6 0 -17.5 -1t-15.5 -4q-16 -4 -20 -4t-8.5 -1t-6.5 -1t-5 -1t-5 -1q-45 -8 -69 -20q-19 -11 -19 -21z" />
<glyph unicode="A" horiz-adv-x="2056" d="M193 217q0 59 32 117q29 49 80 110l98 125q33 43 109 123q61 115 109 193l118 188l70 82q37 47 80 84q49 43 110 72q66 31 156 43h22q70 0 140 -17q61 -14 137 -45q47 -20 109 -63q51 -35 77 -74q31 -40 50 -80l39 -82l161 -325q84 -176 140 -328l24 -55l25 -56l8 -28 q7 -35 7 -38.5t-0.5 -9.5t-0.5 -10q0 -15 -6 -30v-4q-2 -10 -16 -25q-12 -12 -29 -21q-12 -6 -41 -14q-12 -4 -49 -8q-10 0 -28.5 -1t-27.5 -1q-37 0 -55 2q-33 4 -49 8q-25 6 -39 19q-12 10 -24.5 26.5t-16.5 26.5q-2 6 -5 14t-5 15l-10 26l-25 74q-16 49 -27 74 q-55 12 -92 16q-27 3 -57 3l-41 -1l-205 -6q-111 -4 -201 -14q-123 -12 -182 -23q-84 -14 -172 -45q-22 -15 -37 -31q-10 -10 -22 -35q-8 -16 -14.5 -34.5l-12.5 -34.5q0 -14 -10 -30.5t-31 -29.5q-22 -12 -49 -18q-15 -3 -36 -3q-13 0 -27 1q-59 6 -106.5 24.5t-74.5 45.5 q-35 27 -55 51q-18 24 -22 57zM858 567l6 -12h70h65q49 -4 72 -4h72q12 -1 26 -1q21 0 70 3q49 2 96 12q41 8 76 29q33 18 35 45q-6 55 -29 115q-18 49 -53 110q-20 37 -66 111l-67 106q-86 -45 -145.5 -100t-102.5 -115l-43 -59q-22 -31 -37 -61.5t-24 -61.5 q-12 -41 -13 -63l-2 -13l4 -12q-2 -6 -2 -14q0 -3 -8 -15z" />
<glyph unicode="B" horiz-adv-x="2088" d="M279 414q2 49 16 114q10 53 31 115l21 68t15 51q20 63 31 117q6 35 6 69q0 25 -4 70q6 34 6 67q0 31 11 68q25 45 63 72q51 33 107 53q47 16 135 35q49 10 151 22q77 9 154 13q102 4 147 4q30 1 58 0q95 0 182 -9q120 -12 227 -36q84 -20 103 -27q45 -16 86 -41 q45 -27 61 -47q23 -29 23 -59q1 -6 0 -12q0 -22 -8 -54q-8 -33 -35 -66l-68 -55q-35 -29 -78 -53q125 -18 213 -57q94 -41 154 -95q57 -51 92 -108q28 -46 28 -95q0 -12 -1 -24q-8 -39 -37 -76q-29 -39 -70 -67q-53 -37 -96 -60q-37 -18 -119 -51q-49 -20 -129 -45l-133 -39 q-117 -31 -240 -55q-154 -31 -252 -47q-88 -14 -241 -33q-94 -12 -183 -12q-33 0 -65 2q-72 8 -139 32q-61 23 -98 51.5t-64 67.5q-25 37 -37 78q-12 43 -18 78q-2 16 -4 44t-2 32zM707 395q-2 -7 -2 -15q0 -16 8 -30q10 -18 41 -39q25 -16 67 -26q45 -10 90 -11h28 q119 0 239 23q139 27 241 63q55 18 105 43q70 35 90 50q39 27 63 57q27 33 29 65q2 35 -31 72t-82 60l-37 12q-6 2 -10 4t-6 2q-23 0 -47.5 -1t-56 -3t-47.5 -2q-76 -2 -150 -12q-98 -12 -145 -23q-66 -14 -133 -37q-61 -22 -111 -49q-43 -25 -80 -61.5t-49 -67.5 q-16 -41 -14 -74zM801 924v-45q0 -20 10 -45q115 4 199 22q98 23 182 49q12 4 82 29q57 20 76 31q39 23 59 39q23 18 29 47q4 25 -23 47q-23 20 -63 32q-33 12 -88 17q-16 0 -49 2t-50 2q-109 -6 -112 -6q-63 -6 -105 -23q-53 -12 -83.5 -36.5t-43.5 -51.5q-2 -10 -5 -28.5 t-5 -26.5t-5 -26.5t-5 -28.5z" />
<glyph unicode="C" horiz-adv-x="1964" d="M217 649q2 51 27 117q18 53 59 113q37 55 90 108q52 52 117 105q68 57 133 96q84 51 168 84q96 39 201 59q102 20 229 21q174 0 311 -39q152 -43 250 -96q53 -27 103 -60q51 -35 82 -67q41 -45 55 -76q20 -45 20 -78q2 -5 2 -11q0 -14 -12 -26q-14 -14 -45 -25 q-35 -12 -65 -14q-35 -3 -50 -3q-11 0 -20 1q-74 4 -125 25q-57 23 -82 51q-25 27 -106 133q-25 31 -80.5 53.5t-120.5 22.5q-92 0 -168 -19q-82 -20 -141 -49q-61 -31 -111 -67q-39 -31 -82 -76q-84 -78 -131 -166q-47 -86 -55 -174q0 -31 6 -66q6 -29 22 -63 q18 -37 41 -60q31 -31 70 -53q39 -29 82 -47q39 -16 106 -35q66 -16 121 -22q66 -6 127 -6q70 0 148 10q82 10 137 26q78 27 96 35q47 18 90 39l58 25q25 10 65 14q7 1 15 1q30 0 53 -9q18 -8 35 -27q10 -14 14 -35q2 -12 -2 -32q-10 -31 -29 -51q-31 -35 -51 -50 q-35 -25 -70 -43q-41 -23 -82 -37q-84 -41 -180 -63.5t-209 -26.5q-32 -2 -65 -1q-82 0 -172 10q-109 12 -219 41q-109 29 -193 63q-88 37 -164 84q-84 53 -133 96q-61 53 -98 107q-41 57 -60 114q-14 44 -13 89q-1 15 1 30z" />
<glyph unicode="D" horiz-adv-x="2043" d="M291 229q2 14 2 47q0 27 6 48l8 49q2 20 10 47q8 49 9 110q2 14 2 41t2 39q4 53 4 78q4 53 8 80q2 14 5 41t5 39q16 74 23 113q8 53 24.5 114.5t38.5 112.5q25 53 64 108q104 16 164 21l163 16q31 2 93.5 5t93.5 5q123 8 184 11q35 2 70 1q105 0 203 -14q123 -18 239 -53 q109 -33 201 -84q80 -43 147 -108q61 -59 90 -127q21 -51 21 -100q0 -17 -2 -33q-4 -80 -37 -154q-31 -68 -98 -145q-61 -71 -148 -136q-76 -57 -190 -120q-100 -61 -215 -109q-106 -43 -254 -84q-129 -35 -283 -51q-101 -11 -188 -11q-57 0 -111 5q-92 4 -143 18 q-72 20 -113 45q-49 29 -73.5 63.5t-24.5 71.5zM735 578q-1 -13 -1 -28q0 -23 3 -67q4 -66 11 -94q8 -39 32 -92q92 0 195 20q92 18 172 50q72 27 149 71l131 76q43 27 121 84q39 29 103 92q45 45 73.5 96.5t34.5 100.5v49q0 8 -10 49q-6 25 -23 47q-15 22 -43 43 q-33 20 -71 31q-43 12 -88 18q-31 4 -96.5 8.5t-96.5 4.5q-33 -2 -98 -2q-68 0 -100.5 -2.5t-96.5 -2.5q-16 0 -49 -1t-49 -1q-47 -29 -82 -65q-35 -39 -51 -74q-20 -47 -29 -78l-12 -80q-8 -51 -10 -81q-4 -41 -13 -78z" />
<glyph unicode="E" horiz-adv-x="1961" d="M295 528q0 18 1 56.5t3 56.5q12 74 16 111q0 6 19 112q10 61 24 113q14 49 41 110q23 49 66 107q37 49 98 100q170 29 264 35q180 12 275 14q100 4 305 5q137 0 305 -11q59 0 100 -8q39 -8 78 -29q31 -16 49 -40q16 -20 13 -50q0 -8 -4 -28q-4 -16 -15 -31 q-8 -10 -30 -21q-22 -9 -56 -6q-315 12 -473 15q-104 1 -197 1q-148 0 -280 -3q-33 -39 -57 -82q-27 -45 -29 -84q2 -4 2 -13v-12q0 -8 2 -12t8 -10q152 0 228 4q152 8 227 10q115 6 225 6h228q57 0 100 -8t88 -27q35 -14 59 -39q20 -20 15 -51q-6 -29 -41 -45 q-43 -18 -82 -26q-35 -6 -103 -11q-37 -2 -98 -6q-98 -6 -309 -14q-139 -6 -309 -23q-86 -10 -140 -28q-68 -23 -110 -52q-49 -33 -74 -65q-27 -37 -25 -76q-2 -25 5 -51q6 -29 18 -51q16 -33 27 -49q25 -41 30 -52q51 0 146 9q47 4 141 20q47 8 137 29q37 8 70 17l63 17 q96 29 265 66q139 31 286 37q11 1 21 1q30 0 53 -7q31 -9 49 -25q18 -14 25 -35q4 -13 4 -22q0 -7 -2 -15q-8 -18 -29 -43q-18 -20 -45 -38q-82 -39 -137 -58q-66 -23 -152 -45q-53 -14 -164 -39q-37 -8 -59 -12l-49 -9t-57 -12q-205 -39 -324 -57q-151 -23 -301 -23 q-17 0 -35 1q-68 4 -123 14q-57 12 -104 35q-43 25 -72 53.5t-45 60.5q-20 43 -35 113q-10 49 -14 113q-2 28 -2 55.5t2 56.5z" />
<glyph unicode="F" horiz-adv-x="1665" d="M281 672q12 109 57 225q49 125 100 223q12 23 33 51q18 25 39 50q16 14 61 36q27 14 78 25q102 20 187 29q63 6 190 14q117 14 209 16q139 4 207 5q61 -2 127 -13q59 -8 117 -28q55 -18 86 -45q33 -27 32 -64q0 -18 -10 -29q-14 -14 -33 -22q-31 -12 -45 -17 q-37 -8 -55 -10q-35 -4 -105 -8q-33 -2 -92 -2q-14 0 -42.5 -1t-41 -1t-41 1t-41.5 1q-45 0 -131 4q-43 2 -131 2q-8 0 -24.5 -1t-22.5 -1q-31 0 -45 -2q-33 -23 -51 -47q-16 -20 -31 -51q-8 -16 -16 -53t-10 -54v-18l6 -17l2 -8l186 6q127 4 187 9l188 8q90 3 131 3 q28 0 53 -1q35 0 97 -8q35 -4 86 -21q43 -12 71 -31q33 -18 47 -43q2 -2 5 -4t6 -6q3 -6 2 -9q0 -24 -29 -42t-62 -29q-39 -12 -77 -18q-59 -8 -80 -10q-41 -2 -125 -8.5t-127 -8.5q-80 -6 -254 -14l-107 -6q-37 -2 -106.5 -10.5t-101.5 -14.5q-51 -10 -97 -24q2 -23 2 -66 q0 -8 0.5 -22.5t0.5 -22.5q0 -13 -1 -23q8 -49 9 -77q0 -51 -3 -78l-4 -41l-6 -43q0 -6 -10 -39q-4 -18 -20 -41q-23 -43 -68 -70q-41 -23 -103 -23q-8 0 -16 1q-59 10 -67 12q-29 8 -48 27q-28 34 -43 67q-18 43 -26 72l-15 72l-16 71q-4 23 -7 49.5t-6 57.5t-5 49 q-5 44 -6 101q1 27 2 59z" />
<glyph unicode="G" horiz-adv-x="2146" d="M233 725q12 106 95 211q82 102 211 190q66 45 137 86q68 37 166 72q102 35 190 51q101 18 215 19h31q165 0 330 -29q172 -31 323 -84l54 -18q25 -8 53 -23q27 -14 43 -26q16 -14 22 -33q0 -6 -2 -8.5t-2 -8.5l-18 -14l-27 -10q-25 -22 -74 -31q-66 2 -131 18l-125 29 q-53 14 -122 27q-72 14 -134 16q-22 1 -43 1q-66 0 -131 -7q-86 -9 -166 -31q-96 -27 -147 -49q-74 -35 -117 -65q-61 -41 -96 -76q-33 -33 -66 -84q-23 -37 -40 -86q-14 -43 -19 -88q-2 -19 -2 -39q0 -54 18 -113q25 -74 97 -143q29 -31 80 -64q49 -31 110 -51 q66 -23 137 -31q70 -9 126 -8h28q63 0 115 8q70 10 108 23q49 14 94 37q39 18 76 49q76 53 109 104q35 55 41 117q4 16 4 26.5t-4 26.5q-2 4 -4 12.5t-4.5 12.5t-4.5 13.5t-2 13.5q-154 -12 -292 -31q-106 -12 -152 -16q-104 -8 -152 -11h-12q-33 0 -74 13q-33 10 -59 32 q-25 20 -33 41q-8 18 -8 45q2 16 21 31q106 35 219 49q156 20 231 33q61 6 120.5 14.5l119.5 16.5q100 12 241 16q100 0 156 -22q66 -27 96 -60q37 -39 45 -80q6 -29 7 -53q0 -14 -3 -27q0 -16 -8 -49q-6 -25 -14 -49q-33 -102 -115 -188q-88 -92 -209 -170 q-72 -47 -131 -74q-78 -35 -157 -59q-90 -27 -176.5 -41.5t-194.5 -14.5h-26q-105 0 -212 21q-115 23 -202 57q-100 41 -170 82q-72 43 -136 96q-68 55 -112 105q-57 63 -84 110q-31 55 -47 117q-11 44 -11 84q-1 20 2 39z" />
<glyph unicode="H" horiz-adv-x="2009" d="M299 352q-1 18 -1 37q0 56 7 109q4 35 9 70.5l10 74.5q4 25 11 74t11 74l23 149q9 28 12 55l4 56q2 14 5 29.5t5 27.5q2 10 4 28.5t4 26.5q4 8 9.5 24.5l7.5 22.5q10 27 24 47q16 23 43 41q27 16 76 27q32 3 48 3l20 -1q41 -4 63 -8q27 -4 60 -16q23 -8 49 -23 q41 -27 67 -63q25 -35 23 -72l-2 -12l-2 -21v-4q-12 -49 -21 -74q-20 -61 -26 -73q-10 -27 -31 -74q-14 -37 -18 -76q-3 -9 0 -18q2 -2 4 -10.5t2 -10.5q115 0 331 4q48 1 109 1q36 0 109.5 -0.5t111.5 -0.5q23 4 35 12q8 6 16 19q6 8 7 20q0 8 4 21q0 45 -6 90l-13 88 q-2 14 -5 45t-5 45q-4 29 -4 88q0 12 4 41q2 14 18 43q10 18 39 35q23 12 76 12q66 -4 113 -20q51 -18 83.5 -41t59.5 -55q23 -29 39 -58q31 -53 51 -121q17 -56 17 -108v-17q2 -25 -4 -53l-7 -55l-10 -113q4 -82 4 -119q0 -59 13 -118q8 -72 10 -113q1 -10 0 -20 q0 -38 -8 -93l-19 -49q-10 -27 -26 -49q-18 -25 -50 -43q-33 -20 -82 -29q-22 -3 -40.5 -3t-36.5 3q-39 6 -66 19q-33 14 -49 29q-23 18 -33 34q-16 25 -26 56q-6 18 -11 59q0 4 -3 25.5t-3 31.5q0 23 -4 60q0 41 -14 82q-16 45 -39 82q-72 0 -107 2t-108 2l-137 -6 q-23 0 -69 -2.5t-69 -2.5q-135 -6 -137 -6q-45 0 -135 -4q8 -49 14 -76l17 -77q6 -31 14 -78q4 -29 8 -78q-4 -41 -8 -57q-6 -28 -18 -56q-18 -34 -56 -55q-24 -14 -57 -14q-12 0 -27 2q-70 6 -114 22q-49 18 -88 43q-37 25 -60 54q-23 31 -33 61q-16 71 -16 139z" />
<glyph unicode="I" horiz-adv-x="1873" d="M319 1182q25 31 72 53q43 20 107 37q76 20 123 26l122 21q123 20 273 27q110 5 202 4h74q86 -4 133 -7q71 -3 136 -12q78 -12 118 -24q53 -18 88 -50q-12 -35 -59 -59q-43 -23 -115 -33q-51 -2 -143 -10l-143 -12q-12 -49 -14.5 -74t-10.5 -74q-12 -45 -16 -75l-13 -74 q-2 -20 -2 -64v-61v-64q0 -43 -2 -63q1 -12 1 -25q0 -37 -7 -75q-6 -35 -10 -101q-1 -9 -1 -17q0 -36 9 -83q8 -43 49 -94q8 0 27.5 -1t30.5 -1q41 0 59 2h33l39 2h22q20 0 53 4q16 2 52 2q35 2 102 2q49 0 98 -12q16 -10 41 -29q8 -6 19 -27q4 -8 4 -26q0 -8 -4 -25 q-6 -14 -17 -27q-9 -12 -37 -18q-231 -23 -526 -29q-123 -3 -236 -2q-149 0 -290 4q-37 2 -115 10.5t-113 16.5q-49 12 -94 31q-41 16 -63 47l-15 20q-6 8 -6 23q6 16 27 22q23 8 45 11q33 4 53 4h49q41 2 125 2q70 0 127 8q2 12 0 22.5t0 22.5q6 88 19 170l24 168l33 174 q20 115 29 174q5 37 5 66q0 12 -1 24q-4 53 -19 90l-100 -8q-25 -2 -49.5 -3t-48.5 -3q-10 0 -34 -1t-36 -1h-76q-27 0 -75 4q-47 4 -66 10q-33 10 -47 23q-19 15 -19 37z" />
<glyph unicode="J" horiz-adv-x="1916" d="M145 680q0 14 13 25q15 12 37 18q27 8 49 10q18 2 53 2q63 0 102 -10q43 -12 82 -31q41 -20 62 -41q37 -37 43 -47l79.5 -119t79.5 -118q12 -20 43 -47q27 -25 62 -41q27 -14 84 -29q45 -12 100 -12q61 10 94 30q31 20 55.5 51t35.5 58q14 35 26 55q53 131 66 275 q4 70 4 100q0 53 -6 102q-6 53 -19 101q-10 41 -39 98q-6 14 -30 39q-18 18 -68 22h-49q-23 -2 -47.5 -1.5t-50.5 1.5q-41 2 -97 15q-43 8 -71 28q-27 18 -21 48q0 18 14 34q14 18 41 31q31 16 58 21t52 4h19q91 1 172 1q126 0 238 -3q180 -6 406 -23q70 -12 120 -37 q53 -25 74 -57q2 -4 17 -29q9 -15 6 -30q0 -8 -9 -15q-6 -4 -24 -8q-20 -4 -31 -4q-20 0 -31 2q-31 -2 -94 -2q-61 0 -92 -2q-4 0 -41 -6q-12 -2 -33 -11q-10 -4 -22 -16q-8 -8 -8 -20q0 -4 3 -13.5t3 -13.5q0 -12 6 -25q39 -125 47 -239q3 -45 3 -91q0 -78 -9 -155 q-12 -78 -21 -117q-12 -57 -34 -119q-18 -51 -64 -112q-43 -59 -106 -109q-31 -18 -80 -37q-53 -18 -94 -26q-61 -12 -103 -17q-35 -4 -106 -4q-115 0 -199 21q-89 22 -166 55q-84 37 -139 76q-90 63 -115 82q-207 184 -315 381q-6 8 -10 24q-2 6 -2.5 13.5t-2.5 13.5z" />
<glyph unicode="K" horiz-adv-x="1914" d="M317 477q0 35 2 53q2 16 3 50q0 27 6 51q2 12 5 24.5t5 26.5t5 26.5t5 24.5q5 37 5 68q0 13 -1 24.5t-1 24.5q0 29 5 65q0 31 4 89q4 45 13 88q12 31 18 63q4 18 25 66q12 29 47 59q29 25 90 45q32 5 58 5l22 -1q41 -4 72 -12q27 -8 53 -27q25 -18 30 -37q10 -39 15 -84 l4 -84q-4 -23 0 -41q0 -6 3 -18l5 -20l289 133l291 133q27 12 71 22q53 12 80 15q53 4 82 4q31 0 84 -4q41 0 72 -9q34 -9 55 -24q27 -20 35 -31q10 -16 10 -36.5t-16 -43.5q-12 -16 -39 -37q-16 -12 -57 -32.5t-64 -28.5l-174 -59q-49 -16 -95 -33l-79 -29l-68 -28 q-55 -25 -63 -31q-28 -18 -49 -37q-16 -14 -25 -41q6 -31 29 -59q18 -25 51 -54q20 -18 65 -51l66 -49l188 -129l189 -125l63 -51q35 -27 56 -51q25 -28 36 -56q8 -18 9 -39q0 -10 -2 -20q-4 -16 -11 -25q-10 -12 -22 -20q-20 -12 -35 -17q-29 -8 -47 -8q-17 -2 -35 -2 q-16 0 -47 2q-40 3 -74 13q-29 8 -65 22q-31 12 -53 29l-95 74l-49 37.5l-45 33.5l-280 201l-285 201q-10 -98 -10 -177q0 -119 2 -178q0 -31 2 -45q4 -29 4 -47q-4 -31 -15 -57q-14 -35 -32 -60q-31 -23 -62 -34q-35 -12 -69 -19q-49 -8 -72 -8q-47 0 -70 2q-33 8 -51 25 q-18 14 -27 32q-12 25 -14 37q-2 14 -12 35q-4 25 -4 76t-2 76l-6 49q-2 16 -2 51q-5 37 -5 53z" />
<glyph unicode="L" horiz-adv-x="1873" d="M283 498q0 109 18 219q14 92 51 221q27 61 43 109q20 63 45 108q31 57 72 98q46 46 129 80q17 1 32 2q23 0 42 -4q31 -6 53 -18q25 -14 33 -31q10 -23 6 -37q0 -20 -4 -61t-4 -62q-2 -55 -17 -123q-8 -66 -14 -98l-6 -29.5t-7 -36t-5 -32.5q-8 -49 -13 -101 q0 -16 -3 -48.5t-5 -51.5q2 -31 2 -94q0 -57 8 -98q8 -43 39 -90.5t88 -81.5q143 4 256 14q74 8 250 29q29 4 95.5 11t101.5 11q106 14 196 16q46 0 86 -6q27 -4 76 -20q41 -14 64 -29q27 -18 43 -37q2 -2 4 -7t4 -7q4 -8 4 -12q-12 -10 -37 -21q-2 -2 -47 -12 q-158 -41 -287 -64q-184 -31 -299 -47q-100 -12 -301 -28q-100 -8 -202 -9q-51 0 -101 3q-78 4 -139 20q-68 18 -115 43q-55 29 -88 57q-31 29 -59 68q-49 66 -72 139q-18 60 -18 118z" />
<glyph unicode="M" horiz-adv-x="2811" d="M301 446q-5 48 -5 96t5 97q2 76 26.5 168t51.5 166q45 82 57 108q23 51 60 105q33 47 90 86q53 35 143 57q14 1 30 1q38 0 77 -5q43 -6 88 -22.5t69 -34.5q33 -23 49 -45q12 -16 33 -54q10 -18 27 -55l24 -55q12 -27 27 -53q20 -49 31 -72q20 -43 39 -70l22 -30 q10 -16 31 -33q16 -14 39 -27q22 -12 55 -18l191 172l188 174q41 29 88 67q49 43 92 72q49 34 111 62q66 29 143 40q43 0 121 -12q55 -8 109 -28q49 -18 86 -43q39 -25 61 -56q45 -61 66 -119q14 -41 30 -122q8 -12 6 -23q-2 -8 2 -25q0 -20 -4 -61q-2 -23 -14 -63 q-2 -10 -6 -33t-6 -33q-4 -18 -8 -63q-4 -12 -5 -21v-20q0 -2 1 -10.5t1 -12.5q0 -12 -2 -18q4 -43 11 -64q2 -6 5 -19.5t6 -23.5t7 -18q4 -10 11.5 -31t11.5 -31q16 -41 22 -61q14 -39 39 -117q15 -47 15 -99q0 -10 -1 -20q-10 -12 -34 -22q-39 -16 -48 -19q-39 -8 -55 -10 l-57 -6q-14 0 -45 -1t-47 -1q-61 0 -90 6q-12 4 -29 16q-4 4 -10 11.5t-9 9.5q-10 10 -16 22.5t-14 20.5q-25 51 -41 100q-10 33 -27 103q-10 41 -20.5 102t-20.5 102q-4 27 -8 84q-2 22 -2 43.5t2 42.5q3 31 0 62t0 61q-4 37 -10 64q-6 33 -19 59q-102 -66 -180 -131 q-70 -59 -143 -143q-65 -74 -117 -148l-104 -149l-19.5 -31.5l-15.5 -26l-15.5 -26l-19.5 -31.5q-8 -8 -21 -24q-9 -12 -24 -25q-14 -10 -33 -21q-23 -12 -47 -14q-9 -1 -19 0q-29 0 -79 6q-46 6 -86 19q-31 10 -70 32q-29 16 -49 41q-57 57 -86 115q-37 74 -53 121l-25 61 l-24 62l-31 61q-12 27 -39 60q-39 -27 -60 -64q-18 -35 -24 -69q-6 -37 -6 -72q0 -27 -4 -72v-63q0 -23 4 -64l12 -49q8 -33 16 -47q10 -35 15 -45q10 -23 6 -47q4 -14 -2 -43q-6 -25 -24.5 -43.5t-53.5 -30.5q-23 -8 -53 -8q-15 0 -33 2q-78 4 -139 24q-59 20 -96 58 q-31 35 -48 69q-15 34 -24 68q-25 112 -33 188z" />
<glyph unicode="N" horiz-adv-x="2095" d="M293 530q2 10 2 33t2 35q4 49 10 70q10 86 27 153q25 102 41 154q27 57 43 102q18 52 43 99q29 53 61 86q43 43 109 69q74 0 123 -14q51 -14 96 -41q41 -23 74 -53l65 -56q90 -98 166 -190l160 -193l65 -77q45 -53 70 -78t82 -74q39 -33 98 -70q23 33 33 68q9 34 12 68 q1 21 1 41q0 112 -15 217q-6 43 -14 125q-4 41 -5 124q2 6 3.5 18.5t1.5 18.5q6 39 6 41q6 25 16 41q12 23 33 37q23 16 51 25q35 10 80 10q72 -6 127 -29q49 -20 82 -53q31 -31 43 -68q11 -32 11 -58q0 -6 -1 -11q4 -66 4 -96q0 -33 -4 -99l-6 -198q-12 -147 -21 -222 q-12 -111 -22 -223v-22q-12 -29 -29 -58q-14 -25 -41 -55q-37 -33 -69 -49q-45 -23 -103 -29q-117 4 -190 29q-86 29 -144 65q-66 41 -114.5 84t-102.5 84l-217 207l-209 209q-43 -20 -63.5 -42.5t-32.5 -51.5q-10 -25 -14 -53l-8 -54q-2 -22 -2 -42t2 -42q0 -14 4 -41.5 t4 -42.5q-1 -19 -2 -34q0 -25 4 -50q6 -43 6 -84q-6 -23 -6 -45q0 -25 -10 -51q-8 -20 -35 -41q-20 -14 -80 -18q-55 4 -82 10q-47 10 -68 23l-38 36q-23 18 -29 41q-27 43 -45 95q-16 45 -27 96q-6 33 -10 96q-2 32 -2 98z" />
<glyph unicode="O" horiz-adv-x="1978" d="M254 731q14 117 70 213q61 102 182 197q61 49 133 86t172 67q106 33 195 45q87 13 178 13h37q104 0 202 -13q106 -14 187 -39q94 -31 157 -63q66 -35 119 -84q53 -45 86 -88q31 -41 56 -98q18 -41 28 -99q7 -37 7 -76q0 -13 -1 -26q-6 -66 -20 -121q-12 -49 -45 -119 q-27 -55 -72 -116q-37 -49 -104 -111q-55 -55 -125 -104q-74 -52 -166 -93q-94 -41 -205 -65q-103 -23 -212 -23h-26q-119 0 -227 23q-104 22 -190 61q-88 41 -148 86q-63 49 -106 101q-98 100 -140 219q-27 77 -27 159q0 33 5 68zM678 686q-4 -25 -4 -50q0 -37 8 -77 q10 -55 43 -127q4 -10 33 -55q16 -27 51 -55q37 -29 76 -46q43 -16 110 -20q84 0 168 25q68 20 129 57q51 31 94 78q49 53 72 80q37 57 53 88q37 68 45 90q18 46 31 92q10 41 15 90q1 12 0 24q0 41 -9 74q-12 43 -51 93q-16 25 -39 40q-23 18 -63 35q-35 14 -82 25 q-39 8 -92 8q-18 1 -35 1q-65 0 -115 -11q-72 -16 -127 -39q-58 -25 -104 -55q-45 -29 -74 -66q-66 -72 -96 -147q-31 -78 -37 -152z" />
<glyph unicode="P" horiz-adv-x="1701" d="M336 162l12 74q8 49 14 73q10 39 23 131q2 18 4 41t4 49.5t4 40.5q0 96 -4 146q-2 25 -5 74t-5 73q-12 90 -12 140q0 45 4 139q2 4 2 14q0 8 2 12q6 33 35 68q25 31 82 57q55 23 127 33q94 12 141 16l180 7q119 4 180 4q51 0 158 -8q84 -6 152 -21q92 -18 141 -35 q61 -20 121 -49q111 -59 170 -131q56 -67 56 -139q0 -7 -1 -15q2 -47 -24.5 -92t-79.5 -88q-51 -41 -119 -74q-90 -43 -150 -61q-78 -29 -178 -51q-119 -29 -190 -39q-80 -12 -197 -27q-74 -8 -201 -20q-4 -25 -8 -37t-4 -37q0 -49 2 -72q4 -45 8 -69q14 -59 15 -135 q0 -27 -14.5 -53.5t-55.5 -45.5q-82 -20 -131 -20q-74 0 -109 4q-41 2 -71 16q-27 12 -45.5 30.5t-26.5 37.5q-6 14 -6 39zM733 985q-1 -13 -1 -26q0 -45 16 -97q18 -59 55 -119q125 4 237 25q96 18 220 53q51 14 94 31q61 25 86 39q35 20 61 47q27 29 31 55q-6 61 -70 119 q-41 33 -73 49q-43 22 -111 25q-31 2 -62 1.5t-63 -1.5q-63 -2 -125 -12q-51 -8 -115 -29q-59 -20 -94 -41q-43 -27 -63 -55q-23 -33 -23 -64z" />
<glyph unicode="Q" horiz-adv-x="1892" d="M227 594q-2 11 -1.5 20.5t1.5 20.5q10 119 64 227q57 115 158 215q49 51 112 99q68 49 152 88q82 39 186 63q101 25 221 25h28q95 0 175 -19q104 -25 166 -55q78 -39 127 -82q63 -57 90 -92q74 -98 100 -201q22 -82 22 -169q0 -21 -1 -42q-6 -49 -19 -102 q-12 -51 -36 -101q-31 -59 -66 -100q-41 -45 -107 -90q51 -51 105 -86l125 -80q14 -14 39 -43q14 -16 14 -35q0 -6 -2 -12q-10 -33 -49 -51q-47 -25 -105 -27q-8 -2 -24 -2q-4 0 -13.5 -1t-13.5 -1q-82 66 -129 96q-71 46 -166 80q-20 -25 -65 -51q-31 -18 -90 -41 q-45 -16 -107 -27q-51 -8 -117 -8q-106 0 -180 17q-84 18 -151 45q-76 29 -129 63q-37 23 -103 76q-90 74 -147 162q-51 80 -62 178q0 29 -2 43zM604 553q0 -8 1 -29.5t1 -34.5q0 -34 6 -67q6 -37 21 -68q14 -33 45 -59q29 -27 80 -45q49 -18 123 -25q41 0 71 8q45 12 64 21 q27 12 47 28.5t27 34.5q-29 23 -74 52l-78 51q-33 20 -66 53q-23 23 -30 62q0 14 10 24q8 10 31 19q23 10 45 12q35 4 53 2q70 -4 102 -10q61 -12 93 -23q47 -16 79 -35q37 -20 58 -41q31 27 43 49q15 28 24 56q6 18 11 53q2 10 4 28.5t4 26.5q2 34 1.5 68t-1.5 70 q-2 63 -27 139l-12 30.5l-12 30.5q-10 27 -39 60q-25 28 -68 49q-41 20 -108 26q-88 -6 -152 -34q-61 -29 -107 -64q-47 -37 -75 -78l-58 -78q-57 -84 -94 -180q-33 -88 -43 -182z" />
<glyph unicode="R" horiz-adv-x="2189" d="M338 266q4 45 8 72q2 12 7 35.5t7 36t7.5 37t7.5 36.5q8 37 15 76t16 78q20 102 28 154q1 12 1 24q0 35 -7 72l-18 98q-10 41 -15 92q-1 12 -1 25q0 30 5 69q2 23 21 52q16 27 43 47q29 23 69 37q43 15 99 18q188 12 383 18q152 5 281 5h104q84 0 125 -7q78 -12 116 -22 q57 -16 103 -37q61 -29 86 -45q27 -16 72 -53q35 -29 55 -57.5t31 -63.5q9 -29 8 -54v-12q0 -35 -18.5 -65.5t-53.5 -59.5q-43 -37 -78 -55q-66 -37 -92 -49q-94 -49 -225 -88q-123 -37 -268 -49q131 -45 280 -103q135 -52 264 -110l109 -49q74 -33 106 -52q55 -31 92 -57 q39 -27 70 -65q2 -2 4 -10.5t2 -10.5t2 -10t2 -10q2 -6 2 -21q0 -6 -8 -18q-6 -23 -26 -43q-23 -23 -70 -29q-35 -5 -67.5 -5t-61.5 5q-68 10 -111 26.5t-90 43.5q-25 14 -76 51l-90 61q-43 31 -96 58q-197 92 -321 143q-172 70 -340 129q-25 -31 -31 -63q-8 -43 -10 -70 q0 -43 2 -64l4 -63v-12q0 -26 -10 -72q-10 -49 -27 -82q-25 -41 -74 -70q-39 -22 -94 -21q-13 0 -27 1q-51 2 -106 16q-45 10 -78 37q-18 23 -33 49q-10 20 -10 52q-5 29 -5 53q0 10 1 20zM825 909q0 -31 6 -61q6 -33 23 -60q115 0 233 23q100 18 218 53l96 31q49 15 92 37 q49 25 70 43q27 23 32 53q1 5 1 11q0 18 -7 34q-8 18 -35 39q-23 16 -61 27q-35 9 -71 8h-17q-60 2 -121 1.5t-121 -1.5l-239 -4q-34 -6 -50 -19q-18 -14 -22 -26q-8 -18 -10 -33q-6 -27 -6 -29l-7 -63q-4 -41 -4 -64z" />
<glyph unicode="S" horiz-adv-x="1974" d="M274 791q-1 13 -1 26q0 20 3 37q6 55 31 94q31 51 70 90t98 82q63 45 121 76q55 29 145 64q76 29 164 51q72 18 182 32q67 9 144 9h45q125 0 237 -15q133 -16 224 -41q100 -27 184 -71q80 -43 121 -103q2 -2 5 -7t5 -7q6 -12 6 -16q0 -14 -10 -18.5t-27 -8.5 q-20 -4 -34 -4q-23 0 -33 2q-78 4 -135 14q-96 18 -131 27q-68 10 -135.5 22.5t-139.5 12.5q-25 1 -50 1q-89 0 -187 -16q-119 -18 -220 -55q-59 -18 -94 -35q-35 -18 -76 -47q-33 -25 -51 -51q-20 -29 -22 -59q-6 -23 4 -41.5t39 -34.5q23 -12 65 -23q30 -7 62 -7 q11 0 22 1q63 0 125 6q31 2 62.5 5t64.5 5l127 13q61 6 127 6q49 0 143 -8q78 -6 136 -21q80 -18 120 -35q47 -18 99 -51q80 -55 104 -119q16 -43 17 -88q0 -22 -5 -45q-6 -49 -47 -96t-100 -86t-139 -73.5t-162 -59.5q-174 -57 -360 -84q-175 -25 -335 -26q-30 0 -59 1 q-137 10 -233 29q-135 27 -219 47q-6 14 -23 39q-2 4 -22 39q-4 6 -19 41q-8 18 -8 43l4 12l29 6q49 -2 96 -12q16 -4 49 -9l47 -7l99 -15q66 -8 100 -10q57 -2 182 -2q63 0 195 12q109 10 188 27q88 18 162 47q70 27 115 70q45 41 51 96q0 18 2 29q0 6 -4 30q-2 14 -19 27 q-10 8 -51 12q-25 0 -78 -1t-80 -1q-53 0 -155 -4q-51 -2 -156 -2q-53 0 -155 -4q-41 0 -132 4q-45 2 -131 10q-43 4 -125 21q-63 12 -112 33q-49 22 -80 49q-35 33 -47 55q-15 31 -19 64z" />
<glyph unicode="T" horiz-adv-x="2023" d="M264 1231q6 15 25 24q14 6 43 15q33 8 51 10q8 0 24.5 1t24.5 3q137 10 434 27q143 8 434 16q162 6 324 6q158 0 322 -6q51 -4 86 -14q49 -14 71 -29q35 -18 56 -33q23 -16 32 -41q0 -25 -24.5 -43t-67.5 -28q-51 -12 -88 -15q-10 0 -28.5 -2t-33 -3t-26.5 -1 q-59 -3 -125 -3q-41 0 -88 1q-35 2 -106.5 2t-106.5 2l-49 -217q-10 -43 -25.5 -125l-17.5 -92l-45 -217q-16 -80 -51 -217q-12 -25 -27 -68q-16 -49 -31 -71q-22 -34 -61 -62q-35 -23 -111 -37q-21 -1 -38 -1q-36 0 -64 5q-47 8 -88 25q-37 14 -61.5 38.5t-14.5 51.5 q4 51 12 92q8 35 29 88q8 31 29 93q16 45 30 92q8 23 27 94q8 33 16 90l7 113q2 28 1.5 55.5t-1.5 54.5q-2 37 -15 111q-8 51 -30 108l-287 -6q-96 -2 -289 -10q-33 6 -39 18q-6 8 -10 15q-2 4 -6 8t-8 12q-4 14 -9 35q0 2 -3 14.5t-3 20.5z" />
<glyph unicode="U" horiz-adv-x="1849" d="M313 506q0 70 9 121l16 121l24 122l25 121l2 19l4 16l-2 10q2 20 -4 45l-6 24.5t-6 23t-4 22.5t-4 23q-4 31 0 47q9 25 36 43q29 18 68 32q45 18 84 27q47 10 92 12q84 -18 123 -49q45 -35 59 -74q16 -43 17 -84q0 -57 -2 -81q-10 -68 -23 -134q-18 -96 -26 -131 q-12 -90 -21 -135q-16 -90 -20 -135q0 -43 6 -86q6 -45 26 -86q12 -25 25 -39q18 -20 37 -35q18 -12 55 -26q35 -12 78 -13q66 2 115 19q41 12 86 39q29 16 61 53q16 18 41 59q12 20 29 62q20 51 22 55q25 123 49 270l43 271q6 39 19 78q14 43 35 75q27 37 35 45 q20 20 47 37q18 10 59 23q25 7 57 7q10 0 21 -1q37 -6 80 -19q45 -14 67 -28q35 -18 56 -33q25 -18 24 -41q-12 -18 -29 -35q-6 -6 -12 -11t-10 -10t-12 -14q-23 -35 -29 -71q-4 -27 -8 -72q0 -49 2 -71.5t2 -69.5q-1 -10 -1 -22q0 -18 3 -50q1 -15 1 -29q0 -22 -3 -43 q-8 -94 -41 -200q-33 -104 -98 -199q-35 -49 -107 -108q-70 -59 -139 -95q-76 -39 -174 -63q-81 -21 -181 -21h-28q-21 -1 -42 0q-72 0 -132 9q-78 12 -158 34q-84 25 -137 52q-63 33 -109 67q-90 68 -137 158q-36 70 -36 142q-1 15 1 30z" />
<glyph unicode="V" horiz-adv-x="1859" d="M293 1225q2 6 12 16t23 16q8 4 28 13q4 2 14.5 6t14.5 6q20 8 33 10q6 2 17 4t17.5 2t18.5 2.5t18 2.5l37 4q72 -2 119 -27q41 -20 63.5 -55t30.5 -68q8 -35 23 -65q2 -25 7 -70l9 -82t8 -70q20 -147 35 -221q8 -43 10 -59q2 -29 23 -58q4 -6 6 -13t4 -10t4 -9t6 -13 q10 -25 22.5 -37t37 -26t53.5 -16q51 23 82 53q35 35 53 61q14 20 39 66q12 23 41 63l88 154q43 77 80 153l78 111q29 41 86 109l17 16q17 16 26 27q29 33 45 47t61 39q27 14 82 24q57 -10 93 -28q57 -31 71 -41q20 -16 56 -52q20 -20 30 -55q0 -31 -14 -53q-16 -25 -45 -51 l-58 -52l-57 -51q-53 -66 -76 -98l-69 -98q-49 -86 -86 -144l-90 -141l-107 -139q-74 -90 -119 -135q-43 -43 -71 -64q-53 -39 -97 -57q-70 -31 -120 -43q-59 -14 -144 -15q-49 4 -82 19q-37 16 -55 35q-29 45 -49 88q-51 113 -53 118q-20 49 -35 119q-23 94 -33 125 q-20 68 -31 123q-43 150 -100 287q-51 125 -127 282q-2 2 -2 7q0 6 -2 8z" />
<glyph unicode="W" horiz-adv-x="2412" d="M301 596q-1 15 -1 28q0 21 3 40q10 98 29 167q23 88 55 168l59 109q23 47 72 98q45 49 103 80q61 34 159 49q10 1 20 1q46 0 74 -13q33 -14 49.5 -41t16.5 -49q0 -35 -2 -49q-16 -57 -26.5 -86t-37.5 -82q-6 -16 -20 -35q-16 -20 -23 -33l-43 -92q-20 -43 -38 -90 q-18 -46 -31 -92q-12 -43 -19 -94q-2 -13 -1 -26q0 -35 12 -73q14 -45 55 -96q49 27 106 82q41 39 78 88q27 35 56 94l45 96l41 97l45 94q6 31 18 61l29 62q6 10 24 28q14 14 39 29q20 12 53 19t54 6h12q61 0 104 -13q41 -12 70 -30q31 -20 45 -43t25 -54q10 -29 12 -53 q2 -23 10 -49q8 -63 10 -100l7 -99q12 -92 43 -178q33 -90 94 -170q43 37 65 74q23 35 39 80q8 23 23 82q0 4 7 34.5l11 47.5q20 100 29 176q6 51 22 176l13 86q8 53 16 84q16 41 19 47q8 25 20 37l8 14l17 17l36 18q14 6 25 4q82 -2 143 -29q59 -25 93 -57q37 -37 51 -74 q16 -41 18 -75q0 -20 -4 -58q-4 -41 -10 -57q-12 -70 -17 -96q-4 -33 -8 -99q3 -22 0 -43q-4 -23 0 -45v-45q0 -14 -4 -43q-12 -88 -45 -168q-35 -88 -100 -164q-41 -49 -70 -77q-37 -37 -94 -72q-63 -39 -125 -57q-76 -23 -158 -29q-14 -1 -29 -1q-36 0 -75 5 q-49 6 -92 18.5t-80 31t-64 38.5q-35 25 -57 47q-33 33 -47 49l-43 50l-41 51l-41 -66q-25 -37 -51 -67q-35 -39 -68 -66q-31 -25 -86 -53q-49 -25 -110 -37q-72 -14 -140 -14q-78 4 -133 16q-59 14 -114 37q-47 18 -91 49q-39 27 -61.5 59.5t-40.5 83.5q-18 49 -23 84 q-8 55 -10 88q-4 53 -8 84q2 17 2 34t-2 34z" />
<glyph unicode="X" horiz-adv-x="1945" d="M311 162v16q12 55 51 107q27 35 95 98q51 47 112 94q16 12 115 94q43 37 88 72q41 33 82 74q-16 27 -57 76l-29.5 34.5t-36.5 40.5l-69 74q-35 37 -68 76l-53 59l-52 60q-25 31 -43 61q-16 29 -20 66q2 14 18.5 26.5t38.5 18.5q47 12 52 12l57 6q10 2 30.5 3t30.5 1 q31 2 60 -4q27 -6 43 -16q8 -4 16 -10.5l16 -12.5q39 -29 80 -69l26.5 -25.5t21 -21t24.5 -25.5q51 -49 94 -100q29 -35 94 -101q66 78 105 115l119 110q41 29 57 46q29 29 55 47q47 33 64 41q37 18 86 30q57 -4 88 -12q49 -14 74 -29q33 -20 51 -41q16 -20 20 -45 q-8 -43 -38.5 -94t-69.5 -90q-37 -37 -94 -84q-49 -41 -107 -82l-113 -80q-57 -39 -110 -80q37 -43 80 -86l88 -82l92 -81l92 -84l68 -62l67 -61l64 -64q35 -35 53 -63q-12 -14 -33 -27q-14 -8 -51 -20q-20 -12 -55 -19q-10 -2 -32 -5t-32 -5q-74 4 -123 20q-57 20 -96 45 t-78 58t-76 55q-104 96 -149 141l-145 144l-123 -140l-119 -139q-37 -33 -57 -55q-25 -27 -62 -57q-35 -29 -82 -48q-49 -20 -110 -22q-39 4 -72 12q-41 12 -59 23q-29 16 -39 30q-14 16 -15 39v17z" />
<glyph unicode="Y" horiz-adv-x="1712" d="M299 995q-3 31 -3 62q0 56 11 112q4 25 18.5 45.5t43.5 38.5q27 18 65 31q41 14 86 16q53 0 78 -10q27 -10 47 -30q18 -18 27 -37q16 -35 16 -39q8 -82 16.5 -123t20.5 -123q8 -27 20 -47q16 -27 39 -43q20 -16 66 -31q37 -12 90 -12q68 15 117 43t86 61q57 51 69 68 q27 33 66 67q20 20 61 70l64 70q31 34 67 67q41 37 80 64q23 10 60 14q32 3 45 3q10 0 18 -1q41 -2 88 -16q49 -14 74 -29q37 -23 51 -39q20 -23 23 -47q-2 -31 -23 -67q-16 -31 -49 -64q-53 -53 -65 -63l-68 -62l-172 -137q-115 -94 -164 -143q-84 -98 -149 -183l-140 -184 l-55 -82q-37 -53 -53 -80q-10 -10 -31 -35q-15 -18 -37 -37q-16 -14 -49 -28q-37 -16 -68 -19q-63 0 -112 13q-47 12 -86 37q-29 18 -51 51q-18 29 -13 57q6 51 39 111q25 45 76 106q43 53 96 103l105 100q-109 0 -176 18q-84 23 -139.5 53.5t-100.5 75.5q-43 43 -66 82 q-49 84 -59 172z" />
<glyph unicode="Z" horiz-adv-x="1914" d="M354 150l11 34q4 20 12 33q35 51 61 82q23 27 76 80q39 39 82 76l86 75l190 156l199 152l203 149l205 152q-4 0 -152 12q-61 5 -114 5q-21 0 -42 -1h-81q-27 0 -84 -4h-80h-80q-94 -4 -141 -4q-23 0 -69 2t-71 2l-80 6q-39 2 -69 12q-31 8 -47.5 20.5t-14.5 29.5 q35 39 109 65q72 25 155 37q96 14 175 16q63 2 168 11l163 4h82h82q25 0 72 -3t55 -3q66 -2 131 -13q65 -9 123 -24.5t105 -36.5q43 -20 71.5 -49t30.5 -64q0 -39 -18 -76q-20 -41 -46 -73q-33 -43 -61 -70q-18 -18 -74 -68l-221 -176l-231 -170l-103 -75q-80 -57 -100 -74 q-43 -33 -92 -78q-45 -41 -82 -82q203 6 405 25q186 16 398 47q8 2 22 2q8 0 25 4q20 2 41 1.5t43 -1.5q41 -2 78 -12q35 -8 57 -25q14 -10 13 -25q0 -7 -3 -16q-12 -28 -37 -49q-31 -27 -75 -37q-168 -35 -381 -59q-125 -14 -394 -35q-25 -2 -67.5 -5t-77.5 -5t-68 -2 q-28 -1 -57 -1l-158 5q-33 2 -86 18q-39 12 -75 29l-15.5 8l-15.5 8q-4 2 -15.5 7t-15.5 10q-16 12 -22 18q-9 9 -13 23z" />
<glyph unicode="[" horiz-adv-x="1347" d="M319 674q0 66 15 155q4 35 16 121q8 51 25 119q14 57 41 121q27 61 63 117q6 4 15 12q4 4 18 8q205 25 367 27q184 3 362 -19q45 -8 68 -14q33 -10 53 -25q31 -23 37 -30q12 -18 12 -35q0 -12 -4 -16.5t-16 -12.5q-6 -4 -23 -12l-20 -10q-31 -12 -58 -17q-37 -6 -65 -4 q-66 6 -201 10q-98 2 -199 0v-4l-6 -18q-2 -6 -10 -19q-4 -6 -8 -18l-6 -18q-8 -100 -15 -144l-16 -141l-19 -145q-6 -47 -10 -146q-2 -14 -4 -25.5t-2 -23.5q0 -2 -2 -21.5t-4 -29.5q-2 -8 -4 -24.5t-4 -24.5q-2 -16 -2 -52q-2 -16 -2 -49q0 -8 1 -24.5t1 -24.5 q111 -8 161 -8q109 0 164 2q23 2 66 2q20 0 65 4q18 0 64 -4q23 -2 59 -14q25 -8 41 -25q14 -14 10 -31q0 -16 -16 -36.5t-37 -32.5q-31 -20 -57 -27q-35 -10 -72 -12q-154 -18 -309 -19q-184 0 -311 11q-25 2 -52 10l-45 12q-31 14 -57.5 37t-38.5 41q-16 23 -22 45 q-6 20 -7 45q-4 78 0.5 151.5t-0.5 149.5v156z" />
<glyph unicode="\" horiz-adv-x="1327" d="M197 1346q10 14 39 24q27 8 63 12q23 2 63 -2q33 -4 58 -12q23 -8 47 -22q14 -8 39 -25l61 -64l18.5 -18t13.5 -12t13.5 -12.5t18.5 -20.5l190 -199q111 -121 174 -204l101 -142l102 -141q27 -33 49.5 -63.5l38.5 -51.5l90 -112q14 -27 31 -54q25 -45 29 -53 q8 -20 16 -53q6 -27 0 -53q0 -10 -6 -21q-8 -12 -20.5 -18t-30.5 -13q-14 -4 -35 -8q-70 4 -111 21q-47 20 -75 43q-37 29 -58 55q-16 20 -53 53q-201 215 -389 449q-176 217 -336 461q-27 33 -47.5 65.5t-46.5 65.5q-8 14 -19 30q-12 20 -16 31l-5 10t-5 11.5t-2 9.5 q-4 17 0 33z" />
<glyph unicode="]" horiz-adv-x="1351" d="M258 137q-4 10 2 15q10 10 16 14q4 2 12.5 5t12.5 5q8 4 21 12q37 12 57 17q35 6 63 4q68 -4 199 -8q68 -2 203 -2v2q8 31 14 39q14 20 16 36q8 94 15 142l16 139q12 98 17 145l12 146q0 27 6 51q2 8 3 16.5t2 18.5t1 16q0 8 4 25.5t4 25.5q2 16 2 50q6 23 2 51 q-4 33 -2 49q-111 8 -163 8q-106 0 -162 -2q-23 -2 -66 -2q-20 0 -65 -4q-20 0 -66 4q-33 2 -57 12q-27 10 -41 25q-16 16 -10 33q4 18 16 35q14 18 39 32q25 16 57 25q35 10 72 12q143 16 309 21q145 2 309 -11q33 -4 52 -8q29 -6 45 -14q29 -12 59 -35q20 -16 39 -41 q10 -16 18 -45q6 -25 7 -45q2 -49 2 -152v-151v-156q0 -77 -13 -153q-2 -20 -8 -61.5t-8 -61.5q-6 -35 -27 -121q-8 -35 -43 -121q-23 -55 -65 -119q-2 -2 -6 -5t-6 -5q-6 -6 -17 -8q-193 -23 -366 -23q-203 0 -361 17q-78 10 -121 39q-49 32 -51 67z" />
<glyph unicode="^" horiz-adv-x="1265" d="M229 770q10 39 33 74q23 33 55 69q31 34 68 68q20 18 37.5 35.5l32.5 32.5q45 31 77 61q33 29 80 64q49 35 93 59q49 28 116 43q72 -12 133 -39q57 -27 99 -57q39 -31 77 -70q47 -47 72 -68l62 -69q29 -31 55 -72q23 -33 35 -72q12 -37 6 -77q-2 -14 -19 -27 q-10 -8 -38 -20q-16 -6 -50 -15q-29 -6 -53 -6q-8 0 -22.5 -1t-22.5 -1q-14 0 -43 4q-14 2 -39 10q-18 6 -26 17q-55 80 -113 153l-123 150l-127 -152l-129 -153q-8 -12 -16 -15q-16 -4 -26.5 -6t-35.5 -2h-33q-49 4 -71 8q-37 6 -64 19q-35 10 -51 22q-23 17 -29 33z" />
<glyph unicode="_" horiz-adv-x="2111" d="M252 90q33 27 78 45q43 16 100 27q74 12 115 14l123 6q41 2 123 2q41 0 114 4q55 3 111 0q37 -2 110 -2q39 -2 113 -2q18 0 56 -1t59 -1h125q86 -4 125 -4q41 -2 120 -2h123q8 -2 38 -8t48 -10q51 -14 80 -27q37 -16 51 -37q16 -23 -2 -47q-25 -22 -67.5 -31t-85.5 -12 q-750 -9 -1499 0q-29 2 -62 10q-28 6 -49 19q-29 16 -37 26q-10 13 -10 31z" />
<glyph unicode="`" horiz-adv-x="491" d="M283 1712q0 10 12 23q6 6 27 18q10 6 38 14q22 6 43 7q70 -6 121 -33q45 -25 74 -60q25 -31 41 -69q8 -20 16.5 -39t12.5 -31q2 -8 2 -26q0 -8 -8 -25q0 -14 -19 -21q-33 -12 -41 -12q-76 0 -131 23q-53 23 -88 53q-37 33 -55 65q-8 12 -35 68l-6 12.5t-4 10.5 q-4 10 0 22z" />
<glyph unicode="a" horiz-adv-x="1927" d="M229 197q0 55 13 110q14 66 32 113q33 84 48 112q12 27 55 109q59 115 116.5 213t139.5 209l90 92q49 49 111 90q59 41 145 72q84 31 192 37q90 0 168 -23q76 -23 127 -53q47 -29 90 -76q39 -43 60 -80q27 -45 43 -88q25 -61 35 -92q12 -39 26 -90q6 -23 13.5 -46.5 t13.5 -45.5q39 -158 45 -180q27 -84 78 -179q18 -29 39 -57q10 -12 35 -57q14 -25 20 -58q3 -14 3 -26q0 -16 -5 -33q-6 -25 -20 -43q-12 -16 -39 -37q-25 -18 -58 -31q-31 -10 -80 -14q-25 -3 -47.5 -3t-44.5 3q-47 6 -78 21q-45 20 -59 34q-25 25 -27 43q-4 61 -16 103 q-14 45 -25 100q-49 -2 -97 -1.5t-97 1.5q-68 0 -100 2q-46 3 -72 3q-16 0 -31 -1q-55 0 -170 -4t-172 -10q-18 -39 -51 -90q-29 -45 -49 -88q-2 -4 -12.5 -16.5t-14.5 -20.5q-10 -18 -35 -39q-22 -18 -49 -31q-27 -12 -72 -12q-49 2 -104 16q-51 12 -78 37q-18 23 -26 51 q-5 17 -9 54zM799 539q109 -2 323 -2h328q-16 78 -34.5 155.5l-35.5 155.5q-8 18 -14 36.5l-12 37.5q-12 37 -33 71q-23 37 -51.5 70t-77.5 59q-68 -35 -100 -59q-35 -29 -74 -70q-43 -47 -59.5 -71.5t-45.5 -73.5q-41 -78 -65 -156z" />
<glyph unicode="b" horiz-adv-x="2084" d="M311 295q0 40 13 80q12 43 28 80q27 100 29 110q8 41 16 111q7 97 7 193q0 32 -1 65q-4 131 -12 260q35 23 82 45q55 25 100 39q63 18 111 29q10 2 119 18q133 16 241 23q123 6 244 6q41 0 127 -4t127 -9q47 -4 121 -16q43 -6 115 -27q55 -15 98 -36q41 -20 72 -52 q27 -27 43 -59q14 -29 14 -61q0 -31 -20 -72q-16 -35 -50 -70q-33 -37 -73 -65q-68 -49 -86 -60q104 -25 178 -67q70 -41 119 -97q78 -86 78 -182q0 -16 -3 -33q-12 -63 -63 -114q-55 -55 -135 -97q-100 -51 -185 -79q-115 -39 -211 -58q-227 -51 -456 -65q-115 -7 -225 -8 q-124 0 -244 10q-100 6 -150 33q-55 29 -94 67q-35 41 -55 80q-19 35 -19 71v11zM723 365q-2 -15 -2 -33t2 -33q2 -20 14 -61q52 -2 107 -3l194 7q137 8 293 39q63 14 131 36q61 20 110.5 53t74.5 66q29 39 26 74q5 13 5 26q0 17 -9 35q-16 31 -51 56q-37 25 -90 37 q-48 11 -97 10h-22q-104 -4 -197 -19q-68 -12 -182 -39l-82 -24q-29 -8 -82 -29q-51 -20 -71 -31q-39 -23 -60 -38q-6 -20 -10 -66v-31.5t-2 -31.5zM770 877q2 -14 2 -43v-41l80 12t72 10q117 18 161 27q106 20 158 32q72 16 139 44q57 23 109 59q43 31 61 76q2 6 3 13 q0 11 -7 24q-8 18 -32 34q-16 10 -58 23q-23 6 -74 6q-127 0 -188 -2q-113 -4 -186 -18q-53 -12 -82 -23q-41 -16 -70 -33q-31 -18 -51.5 -38.5t-24.5 -47.5q-4 -12 -4 -16t-1 -8t-1 -9q-2 -8 -2 -20t-2 -20q-3 -20 -3 -29q0 -6 1 -12z" />
<glyph unicode="c" horiz-adv-x="1914" d="M242 614q8 119 77 242q66 117 197 225q63 57 137 103q80 49 176 88q100 41 209 61q99 19 209 19h31q150 -2 283 -41q127 -37 225 -97q55 -31 92 -57q51 -37 76 -63q33 -35 49 -70q18 -37 18 -74q1 -7 2 -13q0 -11 -6 -22q-10 -18 -28 -34q-14 -12 -50 -23q-23 -7 -51 -7 q-10 0 -20 1q-70 0 -127 22q-51 20 -86 52q-41 41 -60 63q-16 20 -57 66q-18 15 -43 30q-18 10 -59 23q-45 12 -70 16t-76 4q-94 0 -162 -20q-76 -23 -122 -53q-57 -37 -93 -72q-43 -43 -67 -76q-59 -82 -98 -170q-37 -86 -43 -174q-5 -34 -5 -62v-22q4 -43 13 -82 q14 -35 28 -59q20 -35 45 -53q28 -22 68 -37q43 -16 94 -17q19 -1 39 0l170 7q98 6 203 32q51 12 86 29l82 37q37 14 96 29q51 12 109 12q10 1 18 1q26 0 45 -7q25 -9 37 -25q14 -18 14 -33q0 -23 -4 -32q0 -18 -8 -33q-27 -35 -55 -53q-47 -31 -82 -45q-55 -23 -99 -35 q-31 -10 -102 -31q-111 -29 -213 -49q-104 -20 -227 -21h-28q-84 0 -175 15q-100 16 -178 45q-88 33 -148 69q-76 47 -112 84q-98 86 -140 187q-36 88 -35 175q0 12 1 25z" />
<glyph unicode="d" horiz-adv-x="1880" d="M297 307q4 98 10 144l17 143q23 82 36 151l29 152q6 16 6 33q0 4 1 14t1 17v30q0 20 2 31l7 63q2 25 10 64q10 33 24.5 65.5t53.5 61.5q37 28 98 43q61 14 131 18q164 8 248 9q141 0 250 -9q111 -8 239 -32q106 -20 213 -64q88 -37 156 -94q59 -49 96 -113 q35 -57 47 -125q9 -47 9 -97q0 -15 -1 -30q0 -63 -26 -137q-25 -68 -76 -135.5t-117 -126.5q-76 -68 -153.5 -119t-188.5 -102q-106 -49 -227 -82q-125 -35 -256 -49q-81 -9 -160 -9q-59 0 -117 5q-47 2 -88 12q-45 10 -75 24q-39 18 -62 33q-37 25 -53 37q-41 49 -59 84 q-21 43 -25 90zM707 539q0 -51 10 -117q8 -57 37 -113q22 -1 43 0q74 0 139 8q98 14 170 33t147 58q66 33 113 73q55 39 94 82q39 41 64 88q25 46 37 92.5t18 92.5q0 23 -2 35t-2 34q-8 31 -10 51q-4 25 -17 52q-16 33 -30 47q-20 20 -62 39q-49 18 -88 26q-31 6 -96 15 q-49 6 -103 6q-18 0 -51 1t-51 1q-18 -2 -53 -2h-56q-16 -2 -51 -2q-8 0 -25.5 -1t-25.5 -1q-43 -39 -65.5 -86t-34.5 -90q-8 -33 -17 -91q-8 -61 -14 -90q-2 -31 -5 -61.5t-5 -59.5q-4 -38 -8 -120z" />
<glyph unicode="e" horiz-adv-x="1964" d="M283 467q4 68 14 123q18 88 29 125q12 41 41 123l45 123l47 120q8 23 53 121q29 33 70 49q59 23 100 33q74 16 115 23q80 10 114 16q207 23 389 25q73 1 134 1q124 0 229 -6q29 0 82 -8q27 -4 67 -22q29 -12 47.5 -30.5t14.5 -41.5q0 -16 -14 -31q-16 -16 -37 -24 q-18 -6 -56 -15q-20 -4 -61 -4h-133q-90 0 -135 2q-23 1 -46 1l-139 -7q-119 -12 -178 -24q-43 -10 -80 -21q-27 -8 -71 -31q-41 -20 -56 -34q-25 -25 -32 -43l-13 -37q-8 -25 -8 -35q-2 -12 0 -23q0 -4 2 -11t2 -11q129 4 228 14q68 8 227 21q147 16 223 22q85 7 171 7 l56 -1q53 0 80 -4q41 -6 72 -18q33 -12 47 -30.5t8 -41.5q0 -31 -30.5 -49t-77.5 -31q-45 -12 -101 -18q-29 -4 -100 -8q-74 -4 -146.5 -7.5t-146.5 -7.5q-127 -6 -291 -22q-82 -14 -135 -35q-61 -25 -104 -55q-45 -33 -66 -68q-23 -41 -20 -76q-2 -15 -2 -28q0 -42 14 -84 q18 -55 47 -113q135 14 275 47q61 14 260 68l127 33q80 18 133 28q84 16 139 23q71 9 141 12q11 1 23 1q17 0 55 -3q37 -2 72 -12q29 -8 61 -23q23 -10 43 -31l2 -6q-53 -41 -135 -75q-47 -20 -168 -58q-119 -37 -182 -51q-74 -16 -180 -47l-191 -45q-170 -39 -194 -43 q-131 -25 -199 -33q-119 -14 -205 -14q-68 4 -117 14q-53 12 -92 35q-25 16 -53 55q-10 12 -35 58q-45 76 -55 135q-14 78 -14 139z" />
<glyph unicode="f" horiz-adv-x="1562" d="M295 233q0 31 4 48q8 33 10 49l17 100q10 55 10 102q6 33 4 60q-2 31 0 57q0 41 2 62l6 61q8 39 8 82t6 82q4 53 9 78q2 14 4 26.5t4 22.5t4 29q2 6 2 16t2 14t4 14.5t2 14.5q10 23 35 41q12 8 55 31q37 18 70 26q45 12 78 17q111 16 166 22l168 19q51 6 143 14 q98 8 145 14q94 4 140 4q94 0 139 -4q59 -6 98 -20q49 -18 80 -37q14 -10 31 -21q4 -4 15 -11t16 -11q8 -8 20 -25q8 -10 8 -26q-10 -18 -33 -25q-33 -8 -53 -10q-41 -4 -63 -4q-43 0 -60 -2q-72 -2 -217 -2q-94 0 -213 -11q-35 -4 -100 -16q-49 -9 -92 -24q-41 -14 -78 -35 q-29 -16 -51 -45q-27 -35 -43 -78q-14 -37 -15 -80q-2 -14 0 -29q78 0 117 2l121 6q20 0 60 1.5t61 3.5q29 2 59.5 1.5t61.5 -1.5q47 0 141 -5q57 -2 133 -20q63 -23 82 -53q16 -25 16 -53q0 -8 -2 -17q0 -18 -20 -33q-18 -12 -58 -16q-49 -8 -73 -8h-72q-55 -2 -168 -2 q-57 0 -172 -4q-94 -4 -166 -15q-78 -12 -149 -37q-12 -20 -19 -47q-4 -18 -8 -47q-2 -8 -2 -23.5t-2 -23.5l-6 -47q-4 -35 -8 -104.5t-4 -104.5q-2 -10 -11 -45q-6 -27 -24 -47q-18 -23 -52 -37q-28 -13 -68 -13q-8 0 -18 1q-74 6 -116 26q-47 20 -72 48q-27 27 -39 61 q-10 28 -10 63z" />
<glyph unicode="g" horiz-adv-x="1968" d="M240 655q2 57 26 129q23 70 64 127q43 61 106 119q72 63 148 111q76 49 184 94q86 35 225 68q113 27 248 38q86 8 172 9l86 -2q49 0 102.5 -6.5t96.5 -18.5q49 -14 74 -33q27 -20 26 -49q-2 -6 -2 -22q0 -6 -8 -23q-6 -12 -21 -18q-20 -8 -41 -9q-25 4 -32 5h-35 q-50 3 -97 2l-118 -5q-108 -9 -209 -30q-104 -23 -188 -56q-78 -31 -150 -81q-74 -51 -115 -97q-53 -61 -77 -104q-25 -45 -43.5 -110.5t-20.5 -110.5q-2 -14 -2 -33q0 -15 2 -47.5t21 -83.5q14 -41 47 -80q33 -41 82 -68q45 -25 120 -45q71 -18 166 -18q14 -1 27 -1 q32 0 72 5q47 6 94 18q31 8 84 29q43 16 71 37q53 35 97 88q41 51 51 96q8 16 12 53t8 54q2 14 2 45q0 25 -6 47l-104 -6q-53 -2 -107 -13q-18 -2 -51 -5t-51 -5q-42 -5 -77 -5q-15 0 -30 1q-10 -1 -19 -1q-25 0 -52 5q-33 6 -58 19q-20 10 -34 30q-12 18 -7 35l5 19l8 16 l2 2q18 20 59 33q12 4 78 20q74 14 149 31q8 2 64.5 14.5t87.5 16.5q109 16 154 22q72 8 159 8q51 -4 97 -12q20 -4 80 -29q35 -14 63 -36q27 -20 41 -43q8 -14 16 -43q3 -11 3 -22t-3 -21q-6 -57 -24 -109q-10 -27 -18.5 -53.5l-16.5 -52.5q-27 -82 -100 -166 q-72 -82 -181 -150q-63 -41 -114 -65q-68 -33 -140 -54q-80 -23 -157 -34q-73 -11 -139 -11h-29h-30q-90 0 -193 15q-96 14 -196.5 47t-166.5 71q-82 47 -127 91q-109 96 -154 200q-38 90 -38 181q0 18 2 36z" />
<glyph unicode="h" horiz-adv-x="1988" d="M301 299q-1 7 -1 14q0 12 3 35q4 33 8 49q4 25 11 49q4 14 8 52q18 47 32 104q16 70 21 105q3 20 3 49q0 8 -0.5 24.5t-0.5 24.5q0 49 -6 98q-1 22 -1 40q0 29 3 54q8 61 14 95q12 41 19 63q8 33 28 66q23 37 56 59q35 23 100 39q24 1 42 1q36 0 60 -5q49 -10 76 -27 q29 -16 47 -39q14 -16 27 -49q8 -23 8 -51q0 -33 -4 -47q-8 -68 -33 -187l-35 -186q57 -4 164 -8q25 -1 55 -1q18 0 54.5 0.5t54.5 0.5q131 0 197 2q61 2 194 10l8 98l7 99q0 61 -11 137l-6 68q-3 32 -3 47q0 10 1 20q0 20 6 45q6 27 22.5 45.5t51.5 34.5q28 13 72 13 q9 0 18 -1q70 -2 121 -22q51 -18 82 -47q33 -31 45 -62q9 -25 9 -49q0 -7 -1 -14q1 -11 1 -24q0 -19 -3 -56q-4 -53 -4 -80q1 -19 1 -35q0 -25 -3 -47q-5 -32 -5 -58q0 -11 1 -22q0 -76 -2 -112q-2 -28 -2 -56t2 -57q6 -74 10 -225q4 -113 12 -226v-24q-10 -18 -26 -29 q-25 -16 -41.5 -22t-52.5 -15q-18 -4 -60 -8q-18 -2 -35 -2q-28 0 -53 6q-35 8 -61 29q-25 18 -41 41q-10 14 -19 43q-14 51 -16 92q-2 23 -2 46.5t2 47.5q0 8 -1 24.5t-1 24.5v50q0 18 -4 51q-3 25 -13 49q-78 -6 -233 -10q-78 -2 -234 -2q-102 0 -153 2l-150 4 q-20 -70 -28 -105q-12 -52 -13 -104q-2 -20 2 -62l7 -61q4 -41 8 -61q6 -27 2 -60q2 -18 -10 -29q-20 -16 -37 -20q-18 -4 -56 -8q-8 -1 -17 -1q-14 0 -40 3q-86 9 -135 37q-51 29 -76 65q-27 39 -35 80q-9 43 -12 80z" />
<glyph unicode="i" horiz-adv-x="729" d="M287 385q4 106 14 192.5l23 192.5q4 33 11 96.5t11 94.5q2 14 29 190q4 39 8 55q4 23 22.5 55.5t45.5 51.5q33 23 84 37q17 2 33 1l34 -1q23 -2 60 -15q28 -9 49 -24q23 -16 32 -29q28 -55 28 -107q0 -10 -1 -20q-4 -70 -8 -108q-6 -51 -19 -109q-12 -111 -12 -115 q-6 -37 -14 -114q-4 -41 -4 -121q0 -39 8 -121v-113q0 -74 -4 -112l-19 -66q-8 -35 -30 -70q-18 -31 -64 -57q-43 -27 -110 -35h-13q-42 0 -73 17q-45 25 -58 37q-4 6 -11 23.5t-11 25.5q-8 14 -21 47l-18 110q-6 35 -6 64q0 24 4 47z" />
<glyph unicode="j" horiz-adv-x="1914" d="M186 727q6 20 27 29q16 6 53 14q31 6 64 6q12 0 33.5 1t29.5 1l29 -8l6 -4q41 -29 55 -43q23 -23 37 -45q25 -41 29 -47l24 -47q29 -47 35 -60q4 -6 16.5 -27.5l18.5 -31.5l41 -57q22 -28 49 -56q16 -16 62 -45q31 -18 79 -37q43 -16 95 -24q47 -8 110 -8q45 12 62 32 q25 29 28 45q8 33 9 50q0 20 8 49q0 33 2 49q4 25 0 51q2 16 2 51t2 51q7 76 7 162q0 54 -3 113q-6 127 -45 270q-86 8 -135 8q-63 0 -135 11q-59 8 -103 30q-43 20 -65 52q-14 14 -17 24l-6 25q0 6 6 12q8 8 19 10q4 2 12 4t12 4t13.5 2t13.5 3q193 8 384 8q96 0 191 -2 q231 -4 570 -31q25 -6 45 -16q25 -12 33 -21q10 -10 22 -27q4 -4 14 -26q3 -8 3 -14q0 -9 -7 -17q-12 -14 -34 -24q-35 -14 -54 -19q-31 -6 -61 -6q-68 -6 -139 -6q-25 0 -72 -1t-70 -1q2 -72 11 -201q2 -49 6 -99l8 -102q6 -102 6 -204q0 -98 -12 -203 q-10 -57 -30.5 -108.5t-78.5 -104.5q-20 -20 -65 -45q-33 -16 -88 -35q-45 -14 -103 -21q-55 -6 -110 -6q-119 0 -232 23q-102 20 -196 59q-89 37 -160 86q-76 53 -127 99q-49 43 -103 104q-47 53 -77 109q-29 51 -45 114q-10 39 -11 81q0 18 2 38z" />
<glyph unicode="k" horiz-adv-x="2015" d="M311 449q2 31 11 92q4 66 10 96q10 47 12 94q0 8 3 26.5t3 20.5q2 16 2 47q4 12 8 45q0 2 2.5 19.5t4.5 25.5q12 33 18 72q4 25 16.5 74t20.5 74q12 35 35 71q25 37 57 66q39 33 90 55q29 3 51 3q38 0 64 -9q43 -14 69 -41q23 -23 29 -55q6 -35 -2 -58q-2 -20 -14 -41 q-14 -25 -17 -39q-14 -23 -18 -40q-8 -29 -8 -41q-6 -28 -6 -56v-55q70 18 147 49q45 18 137 62l127 65l127 66q70 33 105 51q45 25 106 51q51 23 119 43q61 18 133 25q47 -2 92 -17q43 -12 72 -30q20 -12 45 -46q18 -23 20 -47q-4 -10 -12 -16l-20 -16l-32 -10.5l-38 -12.5 q-23 -10 -72 -20q-23 -6 -42 -12.5t-37 -10.5l-76 -20q-170 -61 -299 -131q-121 -63 -260 -152q63 -47 129 -84q113 -63 137 -78l121 -74l129 -73q70 -39 125 -76q72 -47 112 -80q47 -37 86 -84q31 -37 49 -94q-2 -16 -18 -33q-12 -12 -41 -27q-23 -12 -57 -18 q-23 -4 -64 -8q-57 4 -92 14q-27 8 -72 33q-31 16 -59 39q-6 6 -59 37q-86 70 -177 135l-182 133l-78 49q-33 20 -86 45q-43 20 -100 37q-47 14 -119 21h-26q-18 0 -27 -2q-2 -20 -10 -61.5t-15 -61.5q-8 -27 -12 -60q-4 -41 -4 -59q-2 -23 2 -60q2 -10 3 -29.5t1 -29.5 q2 -14 5 -27.5t5 -25.5l7 -55q0 -31 -25 -62q-18 -12 -47 -12q-39 0 -55 2q-82 2 -146 33q-57 27 -82 67q-23 57 -30 109q-9 52 -9 89v19q-3 43 -3 67q0 15 1 28z" />
<glyph unicode="l" horiz-adv-x="1579" d="M301 342q6 106 35 223l31 115l24 117q2 35 2 100.5t-2 99.5q-1 22 -1 41q0 30 3 56q8 68 15 96q4 27 14 45q14 25 35 43q23 18 59 35q27 12 84 18q23 1 41 1q36 0 59 -5q33 -8 68 -27q23 -12 41 -38q16 -23 22 -48q4 -16 5 -51q0 -16 -5 -45q-12 -84 -36 -168l-52 -168 l-41 -170q-20 -98 -28 -170v-53q0 -35 2 -53q4 -33 8 -51q6 -25 23 -52h27q86 0 184 15q135 20 202 35l119 28q31 8 59.5 16.5t59.5 14.5q63 14 108 27q49 14 113 20q15 2 35 2q17 0 47 -2q39 -2 72 -16q27 -10 43 -31q8 -10 8 -21q0 -10 -6 -20q-23 -43 -70 -72 q-55 -35 -114.5 -57t-141.5 -43l-143 -37q-150 -33 -312 -55q-112 -15 -226 -15q-49 0 -99 3q-82 6 -84 6q-33 4 -80 16q-49 12 -70 23q-37 18 -53 32q-39 43 -51 74q-15 40 -19 80q-6 14 -10 41z" />
<glyph unicode="m" horiz-adv-x="2439" d="M303 465v23q0 116 27 247q25 119 82 269q14 25 24 57q8 27 23 57q18 23 37 58q10 18 43 55l34 33q20 16 45 32q23 14 58 25q39 12 72 14q11 1 22 1q28 0 55 -5q41 -8 62 -20q27 -16 43 -33q20 -20 28 -37q113 -178 191 -338q86 -180 133 -348q49 47 92 102l78 103 l121 166q51 74 127 166q16 20 57 65q37 41 64 68l45 35q18 16 45 34q18 12 49 25q23 8 61 8q98 -14 154 -35q61 -23 102 -61q49 -45 66 -78q25 -47 35 -86q10 -37 14 -88q2 -14 5 -42t3 -40q1 -6 1 -13q0 -20 -7 -57q-8 -43 -10 -69q-8 -33 -12 -70q-2 -23 -11 -67 q4 -53 9 -80q8 -53 14 -80q6 -47 6 -142q0 -78 -16 -141q-2 -6 -4.5 -10l-4.5 -7t-4 -8.5l-4 -11.5q-10 -25 -22 -39q-18 -23 -39 -34q-25 -16 -64 -25q-11 -1 -23 -1q-29 0 -61 5q-37 6 -71 19q-39 14 -56 28q-23 20 -32 37q-12 29 -11 55q2 18 2 58q2 27 7.5 81t7.5 81 q3 40 3 79.5t-3 79.5q0 12 -4 39t-4 41q-4 43 -13 82q-9 40 -24 80q-16 45 -39 80q-58 -108 -129 -215q-53 -82 -148 -213q-41 -47 -67 -88q-20 -31 -70 -88q-39 -47 -86 -84q-51 -43 -117 -72q-37 0 -71 10q-31 9 -56 25q-27 16 -41 31q-23 23 -30 34q-47 72 -82 150 l-70 151l-37 76q-4 8 -11 24.5t-14.5 30l-13.5 23.5q-14 25 -47 74q-25 37 -55 73q-40 -95 -55 -190q-12 -80 -17 -193q-1 -9 -1 -18q0 -23 5 -49q8 -45 15 -68q10 -31 14 -67q4 -45 4 -68q2 -18 0 -33q-2 -10 -6 -34l-6 -19l-8 -14l-17 -15q-29 -8 -41 -10q-25 -4 -32 -4 h-31h-31l-30.5 6t-30.5 4q-33 4 -54 19q-18 10 -36 28q-12 12 -23 33q-28 40 -43 80q-14 37 -25 82q-6 27 -10 82q-4 57 -4 84z" />
<glyph unicode="n" horiz-adv-x="1937" d="M303 158q-1 6 0 13q0 27 8 65q4 14 10.5 33.5t10.5 41.5q23 78 24 84q12 33 17 80q1 18 1 38q0 47 -5 103q-4 47 -9 142q-1 19 0 40q0 33 2 99q4 72 19 139q16 37 22 74q6 41 23 80q18 43 47 72q35 37 100 57q10 1 21 1q24 0 51 -5q31 -6 60 -19q31 -14 49 -26l39 -29 q33 -33 63 -70q49 -59 59 -73l117 -158q47 -63 129 -154q35 -39 72 -75q23 -23 76 -72q37 -35 88 -72q55 -41 100 -65q2 8 5 16t5 17q4 20 6 32l-12 105q-6 52 -6 104q-12 80 -18 168q-5 66 -5 122q0 23 1 44q2 20 6 66q4 35 18 65q8 18 24.5 38.5t34.5 31.5q29 16 48 20 q22 5 42 5q8 0 17 -1q39 -4 66 -12q29 -10 47 -23q22 -15 36 -30q6 -6 14.5 -18.5t10.5 -14.5q40 -68 43 -141q0 -8 -1 -23.5t-3 -23.5q0 -2 -2 -20.5t-4 -29.5q2 -20 -4 -47q-6 -25 -6 -49q4 -111 12 -217l18 -217q8 -59 8 -139q0 -47 -8 -142q-10 -33 -16 -47 q-12 -23 -39 -47q-29 -25 -61 -39q-35 -14 -88 -20q-78 4 -117 18q-59 23 -90 41q-43 27 -76 53l-68 52q-127 109 -194 174q-86 83 -160 166l-117 125q-88 90 -116 122q-4 -39 -9 -112q-2 -28 -1.5 -56t1.5 -57q-3 -31 -3 -64q0 -21 1 -44q1 -14 1 -28q0 -34 -5 -79 q-6 -88 -6 -90q-6 -51 -22 -86q-6 -16 -23 -49q-12 -27 -33 -43q-25 -20 -49 -31q-22 -9 -53 -9q-9 0 -21 1q-47 4 -80 14q-49 16 -67 27q-33 18 -49 35q-21 20 -27 43z" />
<glyph unicode="o" horiz-adv-x="2050" d="M252 674q10 125 80 229q76 113 207 211q70 57 143 94q84 43 178 76q104 35 209 53q89 15 191 15h38q119 0 213 -21q84 -18 177 -57q82 -35 145 -80q57 -41 106 -90q43 -47 84 -100q35 -47 62 -103q25 -51 33 -104q6 -37 6 -70q0 -19 -2 -39q-10 -119 -82 -227 q-74 -113 -205 -209q-78 -59 -145 -94q-80 -41 -181 -76q-104 -35 -209 -53q-89 -15 -192 -15h-39q-117 0 -211 21q-98 22 -178 55q-70 29 -145 80q-59 39 -107 90q-100 98 -143 201q-35 86 -36 169q1 22 3 44zM647 592q0 -41 15 -98q14 -53 38 -97q25 -41 80 -82 q43 -33 127 -59q74 -23 185 -27q123 2 219 29q90 25 155 68q61 41 103 94q41 55 63 110q25 63 33 111q12 76 14 104q2 18 2 39.5t-2 42.5q-4 49 -16 86q-16 45 -43 84q-29 43 -76 72q-49 31 -119 49q-76 20 -170 23h-20q-52 0 -125 -13q-63 -10 -131 -34q-53 -18 -109 -54 q-49 -31 -82 -63q-68 -68 -100 -146q-33 -80 -39 -149q-2 -29 -2 -90z" />
<glyph unicode="p" horiz-adv-x="1619" d="M322 203q-2 29 -2 58q0 80 12 167q4 39 41 227q0 6 2 17.5t4 17.5t4 17.5t2 17.5q1 17 1 38q0 13 -0.5 38.5t-0.5 38.5q0 66 -8 116q-2 36 -2 70q0 78 10 152q12 35 43 59q27 23 80 43q47 18 100 31q70 16 117 22q61 9 122.5 12.5l117.5 6.5q111 0 165 -2q111 -4 166 -9 q72 -6 158 -22q80 -16 143 -39q72 -27 115 -57q53 -39 76 -72q33 -47 43 -80q14 -47 14 -82q0 -47 -35 -92q-35 -43 -90 -84q-53 -39 -127 -74q-94 -45 -141 -65q-170 -70 -348 -117q-190 -51 -385 -78q9 -83 12 -166q3 -78 3 -117q0 -26 -1 -49l-6 -43q-2 -20 -22 -43 q-12 -12 -23 -16q-18 -8 -35 -10q-25 -4 -39 -4q-5 0 -13.5 -0.5t-12.5 -0.5q-7 0 -13 1q-57 2 -110 20q-49 16 -78 39q-33 27 -47 55q-14 31 -12 58zM731 838q0 -35 4 -113q59 0 127 10q82 12 121 23q78 20 115 33q55 18 110 34q59 20 99 37q25 10 92 43q35 16 71 47 q29 23 35 58q0 23 -14 39q-10 14 -39 30q-14 8 -53 25q-20 8 -62 20q-66 16 -145 27q-86 10 -156 10q-49 -4 -75 -4q-35 0 -72 -10q-46 -15 -74 -37q-29 -23 -45 -49.5t-22 -52.5q-4 -18 -9 -52q-8 -55 -8 -118z" />
<glyph unicode="q" horiz-adv-x="1927" d="M248 639q8 78 18 117q16 66 39 116q25 59 64 113q49 68 92 109q43 45 125 100q72 49 170 86q80 31 205 55q87 17 195 17h38q108 0 203 -19q90 -18 172 -53q80 -35 135 -76q59 -43 96 -90q88 -98 121 -194q28 -83 28 -171q0 -17 -1 -34q-8 -66 -21 -113q-15 -55 -43 -110 q-25 -49 -72 -107q-49 -59 -102 -102q12 -35 35 -56q31 -29 61 -47l14.5 -11l14.5 -11q2 -2 8 -7.5l10.5 -9.5t6.5 -8q12 -14 14 -26.5t0 -26.5q-6 -10 -25 -25q-10 -8 -39 -20q-23 -10 -49 -17q-31 -8 -51 -10q-6 -2 -16 -2q-12 0 -19 -2h-30v2q-45 37 -72 53 q-37 23 -72 52q-45 -29 -74 -41q-45 -20 -90 -31q-66 -16 -100 -21q-70 -8 -109 -8q-19 -1 -37 0q-94 0 -184 13q-96 14 -196 47q-96 33 -166 69q-68 37 -121 90q-51 43 -90 95q-33 45 -58 102q-20 47 -26 106q-3 29 -4 63zM635 629q-2 -16 -2 -33q0 -41 10 -90 q10 -55 57 -119q12 -18 48 -53q28 -28 67 -49q37 -20 92 -33q52 -12 117 -12q11 -1 21 -1q52 0 98 13q51 14 98 41l-72 39q-55 33 -67 41q-27 18 -51 47q-20 23 -21 53q4 16 14 27q20 20 29 24q25 12 41 17q31 8 53 10q46 -6 80 -25q39 -23 60 -34l31.5 -18.5t27.5 -16.5 q27 -16 78 -27q49 35 69 64q23 33 39 69q14 35 21 72q2 12 5 35.5t5 36.5q1 16 1 31q0 47 -7 96q-8 63 -45 122q-4 8 -39 58q-22 31 -55 55q-35 25 -82 41q-49 16 -115 16q-14 1 -28 1q-64 0 -132 -11q-80 -12 -143 -37q-74 -29 -117 -57q-51 -35 -76 -72q-33 -39 -51 -78 q-23 -49 -32 -81q-8 -29 -17 -82q-6 -45 -10 -80z" />
<glyph unicode="r" horiz-adv-x="2136" d="M322 313q-1 13 -1 27q0 33 5 70q8 66 18 96l11 51l10 47q12 66 14 101q5 47 5 85q0 16 -1 31q-2 29 -2 57.5t2 59.5q4 41 8 115q2 55 19 114q8 25 18 45q10 18 33 41q43 27 92 41q57 16 106 25q6 2 119 12q84 8 119 10q31 0 63.5 2.5t65.5 4.5q23 0 66 2t63 2q25 0 74 -1 t76 -1q78 0 151 -7q102 -8 148 -16q74 -12 133 -33q74 -25 108 -49q41 -29 68 -65q29 -41 37 -74q9 -38 8 -63v-13q2 -33 -21 -69q-18 -31 -59 -64q-45 -37 -84 -59l-98 -54q-100 -55 -238 -100q-127 -43 -284 -61q106 -57 153 -88q121 -80 139 -93q68 -47 148 -88 q90 -45 182 -69q100 -23 135 -33q66 -18 129 -39q14 -4 39 -16q18 -9 31 -19q14 -10 20 -22q3 -7 4 -16q0 -6 -2 -11q-6 -16 -24 -29q-20 -14 -47 -22q-20 -8 -58 -15q-20 -4 -61 -8q-27 -2 -56 -2q-40 0 -87 4q-76 6 -133 21q-80 18 -123 35q-59 23 -109 45l-199 114 l-192 117l-76 41q-49 29 -78 41q-41 18 -90 31q-46 12 -104 18l-17 -63q-10 -35 -10 -64q-2 -29 4 -63q4 -16 8 -66l7 -61q2 -20 2 -64q0 -6 -4 -30q-4 -20 -12.5 -35t-30.5 -27q-18 -10 -62 -10q-66 6 -104 20q-37 12 -74 39q-31 22 -49.5 49.5t-30.5 55.5q-10 25 -14 57 q0 6 -2 17.5t-3 20.5t-1 17zM721 952q-2 -15 -2 -29.5t2 -29.5q2 -20 10 -57q6 -29 23 -58q137 0 272 19q133 18 254 55q55 18 104 43q47 23 84 51q31 23 54 62q18 31 18 65q0 20 -10 30.5t-33 20.5q-27 12 -49 17q-20 4 -57 8q-41 4 -62 4h-57q-37 -2 -109 -2 q-33 0 -102 -4l-107 -6q-74 -4 -104 -4q-43 -6 -64 -19q-23 -12 -34 -31q-10 -16 -15 -38q-2 -18 -10 -37z" />
<glyph unicode="s" horiz-adv-x="1968" d="M299 266q-2 10 4 23q4 8 21 20q10 8 32 15q18 6 45 2q35 -2 97 -11q31 -4 88 -20q53 -14 88 -27q33 -12 92 -26q55 -10 162 -23q76 -8 174 -8q31 -1 58 -1l83 3q80 6 137 20q68 16 121 37q45 16 96 54q37 27 62 63q17 27 17 60q0 6 -1 12q2 18 2 34q0 37 -10 74 q-4 8 -18 23q-6 6 -31 18q-14 6 -43 15q-16 4 -49 4q-90 0 -176 -13q-18 -2 -54 -7l-65 -9t-53 -8l-172 -25q-75 -11 -145 -11q-16 0 -32 1q-19 -1 -37 -1q-61 0 -114 9q-63 10 -133 35q-55 20 -107 53q-41 27 -67 68q-33 41 -45 69q-14 35 -20.5 72t-6.5 76q0 25 8 74 q10 47 37 77q23 27 78 68q39 29 104 59q55 27 127 50q131 45 287 67q145 20 313 21q137 -4 203 -11q94 -8 189 -34q78 -23 84 -25q39 -14 71.5 -34.5t50.5 -41.5q18 -22 19 -49q2 -18 -17 -31q-14 -10 -49 -16q-41 -8 -65 -8q-43 0 -62 2q-65 3 -123 12l-120 21l-62 11 t-57 9q-66 10 -123 10q-106 0 -188 -16q-102 -20 -166 -47q-47 -18 -74 -33q-29 -14 -57 -41q-23 -18 -39 -43q-14 -20 -19 -47q-4 -29 15 -55q12 -18 41 -51q4 -4 32 -23q16 -10 39 -20q14 -6 47 -15q25 -6 56 -6q78 4 145 18q37 8 137 27q55 14 156 29q55 8 164 12 q72 0 127 -8q61 -9 116 -25q41 -12 101 -39q41 -18 80 -51q74 -53 102 -112q24 -47 24 -99q0 -12 -1 -24q-12 -90 -82 -176q-68 -83 -185 -154q-70 -41 -131 -64q-80 -31 -153 -49q-96 -25 -172 -32q-80 -8 -179 -9q-133 0 -262 18.5t-245 49.5q-74 20 -111 33 q-68 23 -102.5 39t-73.5 51q-33 28 -35 61z" />
<glyph unicode="t" horiz-adv-x="1910" d="M217 1169q4 8 16.5 20.5t24.5 18.5q37 12 115 29q61 12 123 18q90 8 133 15q4 0 133 12q156 18 299 31q49 4 149.5 11t151.5 11q27 0 82 1t82 3q35 1 66 2q50 0 96 -4q37 -2 114 -10q61 -6 113 -18q53 -12 94 -33q43 -23 62 -51q-2 -12 -17 -27q-6 -6 -31 -18 q-14 -8 -43 -15q-14 -4 -51 -8q-29 -2 -58 -1.5t-56 1.5q-74 4 -115 4q-10 0 -35 1t-37 1q-47 0 -72 -2q-70 -6 -71 -6q-49 -8 -68 -16q-12 -33 -16 -66t-12 -63q-31 -172 -41 -238q-2 -10 -31 -237l-17 -179q-8 -55 -10 -88q-4 -61 -8 -88q-2 -8 -5 -25.5t-5 -21.5 q-6 -29 -21 -51q-16 -25 -45 -43q-31 -18 -86 -25q-80 0 -127 21q-49 20 -75 51q-29 31 -37 66q-12 49 -13 65q-4 53 -4 80v78q4 18 17 71q2 8 22 70l53 150q12 35 15 57q2 18 6 59q4 29 4 59q0 51 -12 105q-23 96 -54 164q-70 -4 -102 -4q-45 0 -102 -10q-35 -2 -105 -11 q-53 -6 -102 -6q-20 -2 -66 -2q-47 0 -69 2q-27 2 -66 11q-29 6 -53 16q-20 8 -31 27q-6 10 -6 19q0 8 4 17z" />
<glyph unicode="u" horiz-adv-x="1957" d="M295 621q0 80 4 120q16 80 23 133q9 68 24 136q14 63 41 133q25 66 66 131q10 16 28 24l47 17q45 12 54 12l57 6q19 3 36 4q11 0 23 -2q18 -2 47 -14q18 -8 33 -23q12 -12 19 -26q14 -25 16 -43q4 -29 4 -43v-43q0 -8 -1 -20.5t-1 -20.5q-4 -25 -14 -78l-15 -78 q-14 -70 -36 -151q-8 -31 -21.5 -89.5t-15.5 -66.5q-20 -82 -23 -156q-1 -7 0 -15q0 -29 8 -67q10 -41 47 -77q25 -18 60 -31q43 -16 74 -21q53 -8 82 -10q57 -4 86 -4h24q137 0 227 33q102 37 166 94q61 55 90 125q27 66 27 127q8 70 8 137q0 34 -2 68q-4 84 -37 200 l-18 80q-10 45 -10 78q0 23 4 37q6 20 22 41q12 14 45 29q29 12 76 12q51 -4 84 -14q29 -10 64 -29q28 -15 49 -37l39 -39q41 -68 61 -127q25 -74 33 -131q10 -72 10 -131q0 -47 -4 -133q-8 -104 -68 -209q-57 -102 -159 -199q-53 -49 -113 -92q-59 -41 -145 -82 q-84 -39 -177 -59q-100 -23 -208 -23q-21 -1 -41 0q-108 0 -199 15q-102 16 -211 55q-96 35 -168 82t-113 104q-43 59 -63 115q-25 68 -33 117q-12 78 -12 119z" />
<glyph unicode="v" horiz-adv-x="1634" d="M291 1204q0 2 4 14.5t8 18.5q12 20 23 31q16 16 34.5 26.5t57.5 14.5q16 2 31 2q21 0 45 -4q37 -6 59 -21q29 -18 41 -33q14 -16 20 -36q10 -29 15 -66q4 -43 12 -66q10 -45 47 -182l53 -182q31 -82 78 -184q43 -94 107 -181q31 27 71 80q20 27 54 80q23 37 43 84l41 84 l100 223l100 223q16 18 35 56q16 33 37 59q23 29 57 51q37 25 97 33q57 -4 88 -16q41 -16 61 -35q25 -20 35 -43q10 -20 10 -47q0 -55 -14 -101q-18 -59 -39 -100l-62 -102q-47 -76 -61 -103l-109 -219q-76 -147 -118 -219q-6 -6 -37 -59q-2 -4 -16.5 -29t-22.5 -37 q-23 -35 -45 -63q-20 -25 -60 -58q-31 -25 -81 -49q-35 -16 -109 -35q-10 0 -31.5 1t-34.5 1q-20 0 -65 4q-27 2 -61.5 10.5t-53.5 18.5q-23 10 -39 25q-23 16 -30 28l-25 31l-11 16.5t-12 14.5q-47 78 -83.5 155.5t-61.5 155.5l-43 160q-22 80 -37 160q-29 90 -41 133 t-41 133q-14 41 -18 69q-3 20 -4 44q1 14 2 30z" />
<glyph unicode="w" horiz-adv-x="2535" d="M362 459q0 49 5 73q2 16 5 35t5 39q4 20 9 39t9 37q8 35 8 78q5 31 5 64q0 25 -2 50l-13 113q-3 31 -3 66q0 22 1 47q4 63 15 112q3 15 12 30.5t24 31.5q16 16 39 24q33 12 58 15q43 0 82 -6q40 -6 73 -19q33 -12 57.5 -30.5t32.5 -38.5q10 -23 11 -58q0 -20 -4 -57 q-12 -127 -17 -172q-4 -61 -8 -172q2 -45 1.5 -89.5t-1.5 -88.5q-2 -59 -10 -179q57 45 94 95q25 33 70 98l120 166q72 96 131 164q35 35 66 71l63 72q20 23 74 68q41 35 90 63q10 2 18.5 4t16.5 2q10 2 35 6q25 0 74 -8q37 -6 59 -20q18 -14 29 -33l18 -37q49 -72 88 -153 q35 -72 68 -158l16 -49t14.5 -41.5t14.5 -41l16 -48.5q29 -57 45.5 -86t63.5 -80q47 201 71 366q27 178 27 367v35q0 16 6 35q0 8 4 24q2 6 15 23q51 20 80 20q47 0 67 -2q41 -4 64 -8q31 -6 55 -19q59 -51 82 -96q27 -57 35 -102q10 -57 10 -109q0 -37 8 -106 q0 -104 -27 -199q-28 -98 -73 -197l-45 -94q-18 -39 -52 -94q-25 -41 -65 -92q-35 -43 -86 -88l-43 -31l-47 -29q-33 -16 -60 -24q-20 -6 -71 -10q-41 0 -68 8q-33 10 -51 20.5t-39 30.5q-12 12 -29 33q-135 172 -209 295q-89 151 -141 307l-127 -176l-137 -170l-109 -125 q-33 -37 -100 -98l-51 -43q-23 -20 -51 -39q-10 -8 -60 -27q-27 -10 -73 -14q-80 10 -154 39q-55 20 -104 59q-39 31 -66 78q-31 53 -39 84q-8 27 -16 88q-5 29 -9 82z" />
<glyph unicode="x" horiz-adv-x="2013" d="M291 190q4 27 18 52q16 25 41 47q2 2 21.5 19.5t30 25.5l25.5 19.5l30 23.5q72 47 139 96l139 98q74 61 96 82q31 27 87 82l-144 139q-68 63 -139 144l-57 59q-37 41 -52 62q-20 29 -37 65q-14 31 -14 66q2 12 21 26q16 12 39 19q45 12 53 12l53 6h53q18 0 51 -4 q29 -4 46 -8q22 -6 36 -18q37 -29 50 -43q8 -8 20 -24.5t18 -23.5q41 -47 115 -145l113 -145q86 45 164 108q70 59 133 121q23 29 47 53q35 35 49 53q16 8 27 21q4 4 13 11t13 11q14 14 31 23q8 4 41 12q51 -4 90 -14q41 -12 76 -31q37 -20 53 -39q16 -20 21 -49 q-14 -45 -48 -86q-35 -45 -77 -82q-39 -35 -99 -76q-61 -45 -112 -75l-115 -72l-113 -72q80 -61 150 -125l139 -129l123 -118l127 -113l35 -35q4 -4 15 -16.5l16 -18.5q12 -18 20 -34q6 -12 10 -39q-6 -18 -24 -31q-23 -14 -45 -23q-37 -12 -60 -16q-10 -2 -21.5 -3 t-24.5 -2t-19 -1q-10 -1 -19 -1q-49 0 -86 15q-55 23 -82 39q-39 18 -73 51q-35 31 -54 56q-72 80 -166 174q-66 66 -165 176q-45 -25 -101 -66l-86 -67q-39 -31 -80 -72l-73 -72q-2 -2 -29 -35l-33 -34q-8 -10 -15 -17.5t-16 -15.5q-16 -20 -26 -35q-12 -8 -31 -27 q-20 -20 -31 -28q-18 -14 -37 -23q-27 -12 -53 -14q-63 4 -100 16q-43 15 -74 37q-29 18 -45 47q-12 20 -12 51z" />
<glyph unicode="y" horiz-adv-x="1716" d="M313 1147q-1 9 0 17q0 31 9 77q4 16 12 27q12 16 22.5 24t34.5 19q18 8 49 8q22 3 45 3q15 0 31 -1q37 -4 68 -16q33 -14 47 -29q20 -18 24 -35q9 -43 25 -86q14 -41 25 -88q14 -39 43 -92q16 -31 53 -92q25 -49 63.5 -94.5t87.5 -88.5q133 145 209 213l234 205 q45 45 94 88l102 86q18 18 58 29q25 6 77 6q51 -4 84 -14q31 -10 58 -33q25 -23 33 -39q12 -29 10 -45q-6 -20 -21 -35q-4 -4 -14 -15l-16 -18l-37 -30q-12 -10 -35 -33q-52 -34 -98 -68l-93 -69q-102 -76 -213 -178q-96 -88 -184 -189q-78 -88 -143 -194q-59 -94 -94 -201 q-4 -14 -9.5 -27.5l-9.5 -23.5q-9 -25 -31 -49q-16 -16 -28.5 -22.5t-40.5 -14.5q-16 -4 -45 -9q-23 -3 -35 -2h-14q-39 0 -70 11q-33 10 -47 22q-18 16 -29 35q-6 12 -6 35q4 55 14 98q14 59 29 96q12 33 45 99q27 51 68 96q-84 39 -129 74q-55 43 -95 88q-35 39 -69 96 q-31 49 -58 96q-25 46 -43 92q-23 57 -32 95q-11 41 -15 96z" />
<glyph unicode="z" horiz-adv-x="2004" d="M324 1161q41 41 116 70q68 25 160 45q78 16 180 27q115 10 178 20q207 20 392 23q33 1 67 0l326 -11q39 -2 112 -14q59 -10 105 -27q8 -4 23.5 -8t23.5 -8q27 -10 45.5 -20.5t32.5 -24.5q16 -16 18 -29q-55 -61 -123 -117l-141 -110l-149 -109q-109 -78 -146 -108 q-113 -90 -168 -129l-172 -125q-96 -76 -157 -131q-68 -63 -125 -139l4 -9q47 0 90 6l86 13q57 8 86 14q57 12 86 16q35 6 83 15.5t101 21.5l187 39q49 8 73 10l76 7q23 0 80 -4q31 -2 76 -15q35 -10 55 -26q20 -18 14 -41q0 -12 -14 -27q-6 -6 -31 -23q-16 -10 -39 -20 q-6 -4 -20 -8t-21 -8l-82 -19l-81 -18q-254 -49 -277 -54q-150 -27 -283 -43q-160 -20 -288 -28q-98 -6 -187 -6q-53 0 -104 2q-29 4 -43 8q-29 10 -37 14l-14.5 7.5t-14.5 9.5q-14 8 -26 16q-12 12 -33 41q-14 18 -21 43q25 66 76 125q51 61 119 119q76 66 141 114 l52.5 40.5l43 31.5t48.5 39l58.5 47.5t49 38.5l60.5 45l174 129l170 131q111 86 161 131q-25 4 -34 4q-6 0 -18.5 1t-18.5 1q-92 0 -139 -2q-51 -2 -144 -10q-203 -16 -315 -27q-158 -16 -316 -24q-23 -2 -79 -2q-55 0 -82 4q-41 6 -65.5 18t-20.5 37z" />
<glyph unicode="{" horiz-adv-x="1206" d="M162 649q4 23 22 39q20 16 49 29q23 10 66 16q70 12 78 12q53 4 78 5q14 0 38.5 1t34.5 1h11h30q20 0 31 -2h66h20q2 0 9 1t12 1q-76 20 -154 63q-70 39 -121 80l-41 41q-14 14 -35 43q-12 18 -20 45q-6 23 0 47q4 66 55 127q47 55 144 109q45 27 96 43q57 18 114 30 q55 10 125 14.5t127 -1.5q49 -2 105 -17q53 -12 88 -30q31 -14 65 -41q27 -20 27 -52q6 -16 -8 -30.5t-37 -20.5q-33 -8 -53 -8q-41 0 -60 4q-20 4 -65 8l-70 6q-57 6 -115 0q-59 -6 -102 -24q-45 -18 -67 -45q-29 -31 -23 -58q6 -28 31 -49q27 -25 57 -43q45 -29 69.5 -41 t69.5 -37l72 -36q31 -14 68 -39q31 -18 57 -43q25 -23 35 -47q0 -16 -12.5 -28.5t-30.5 -25.5q-12 -8 -41 -20l-47 -17q33 -8 49 -14l43 -18q25 -10 35 -21q14 -14 14 -26l-8 -19q-53 -49 -121 -88l-141 -80q-14 -8 -32 -17t-36 -20q-49 -31 -61 -41q-31 -25 -50 -45 q-22 -25 -30 -49q27 -10 84 -26q76 -23 90 -25q61 -12 96 -14q49 -4 102 0q23 4 64 0q29 -2 51 -13q22 -9 31 -24q10 -16 4 -33q-2 -16 -18 -35q-8 -10 -37 -31q-27 -18 -54 -26q-37 -12 -65 -17q-57 -6 -119 -6q-37 0 -115 9q-74 8 -112 16q-37 8 -103 29q-45 14 -94 36.5 t-80 44.5q-29 20 -55 56q-23 29 -18 59q0 23 10 49q8 20 26 47q15 22 37 43q14 14 47 43q41 35 129 84q78 43 156 72q-45 2 -139 2q-96 0 -141 2q-27 0 -93 4q-51 4 -94 13q-47 10 -72 26q-28 18 -28 43z" />
<glyph unicode="|" horiz-adv-x="651" d="M281 469q2 139 18 285q10 115 20 192q12 98 31 197l6 67q4 49 9 70q6 74 47 147l12 19q4 6 20 16q53 12 90 6t64 -26q25 -18 41 -41q6 -10 23 -41q2 -43 12 -90t12 -90q14 -119 16.5 -219.5t-10.5 -219.5l-8 -71q-2 -16 -5 -34t-5 -38q-2 -23 -10 -72q0 -2 -7 -71 q-2 -10 -2 -31q0 -15 -6 -31q4 -20 2 -33q0 -6 -1 -16t-3 -16q-8 -33 -12 -72q-2 -25 -10 -74q-2 -8 -4.5 -23.5l-4.5 -27.5t-4 -22q-10 -39 -24 -72q-12 -29 -45 -68q-27 -31 -74 -63q-46 0 -74 12q-27 12 -45 30.5t-26 39.5q-6 14 -15 39q-12 37 -18 77t-6 80 q-8 121 -4 285z" />
<glyph unicode="}" horiz-adv-x="1204" d="M242 111q4 8 4 12q0 2 1 5t1 5t3 5t3 5q2 4 12 9q43 14 76 14q39 0 57 -2q25 -4 70 -8q10 0 34.5 -4.5t35.5 -4.5q63 -6 116 3q63 10 103 26q47 20 69 45q27 29 21 58q-10 25 -35 47q-27 25 -57 43q-23 14 -72 39l-72 36l-69 37q-43 20 -68 39q-31 22 -55 43 q-23 20 -33 47q4 18 14 29q16 16 28.5 24.5t41.5 20.5q27 10 47 16q-37 10 -47 15l-21.5 7t-23.5 9q-18 8 -32.5 22.5t-14.5 28.5l8 15q47 45 119 88l143 82q16 10 32.5 19t33.5 20q49 31 61 41l51 45q16 16 29 49q-23 8 -43 14l-41 12l-90 23q-31 6 -96 14q-43 6 -101 2 q-23 -4 -63 0q-23 2 -51 15q-25 10 -33 24q-10 16 -4 31q8 35 55 65q47 33 121 41q58 6 117 7q61 0 118 -7q70 -8 111 -16q43 -10 100 -29q45 -14 94.5 -36.5t79.5 -45.5q29 -20 56 -55q18 -25 18 -59q-4 -51 -37 -97q-29 -39 -88 -88q-43 -37 -125 -84q-76 -43 -153 -71 q47 -2 137 -2q94 0 139 -2q27 0 92.5 -4.5t94.5 -10.5q39 -8 71 -26q31 -16 31 -43q-4 -23 -23 -39q-23 -18 -47 -29q-31 -12 -67 -18q-47 -8 -78 -11q-8 0 -24.5 -2t-30 -3t-25.5 -1q-14 0 -38.5 -1t-35.5 -1h-10h-59q-10 2 -33 2h-33h-20q-2 0 -9.5 -1t-11.5 -1 q86 -27 152 -63q72 -39 119 -78l43 -41q14 -14 34 -43q12 -18 21 -45q6 -25 4 -47q-8 -61 -61 -127q-47 -57 -142 -109q-45 -27 -96 -43q-59 -20 -114.5 -30.5t-125.5 -14.5q-84 -4 -127 0q-51 6 -100 19q-57 14 -88 30q-45 20 -70 41q-28 25 -28 54z" />
<glyph unicode="~" horiz-adv-x="1933" d="M291 737q0 27 20.5 47.5t57.5 36.5q39 16 77 29l40 12l40 12q106 27 179 41q102 20 190 21q63 0 113 -14q70 -20 102 -33q51 -20 102 -31q49 -10 117 -14q74 4 131 14q76 14 119 29q41 12 110.5 26.5t116.5 12.5q53 -4 78 -8q33 -6 70 -17q27 -8 53.5 -26.5t32.5 -34.5 q0 -16 -21 -33q-8 -8 -43 -25q-33 -14 -61 -22q-45 -12 -72 -12q-123 -35 -248 -62q-129 -27 -268 -31q-72 4 -121 15q-37 8 -106 32q-45 16 -103 33q-55 16 -118 19q-115 -2 -217 -35q-100 -31 -164 -80h-4q-47 4 -68 10q-33 10 -61.5 22.5t-47.5 28.5q-20 17 -26 37z" />
<glyph unicode="&#x85;" horiz-adv-x="2142" d="M254 150q0 10 10 24t25 23q2 2 14 9l19 11l36 21q29 8 43.5 14t42.5 14q41 12 45 13q33 4 52 4q68 4 100.5 -14.5t44.5 -45.5q14 -33 14 -55q0 -39 2 -53q6 -23 -2 -41q-8 -20 -34 -37q-23 -14 -58 -23q-37 -8 -82 -6q-55 2 -104 17q-57 16 -82 30q-41 18 -65.5 43 t-20.5 52zM936 150q2 27 28.5 53t61.5 47q18 12 74 33q41 14 94 14q72 0 111 -16q53 -23 71 -43q27 -31 33 -58q6 -31 0 -59q2 -20 -16 -43q-16 -18 -50 -35q-31 -15 -73 -25q-35 -8 -86 -4q-52 0 -98.5 12.5t-79.5 30.5q-35 18 -54 43q-16 23 -16 50zM1655 147q4 33 18 50 q16 18 47 43q23 18 58 30q37 12 80 13q61 -3 110 -19t82 -39q35 -25 47 -53.5t2 -56.5q-6 -25 -33 -45q-23 -16 -61 -33q-25 -10 -82 -23q-39 -8 -90 -8q-49 4 -82 14q-39 12 -53 33q-25 20 -35 45q-8 22 -8 49z" />
<glyph unicode="&#x2026;" horiz-adv-x="2142" d="M254 150q0 10 10 24t25 23q2 2 14 9l19 11l36 21q29 8 43.5 14t42.5 14q41 12 45 13q33 4 52 4q68 4 100.5 -14.5t44.5 -45.5q14 -33 14 -55q0 -39 2 -53q6 -23 -2 -41q-8 -20 -34 -37q-23 -14 -58 -23q-37 -8 -82 -6q-55 2 -104 17q-57 16 -82 30q-41 18 -65.5 43 t-20.5 52zM936 150q2 27 28.5 53t61.5 47q18 12 74 33q41 14 94 14q72 0 111 -16q53 -23 71 -43q27 -31 33 -58q6 -31 0 -59q2 -20 -16 -43q-16 -18 -50 -35q-31 -15 -73 -25q-35 -8 -86 -4q-52 0 -98.5 12.5t-79.5 30.5q-35 18 -54 43q-16 23 -16 50zM1655 147q4 33 18 50 q16 18 47 43q23 18 58 30q37 12 80 13q61 -3 110 -19t82 -39q35 -25 47 -53.5t2 -56.5q-6 -25 -33 -45q-23 -16 -61 -33q-25 -10 -82 -23q-39 -8 -90 -8q-49 4 -82 14q-39 12 -53 33q-25 20 -35 45q-8 22 -8 49z" />
<glyph horiz-adv-x="612" d="M219 1311q4 12 27 22q14 6 43 15q16 4 53 8q29 2 53 4q59 -10 92 -29q37 -23 64 -45q31 -27 49 -51q14 -18 43 -51q88 -111 133 -228l4 -12q0 -2 1 -6t1 -6q-2 -14 -18 -27q-14 -12 -35 -20q-6 -2 -45 -13q-16 -4 -53 -8q-53 6 -94 25q-33 14 -68 43t-53 51 q-23 29 -45 51q-55 63 -86 115q-35 55 -58 119q2 10 -4 20.5t-4 22.5z" />
<glyph unicode="&#x2018;" horiz-adv-x="612" d="M219 1311q4 12 27 22q14 6 43 15q16 4 53 8q29 2 53 4q59 -10 92 -29q37 -23 64 -45q31 -27 49 -51q14 -18 43 -51q88 -111 133 -228l4 -12q0 -2 1 -6t1 -6q-2 -14 -18 -27q-14 -12 -35 -20q-6 -2 -45 -13q-16 -4 -53 -8q-53 6 -94 25q-33 14 -68 43t-53 51 q-23 29 -45 51q-55 63 -86 115q-35 55 -58 119q2 10 -4 20.5t-4 22.5z" />
<glyph horiz-adv-x="595" d="M219 956q9 61 43 117q35 57 88 111l45 51q23 29 54 53q39 31 69 45q45 20 100 27q35 -2 66 -17q33 -14 47 -26q18 -16 25 -33q8 -25 6 -37q0 -39 -14 -73q-16 -41 -39 -74t-56 -70q-61 -68 -63 -69q-27 -18 -45 -35q-23 -20 -47 -35q-27 -16 -60 -29q-29 -10 -76 -10 q-31 0 -67 12q-28 9 -43 25q-18 16 -23 33q-10 30 -10 34z" />
<glyph unicode="&#x2019;" horiz-adv-x="595" d="M219 956q9 61 43 117q35 57 88 111l45 51q23 29 54 53q39 31 69 45q45 20 100 27q35 -2 66 -17q33 -14 47 -26q18 -16 25 -33q8 -25 6 -37q0 -39 -14 -73q-16 -41 -39 -74t-56 -70q-61 -68 -63 -69q-27 -18 -45 -35q-23 -20 -47 -35q-27 -16 -60 -29q-29 -10 -76 -10 q-31 0 -67 12q-28 9 -43 25q-18 16 -23 33q-10 30 -10 34z" />
<glyph horiz-adv-x="1312" d="M295 1274q8 14 28.5 22.5t47.5 12.5q49 6 53 6q20 0 53 4q52 -12 86 -31q23 -12 55 -45q27 -27 44 -51q20 -31 38 -49l84 -119q35 -51 66 -119q2 -2 2 -6t2 -6q2 -4 -2 -12q2 -14 -10.5 -26.5t-32.5 -18.5q-41 -12 -47 -13q-18 -2 -51 -2q-55 8 -98.5 28.5t-71.5 43.5 q-35 27 -56 51l-51 51q-55 66 -86 115q-37 57 -49 121q-2 6 -2 20q0 4 -1 12.5t-1 10.5zM848 1323q6 16 26 23q31 8 46 10q37 4 55 4h51q57 -12 92 -33q55 -33 68 -43q37 -33 51 -51l47 -49q53 -68 80 -115q33 -57 51 -117q-3 -6 0 -12q4 -6 -2 -12q-2 -10 -16 -25 q-6 -6 -35 -18q-14 -6 -47 -15q-25 -6 -51 -6q-55 8 -90 27q-35 16 -64 43q-25 20 -47 51q-22 28 -43 49q-82 111 -90 121q-37 51 -72 123q-2 4 -4 11t-2 11q-4 17 -4 23z" />
<glyph unicode="&#x201c;" horiz-adv-x="1312" d="M295 1274q8 14 28.5 22.5t47.5 12.5q49 6 53 6q20 0 53 4q52 -12 86 -31q23 -12 55 -45q27 -27 44 -51q20 -31 38 -49l84 -119q35 -51 66 -119q2 -2 2 -6t2 -6q2 -4 -2 -12q2 -14 -10.5 -26.5t-32.5 -18.5q-41 -12 -47 -13q-18 -2 -51 -2q-55 8 -98.5 28.5t-71.5 43.5 q-35 27 -56 51l-51 51q-55 66 -86 115q-37 57 -49 121q-2 6 -2 20q0 4 -1 12.5t-1 10.5zM848 1323q6 16 26 23q31 8 46 10q37 4 55 4h51q57 -12 92 -33q55 -33 68 -43q37 -33 51 -51l47 -49q53 -68 80 -115q33 -57 51 -117q-3 -6 0 -12q4 -6 -2 -12q-2 -10 -16 -25 q-6 -6 -35 -18q-14 -6 -47 -15q-25 -6 -51 -6q-55 8 -90 27q-35 16 -64 43q-25 20 -47 51q-22 28 -43 49q-82 111 -90 121q-37 51 -72 123q-2 4 -4 11t-2 11q-4 17 -4 23z" />
<glyph horiz-adv-x="1247" d="M248 952q0 29 12 60q14 37 29 57q25 37 43 57l49 58l23.5 22.5l27.5 26.5q20 25 55 51q35 29 72 45q49 23 96 31q35 0 70 -10q31 -10 47 -23q16 -14 22.5 -32.5t0.5 -37.5q-4 -33 -23 -77q-12 -35 -41 -76q-25 -37 -55 -74q-20 -25 -68 -72q-4 -2 -39 -32 q-29 -25 -45 -35q-29 -18 -55.5 -28.5t-73.5 -10.5q-35 0 -65 10q-33 10 -47 23q-18 14 -27 33q-8 16 -8 34zM813 831q-2 8 6 17l17 16q51 51 59 62l47 63q37 53 45 66q4 6 18.5 29.5l22.5 35.5q22 18 37 43q20 33 35 47q23 23 49 39q31 18 78 25q31 0 71 -12q31 -9 50 -25 q25 -20 30 -33q8 -16 8 -35q0 -37 -16 -75q-14 -35 -38.5 -72t-59.5 -72q-31 -33 -72 -65q-10 -8 -21.5 -18.5t-21.5 -18.5q-20 -18 -51 -35q-37 -20 -59 -29q-37 -14 -76 -16q-18 -2 -60 2q-35 4 -53 10q-27 10 -37 21q-14 14 -8 30z" />
<glyph unicode="&#x201d;" horiz-adv-x="1247" d="M248 952q0 29 12 60q14 37 29 57q25 37 43 57l49 58l23.5 22.5l27.5 26.5q20 25 55 51q35 29 72 45q49 23 96 31q35 0 70 -10q31 -10 47 -23q16 -14 22.5 -32.5t0.5 -37.5q-4 -33 -23 -77q-12 -35 -41 -76q-25 -37 -55 -74q-20 -25 -68 -72q-4 -2 -39 -32 q-29 -25 -45 -35q-29 -18 -55.5 -28.5t-73.5 -10.5q-35 0 -65 10q-33 10 -47 23q-18 14 -27 33q-8 16 -8 34zM813 831q-2 8 6 17l17 16q51 51 59 62l47 63q37 53 45 66q4 6 18.5 29.5l22.5 35.5q22 18 37 43q20 33 35 47q23 23 49 39q31 18 78 25q31 0 71 -12q31 -9 50 -25 q25 -20 30 -33q8 -16 8 -35q0 -37 -16 -75q-14 -35 -38.5 -72t-59.5 -72q-31 -33 -72 -65q-10 -8 -21.5 -18.5t-21.5 -18.5q-20 -18 -51 -35q-37 -20 -59 -29q-37 -14 -76 -16q-18 -2 -60 2q-35 4 -53 10q-27 10 -37 21q-14 14 -8 30z" />
<glyph horiz-adv-x="1081" d="M274 727q-2 49 35 100q37 49 107 91q61 35 162 59q96 23 202 16q77 0 148 -18q78 -20 121 -47q55 -25 85.5 -62t30.5 -73q-4 -66 -37 -119q-39 -61 -108 -111q-39 -27 -84 -47t-102 -37q-61 -16 -115 -22q-82 -8 -123 -6q-94 2 -164 32q-66 29 -102.5 68t-48.5 88 q-13 45 -7 88z" />
<glyph unicode="&#x2022;" horiz-adv-x="1081" d="M274 727q-2 49 35 100q37 49 107 91q61 35 162 59q96 23 202 16q77 0 148 -18q78 -20 121 -47q55 -25 85.5 -62t30.5 -73q-4 -66 -37 -119q-39 -61 -108 -111q-39 -27 -84 -47t-102 -37q-61 -16 -115 -22q-82 -8 -123 -6q-94 2 -164 32q-66 29 -102.5 68t-48.5 88 q-13 45 -7 88z" />
<glyph horiz-adv-x="1292" d="M297 707q27 27 78 43q35 10 106 18q78 8 117 8q45 0 115 4q147 -4 225 -4q25 -2 78 -2q25 0 82 -4q29 -2 82 -10q45 -6 69.5 -14.5t50.5 -26.5q18 -12 25 -37q-4 -16 -18 -29q-16 -12 -39 -22q-14 -6 -51 -14.5t-58 -8.5q-168 -6 -340 -6q-57 0 -169.5 -1t-170.5 -1 q-29 2 -69.5 14.5t-57.5 20.5q-25 14 -41 33q-16 21 -14 39z" />
<glyph unicode="&#x2013;" horiz-adv-x="1292" d="M297 707q27 27 78 43q35 10 106 18q78 8 117 8q45 0 115 4q147 -4 225 -4q25 -2 78 -2q25 0 82 -4q29 -2 82 -10q45 -6 69.5 -14.5t50.5 -26.5q18 -12 25 -37q-4 -16 -18 -29q-16 -12 -39 -22q-14 -6 -51 -14.5t-58 -8.5q-168 -6 -340 -6q-57 0 -169.5 -1t-170.5 -1 q-29 2 -69.5 14.5t-57.5 20.5q-25 14 -41 33q-16 21 -14 39z" />
<glyph horiz-adv-x="2101" d="M313 707q31 25 90 41q47 14 115 20q61 6 125 6q45 0 123 4q233 4 471 0h231q39 0 118 -1t118 -1q25 -2 78 -2l86 -6q53 -4 84 -8q49 -6 76 -15q33 -8 57 -24q23 -14 33 -39q-6 -18 -27 -29q-23 -12 -45 -20q-18 -6 -59 -14.5t-60 -8.5q-625 -8 -1403 -8q-51 0 -82 10 q-59 20 -65 23q-29 12 -51.5 30.5t-12.5 41.5z" />
<glyph unicode="&#x2014;" horiz-adv-x="2101" d="M313 707q31 25 90 41q47 14 115 20q61 6 125 6q45 0 123 4q233 4 471 0h231q39 0 118 -1t118 -1q25 -2 78 -2l86 -6q53 -4 84 -8q49 -6 76 -15q33 -8 57 -24q23 -14 33 -39q-6 -18 -27 -29q-23 -12 -45 -20q-18 -6 -59 -14.5t-60 -8.5q-625 -8 -1403 -8q-51 0 -82 10 q-59 20 -65 23q-29 12 -51.5 30.5t-12.5 41.5z" />
<glyph horiz-adv-x="2320" d="M352 1278v18q20 16 39 19q8 0 26.5 2t26.5 4q68 2 209 10l209 12q51 4 162 8.5t164 8.5l41 -6q4 0 39 -13q8 -2 26 -16q12 -8 15 -18q-4 -12 -17 -23q-14 -12 -32 -16q-14 -4 -43 -8l-46 -7q-45 -4 -71 -6q-41 -4 -60 -4h-53q-8 0 -24.5 -1t-24.5 -1q-76 -211 -94 -430 q-4 -20 -6 -33q-4 -23 -11 -33q-12 -20 -24 -30q-18 -14 -49 -21q-2 0 -52 6q-25 3 -43 13q-29 14 -32 18q-10 10 -11 25q-6 31 0 63q2 16 5.5 32.5t5.5 35.5l16 67q8 33 12 70q4 39 9 109q4 57 -9 108q-90 -4 -139 -4q-94 0 -139 -2q-10 2 -19 10q-6 6 -6 15v18zM1272 842 q0 43 2 63q2 16 5 50t5 51q8 70 14 102q10 59 27 100q18 49 49 99q10 16 37 32q20 12 62 17q25 0 43 -6q12 -4 32 -13q6 -2 25 -16l22 -18q70 -90 113 -170q49 -90 66 -177q25 29 86 113l79 111q10 14 27 43q8 14 29 43q16 23 40.5 41t61.5 30q68 -6 113 -28q39 -18 65 -54 q23 -29 33 -65q10 -35 12 -64q4 -25 2 -34q-4 -25 -4 -33q-2 -16 -10 -35q0 -2 -6 -35q0 -25 2 -39q0 -6 1 -20.5t3 -20.5q-2 -12 -2 -34.5t-2 -34.5q-4 -43 -18 -70q-6 -20 -25 -39q-20 -20 -59 -26h-31q-10 0 -31 4q-27 16 -33 22q-12 12 -16 19q2 10 2 28.5t4 28.5 q14 33 21 76q6 45 4 80q4 31 -6 77q-8 39 -35 78q-27 -57 -58 -104q-29 -45 -79 -103q-14 -14 -39 -43q-37 -43 -39 -45q-25 -25 -49 -41q-41 -29 -64 -37q-37 4 -55 17q-25 16 -27 33l-33 73q-16 33 -30 76q-16 39 -35 78t-53 74q-10 -33 -27 -99q-10 -43 -14 -98 q-4 -23 -2 -35q2 -6 4 -17t2 -18q2 -12 2 -34q0 -20 -2 -33q-2 -20 -23 -51q-14 -14 -35 -17q-6 0 -16 -2t-18.5 -3t-14.5 -1q-23 0 -47 8q-14 4 -29 19q-8 8 -16 24q-2 6 -8 27q-4 58 -4 76z" />
<glyph unicode="&#x2122;" horiz-adv-x="2320" d="M352 1278v18q20 16 39 19q8 0 26.5 2t26.5 4q68 2 209 10l209 12q51 4 162 8.5t164 8.5l41 -6q4 0 39 -13q8 -2 26 -16q12 -8 15 -18q-4 -12 -17 -23q-14 -12 -32 -16q-14 -4 -43 -8l-46 -7q-45 -4 -71 -6q-41 -4 -60 -4h-53q-8 0 -24.5 -1t-24.5 -1q-76 -211 -94 -430 q-4 -20 -6 -33q-4 -23 -11 -33q-12 -20 -24 -30q-18 -14 -49 -21q-2 0 -52 6q-25 3 -43 13q-29 14 -32 18q-10 10 -11 25q-6 31 0 63q2 16 5.5 32.5t5.5 35.5l16 67q8 33 12 70q4 39 9 109q4 57 -9 108q-90 -4 -139 -4q-94 0 -139 -2q-10 2 -19 10q-6 6 -6 15v18zM1272 842 q0 43 2 63q2 16 5 50t5 51q8 70 14 102q10 59 27 100q18 49 49 99q10 16 37 32q20 12 62 17q25 0 43 -6q12 -4 32 -13q6 -2 25 -16l22 -18q70 -90 113 -170q49 -90 66 -177q25 29 86 113l79 111q10 14 27 43q8 14 29 43q16 23 40.5 41t61.5 30q68 -6 113 -28q39 -18 65 -54 q23 -29 33 -65q10 -35 12 -64q4 -25 2 -34q-4 -25 -4 -33q-2 -16 -10 -35q0 -2 -6 -35q0 -25 2 -39q0 -6 1 -20.5t3 -20.5q-2 -12 -2 -34.5t-2 -34.5q-4 -43 -18 -70q-6 -20 -25 -39q-20 -20 -59 -26h-31q-10 0 -31 4q-27 16 -33 22q-12 12 -16 19q2 10 2 28.5t4 28.5 q14 33 21 76q6 45 4 80q4 31 -6 77q-8 39 -35 78q-27 -57 -58 -104q-29 -45 -79 -103q-14 -14 -39 -43q-37 -43 -39 -45q-25 -25 -49 -41q-41 -29 -64 -37q-37 4 -55 17q-25 16 -27 33l-33 73q-16 33 -30 76q-16 39 -35 78t-53 74q-10 -33 -27 -99q-10 -43 -14 -98 q-4 -23 -2 -35q2 -6 4 -17t2 -18q2 -12 2 -34q0 -20 -2 -33q-2 -20 -23 -51q-14 -14 -35 -17q-6 0 -16 -2t-18.5 -3t-14.5 -1q-23 0 -47 8q-14 4 -29 19q-8 8 -16 24q-2 6 -8 27q-4 58 -4 76z" />
<glyph unicode="&#xa2;" horiz-adv-x="1497" d="M143 709q3 37 19 73q16 39 43 72q25 31 65 68q33 29 80 63q43 31 99 62q63 35 116 53q61 20 137 37q66 14 150 14q4 23 8 59q0 10 2 30t2 30q8 20 8 33q0 18 7 36q6 16 20 31q16 16 47 25q25 0 70 -4q37 -4 63 -13q33 -10 49.5 -20t24.5 -33q8 -39 10 -65l6 -66l2 -29 q113 -12 195 -41q102 -35 160 -71q37 -20 63 -41q37 -29 51 -45q18 -23 33 -49q10 -20 10 -54q0 -6 -8 -26q-6 -14 -20 -27q-16 -12 -39 -18q-27 -6 -55 -5q-77 3 -123 31t-68 62l-31 34q-6 8 -39 31q-25 18 -49 29q-27 12 -65 18q2 -41 2 -123q0 -63 -6 -125l-6 -67 q-2 -27 -11 -70q-2 -23 -10 -67q-4 -23 -8 -68q43 9 80 25l76 28q33 12 81 27q43 12 93 12q29 -4 43 -8q18 -6 30 -18l13 -17v-14l2 -19v-8q-16 -39 -60 -65q-45 -27 -108 -49q-47 -16 -131 -35q-27 -6 -75 -14.5t-61 -10.5q0 -10 -2 -20.5l-4 -20.5q-4 -29 -4 -41 q-8 -31 -12 -65q-3 -34 -18 -68q-16 -35 -46 -61q-29 -25 -94 -45q-53 -2 -98 18q-37 16 -47 45q-2 8 -4 26.5t-4 28.5q-2 18 -2 56q2 25 -2 69l-7 68q-147 18 -260 59q-125 45 -207 99q-51 33 -77 57q-31 27 -58 61q-20 25 -34 66q-13 35 -7 70zM489 674q0 -18 9 -33 q12 -20 20 -31q12 -14 33 -28q18 -14 37 -27q74 -55 200 -90l11 125q4 31 8 100q4 68 10 101l27 194q-80 -33 -131 -67q-49 -33 -105 -78q-39 -33 -80 -80q-33 -39 -39 -86z" />
<glyph unicode="&#xa3;" horiz-adv-x="2271" d="M188 809q29 31 86 47q59 16 121 23q63 6 135 6q90 0 129 2q6 20 17 39q8 14 16 43q12 47 45 125q43 100 51 125q35 31 78 47q51 18 107 30q78 16 119 21q63 6 120 12q147 8 197 10q23 0 60.5 2t68.5 3.5t57 1.5q119 0 177 -3l172 -6q43 0 81.5 -6t65.5 -20q37 -20 47 -33 q16 -20 14 -41q2 -18 -10 -30.5t-37 -22.5q-16 -6 -53 -15q-41 -8 -59 -8q-43 2 -133 2q-88 0 -134 2q-100 4 -180 -2q-104 -8 -178 -22q-43 -10 -80 -21q-37 -12 -71 -28q-29 -14 -56 -37q-20 -18 -31 -41q-18 -29 -30 -66l-23 -65q25 0 72 -1t72 -1q74 0 143 -7 q25 -2 63 -10q31 -6 55.5 -18t39.5 -27q16 -16 12 -35q0 -10 -14 -28q-12 -14 -35 -25q-27 -12 -49 -16q-27 -6 -58 -6q-57 2 -172 -2q-84 -2 -172 0q-12 -61 -18 -111q-2 -18 -5 -56t-5 -57q-2 -49 14 -114q14 -55 43 -113q143 16 274 49l262 70l130 33l133 30 q63 14 137 25q45 6 141 10q25 2 76 -2q37 -2 72 -12q34 -9 61 -25q29 -16 39 -31l2 -6q-58 -43 -135 -73q-66 -27 -166 -58q-59 -18 -182 -51q-14 -4 -80 -20.5t-98 -26.5l-193 -49q-88 -23 -197 -45q-68 -14 -202 -35q-113 -16 -209 -23q-57 2 -117 13q-49 8 -96 34 q-29 18 -33 25q-12 16 -20 29q-14 25 -17 28q-8 14 -14 29q-43 78 -53 139q-12 72 -13 144q6 127 43 250h-67q-12 0 -35 -1t-33 -1h-61q-43 0 -64 2q-35 -2 -65 10q-37 16 -47 24q-25 16 -31 31q-13 25 -17 37z" />
<glyph unicode="&#xa5;" horiz-adv-x="1808" d="M287 279q10 18 38.5 32.5t61.5 20.5q43 8 74 10h82h80h73q10 25 35 74q16 35 49 69q-106 4 -159 4q-104 0 -158 3q-33 0 -68 10q-25 8 -51 22q-23 12 -35 30.5t-12 35.5q8 20 39 37q25 12 72 22q43 10 88 13q16 2 45.5 5t38.5 3q-55 66 -100.5 141.5t-71.5 146.5 q-27 63 -43 142q-15 71 0 141q2 12 14 27q12 16 22.5 24t34.5 19q18 8 49 8q35 6 76 2q35 -2 66 -16q37 -16 49 -29q20 -18 24 -35q9 -43 25 -86q14 -41 25 -88q20 -47 43 -94q16 -33 53 -94q27 -45 65 -91q43 -51 86 -88q51 61 99 109q70 70 108 104l117 103l119 102 q45 45 94 88l100 86q18 18 58 29q25 6 80 6q51 -4 81 -14q37 -14 60 -33q25 -23 33 -39q10 -25 8 -45q-2 -18 -17 -35q-16 -23 -30 -33q-4 -4 -16.5 -15t-20.5 -17l-39 -31l-96 -68l-93 -69l-161 -127q-61 -51 -140 -133q10 0 34 -1t38 -1q25 0 78 -4q40 -3 74 -13 q41 -10 59 -20q29 -14 39 -27q14 -16 10 -39q0 -20 -14 -33q-23 -18 -45.5 -26t-59 -14.5t-67.5 -4.5q-51 -2 -152 -2q-25 0 -75 1t-76 1q-39 -55 -56 -77q-29 -39 -49 -76q23 -4 45 0q14 2 45 2q14 -2 45 -2q6 0 22.5 1t25.5 1q10 0 33.5 -1t37.5 -1q53 0 80 -2 q31 -2 78 -11q33 -6 65 -16q29 -8 45.5 -26.5t14.5 -38.5q-2 -18 -24.5 -35t-51.5 -25q-23 -6 -67 -14q-25 -4 -70 -4q-135 -4 -199 -4h-200q-6 -25 -18.5 -47.5t-37.5 -45.5q-20 -18 -63 -32q-45 -14 -90 -13q-47 0 -90 17q-37 14 -50 39q-12 20 -12 45q0 31 2 45l-88 6 l-88 4q-35 2 -70 12q-37 10 -57 23q-25 14 -39 33q-12 17 -16 37z" />
<glyph unicode="&#xa9;" horiz-adv-x="2617" d="M227 494q0 63 29 133q28 68 80 129q47 55 127 118q74 57 168 109q88 53 194 96q108 43 228 74q127 33 252 47q147 16 266 14q147 0 256 -16q129 -18 233 -51q117 -35 201 -78q92 -47 156 -100q145 -104 202.5 -229.5t36.5 -254.5q-6 -51 -41 -102q-33 -49 -88 -94 q-45 -37 -131 -84q-68 -37 -160 -70q-182 -66 -370 -94q-199 -31 -408 -31q-211 -2 -426 33q-213 35 -383 94q-59 20 -166 70q-80 37 -137 82t-90 96q-33 50 -29 109zM561 487q-2 -37 23 -75q23 -33 67 -66q39 -27 105 -55q43 -18 123 -41q147 -41 286 -57q168 -20 312 -21 q145 0 286.5 18.5t270.5 55.5q59 18 112 43q45 20 92 57q45 35 64 64q23 35 25 69q15 98 -19 197q-33 96 -131 184q-41 41 -109 80q-61 35 -143 64q-66 23 -174 40q-92 16 -195 13q-106 0 -206.5 -12.5t-192.5 -36.5q-80 -20 -170 -60q-84 -35 -141 -76q-133 -82 -209 -182 q-72 -97 -76 -203zM799 553q4 39 26 72q25 34 62 67.5t86 61.5q88 49 100 55q66 29 117 47q82 29 127 41q61 16 137 27q78 10 148 10q61 -4 92 -8q66 -8 90 -17q14 -4 39 -12q4 -2 32 -18q12 -8 23 -21q8 -10 4 -22q0 -16 -16.5 -33t-36.5 -27q-31 -14 -57 -20 q-41 -8 -66 -8q-23 0 -63.5 8t-63.5 10q-76 -6 -147 -29q-51 -16 -125 -51q-66 -31 -105 -61q-43 -34 -55 -74q-6 -25 12.5 -43.5t49 -30.5t73.5 -18q37 -6 84 -2q12 0 40 1t40 3q49 4 74 10q51 8 71 10q49 4 76 4q33 0 64 -6q29 -6 51 -18q20 -12 32.5 -26.5t6.5 -33.5 q0 -16 -12.5 -28.5t-32.5 -22.5q-31 -14 -43 -18q-31 -8 -54 -10q-49 -10 -159 -23q-53 -6 -162 -10q-37 0 -111 4q-57 4 -108 12q-52 9 -99 25q-53 18 -86 32q-78 33 -118 87q-39 51 -37 104z" />
<glyph unicode="&#xad;" d="M289 686q-4 10 2 21q33 29 82 41q68 16 112 20q82 8 123 8q45 0 119 4q31 -2 90 -2q14 0 45 -1t45 -1q61 0 92 -2t93 -2q12 0 35.5 1t35.5 1q25 0 74 -4h76q25 0 82 -4q49 -4 80 -8q35 -6 71 -17q31 -10 56 -26q23 -16 28 -37q-6 -16 -24 -29q-23 -14 -43 -22 q-16 -6 -58 -15q-31 -6 -59 -6q-243 -6 -479 -6q-319 0 -482 2q-45 0 -73 10q-59 23 -62 23q-10 4 -26 16q-2 2 -10.5 7.5t-12.5 9.5q-9 9 -12 18z" />
<glyph unicode="&#xae;" horiz-adv-x="2760" d="M244 608q2 63 39 135q33 66 96 129q70 70 143 119q83 55 185 105q102 53 208 90q131 47 236 69q121 27 256 43q132 15 270 13q147 0 260 -17q121 -18 238 -49q102 -29 209 -76q94 -43 168 -100q152 -109 215 -231q66 -127 47 -258q-6 -59 -53 -127q-41 -59 -115 -117 q-63 -49 -168 -100q-84 -41 -205 -82q25 -8 35 -13q14 -6 29 -16q12 -9 18 -19t4 -22q-4 -14 -18 -23q-18 -10 -37 -16q-16 -4 -45 -8q-33 -4 -47 -4q-84 -4 -137 4q-59 8 -123 29q-152 -29 -260 -39q-131 -12 -267 -13q-172 -4 -317 15q-147 18 -289 59q-156 45 -248 92 q-113 57 -188 123q-78 68 -115 146q-36 76 -24 159zM580 606q-9 -58 12 -117q20 -53 72 -108q49 -53 127 -94q72 -39 188 -66l6 74q2 33 12 72q12 37 19 75q8 55 10 76q4 53 -2 94q-8 61 -10 95q-2 31 -2 92l6 92q4 25 8 37q6 20 25 35q37 20 75 28q57 12 91 15q92 6 94 6 q31 0 92 4h106q72 4 107 2q78 -4 115 -4q41 0 118 -4q39 -2 113 -11q53 -6 106.5 -22t83.5 -39q33 -25 52 -51q23 -33 26 -56q8 -41 6 -59q-4 -31 -20 -53.5t-47 -48.5q-33 -29 -64 -47l-73 -41q-78 -37 -181 -74q-100 -35 -209 -47q31 -16 89 -53q29 -18 77 -56l86 -57 q47 -31 99 -51q86 18 182 57q82 33 154 78q66 43 108 94q39 49 43 107q6 49 0 98q-6 55 -22 96q-20 53 -47 94t-78 88q-41 41 -109 80q-55 31 -147 64q-70 25 -174 41q-76 12 -195 12q-123 0 -211 -10q-94 -10 -203 -35q-88 -18 -186 -53q-74 -25 -166 -70q-74 -35 -145 -82 q-61 -41 -112.5 -92t-76 -98.5t-28.5 -106.5zM1268 233v-51q29 -4 86 -4q14 0 42.5 -1t43.5 -1q41 0 127 4t129 8l-88 58l-88 57q-33 16 -107 49q-49 23 -131 29q-6 -16 -10 -49q-2 -8 -2 -23.5t-2 -23.5v-52zM1282 666q2 -37 31 -91q104 0 207 13q88 10 192 43q47 14 82 31 q31 14 64 40q23 18 40 48q14 23 15 51q0 23 -19 33q-20 12 -53 18q-23 4 -67 8q-25 2 -68 2q-29 2 -82 -2t-82 -4h-82q-12 0 -39.5 -1t-42.5 -1q-39 -4 -51 -12q-18 -12 -27 -27q-10 -16 -12 -29q-4 -20 -6 -28q-3 -46 0 -92z" />
<glyph unicode="&#xb4;" horiz-adv-x="491" d="M285 1516q2 4 4 13t4 13q2 6 39 70q23 39 53 69q37 37 82 59.5t125 33.5q23 0 45 -7q25 -6 37 -14q20 -12 24 -18q8 -10 8.5 -22.5t-6.5 -22.5q-4 -6 -12 -23q-14 -25 -47 -68q-31 -41 -65.5 -67.5t-98.5 -50.5q-57 -23 -135 -23l-37 12q-18 6 -18 21q-4 17 -2 25z" />
<glyph unicode="&#x2000;" horiz-adv-x="884" />
<glyph unicode="&#x2001;" horiz-adv-x="1771" />
<glyph unicode="&#x2002;" horiz-adv-x="884" />
<glyph unicode="&#x2003;" horiz-adv-x="1771" />
<glyph unicode="&#x2004;" horiz-adv-x="589" />
<glyph unicode="&#x2005;" horiz-adv-x="442" />
<glyph unicode="&#x2006;" horiz-adv-x="294" />
<glyph unicode="&#x2007;" horiz-adv-x="294" />
<glyph unicode="&#x2008;" horiz-adv-x="219" />
<glyph unicode="&#x2009;" horiz-adv-x="352" />
<glyph unicode="&#x200a;" horiz-adv-x="96" />
<glyph unicode="&#x2010;" d="M289 686q-4 10 2 21q33 29 82 41q68 16 112 20q82 8 123 8q45 0 119 4q31 -2 90 -2q14 0 45 -1t45 -1q61 0 92 -2t93 -2q12 0 35.5 1t35.5 1q25 0 74 -4h76q25 0 82 -4q49 -4 80 -8q35 -6 71 -17q31 -10 56 -26q23 -16 28 -37q-6 -16 -24 -29q-23 -14 -43 -22 q-16 -6 -58 -15q-31 -6 -59 -6q-243 -6 -479 -6q-319 0 -482 2q-45 0 -73 10q-59 23 -62 23q-10 4 -26 16q-2 2 -10.5 7.5t-12.5 9.5q-9 9 -12 18z" />
<glyph unicode="&#x2011;" d="M289 686q-4 10 2 21q33 29 82 41q68 16 112 20q82 8 123 8q45 0 119 4q31 -2 90 -2q14 0 45 -1t45 -1q61 0 92 -2t93 -2q12 0 35.5 1t35.5 1q25 0 74 -4h76q25 0 82 -4q49 -4 80 -8q35 -6 71 -17q31 -10 56 -26q23 -16 28 -37q-6 -16 -24 -29q-23 -14 -43 -22 q-16 -6 -58 -15q-31 -6 -59 -6q-243 -6 -479 -6q-319 0 -482 2q-45 0 -73 10q-59 23 -62 23q-10 4 -26 16q-2 2 -10.5 7.5t-12.5 9.5q-9 9 -12 18z" />
<glyph unicode="&#x2012;" d="M289 686q-4 10 2 21q33 29 82 41q68 16 112 20q82 8 123 8q45 0 119 4q31 -2 90 -2q14 0 45 -1t45 -1q61 0 92 -2t93 -2q12 0 35.5 1t35.5 1q25 0 74 -4h76q25 0 82 -4q49 -4 80 -8q35 -6 71 -17q31 -10 56 -26q23 -16 28 -37q-6 -16 -24 -29q-23 -14 -43 -22 q-16 -6 -58 -15q-31 -6 -59 -6q-243 -6 -479 -6q-319 0 -482 2q-45 0 -73 10q-59 23 -62 23q-10 4 -26 16q-2 2 -10.5 7.5t-12.5 9.5q-9 9 -12 18z" />
<glyph unicode="&#x202f;" horiz-adv-x="352" />
<glyph unicode="&#x205f;" horiz-adv-x="442" />
<glyph unicode="&#x20ac;" horiz-adv-x="2213" d="M160 510q10 29 51 45q45 16 90 23q68 8 109 10q18 0 52 1t50 3l2 26q2 8 4 26t4 26q4 31 13 53h-80h-78q-47 0 -68 6q-25 8 -51 23q-20 12 -29 28q-10 20 -8 35q18 31 64 49q41 16 104 27q41 6 121 10q65 3 117 6q61 86 137 160q88 84 199 145q49 27 122 58q63 27 144 45 q84 20 160 28q70 8 165 5q80 0 150 -13q84 -14 133 -28q65 -18 123 -43q53 -23 104 -52q55 -31 93 -57q43 -31 75 -63q35 -35 52 -68q20 -39 22 -74q2 -16 -6 -35q-10 -20 -31 -34q-25 -16 -49 -25q-31 -9 -74 -6q-74 4 -123 22q-53 20 -84 52q-33 31 -57 63q-25 35 -59 66 q-20 20 -43 30q-37 16 -59.5 22.5t-71.5 14.5q-37 6 -74 6q-94 0 -162 -20q-70 -20 -127 -53q-55 -31 -96 -72q-43 -43 -68 -76q39 0 60 2q31 4 59 0h80q2 0 88 -6q41 -2 82 -12q39 -8 68 -21q27 -10 47 -30q16 -16 16 -43q2 -20 -18 -35q-18 -12 -53 -22.5t-72 -12.5 q-27 -2 -74 -2h-191h-192q-6 -14 -21 -72q-8 -33 -12 -71q53 0 80 2q41 4 78 0h80q12 0 26.5 -1t30.5 -3.5t27 -2.5q25 -2 80 -10q35 -6 67 -18q27 -10 47 -31q16 -16 17 -41q0 -20 -21 -35q-23 -16 -53 -24q-35 -10 -72 -13q-27 -2 -73 -2q-25 0 -76 -1t-78 -1 q-100 0 -152 2q10 -29 22.5 -55.5t39.5 -52.5q25 -25 67.5 -43.5t106.5 -18.5q66 0 209 9q109 6 200 32q46 15 87 31q10 4 81 35q43 16 97 27q70 12 104 14q43 0 66 -8q25 -9 37 -25q14 -18 14 -31q0 -18 -8 -32q0 -23 -9 -33q-20 -29 -55 -53.5t-84 -42.5q-76 -31 -98 -37 l-102 -31q-82 -20 -213 -47q-111 -23 -226 -25q-164 -6 -303 29t-233 88q-92 53 -160 129q-66 76 -86 146q-70 4 -105 4q-37 0 -106 4q-39 0 -69.5 8t-59.5 22q-23 12 -39 31q-12 15 -12 35z" />
<glyph unicode="&#xe000;" horiz-adv-x="1335" d="M0 1335h1335v-1335h-1335v1335z" />
<glyph unicode="&#xfb01;" horiz-adv-x="2291" d="M1850 385q4 106 14 192.5l23 192.5q4 33 11 96.5t11 94.5q2 14 29 190q4 39 8 55q4 23 22.5 55.5t45.5 51.5q33 23 84 37q17 2 33 1l34 -1q23 -2 60 -15q28 -9 49 -24q23 -16 32 -29q28 -55 28 -107q0 -10 -1 -20q-4 -70 -8 -108q-6 -51 -19 -109q-12 -111 -12 -115 q-6 -37 -14 -114q-4 -41 -4 -121q0 -39 8 -121v-113q0 -74 -4 -112l-19 -66q-8 -35 -30 -70q-18 -31 -64 -57q-43 -27 -110 -35h-13q-42 0 -73 17q-45 25 -58 37q-4 6 -11 23.5t-11 25.5q-8 14 -21 47l-18 110q-6 35 -6 64q0 24 4 47zM295 233q0 31 4 48q8 33 10 49l17 100 q10 55 10 102q6 33 4 60q-2 31 0 57q0 41 2 62l6 61q8 39 8 82t6 82q4 53 9 78q2 14 4 26.5t4 22.5t4 29q2 6 2 16t2 14t4 14.5t2 14.5q10 23 35 41q12 8 55 31q37 18 70 26q45 12 78 17q111 16 166 22l168 19q51 6 143 14q98 8 145 14q94 4 140 4q94 0 139 -4q59 -6 98 -20 q49 -18 80 -37q14 -10 31 -21q4 -4 15 -11t16 -11q8 -8 20 -25q8 -10 8 -26q-10 -18 -33 -25q-33 -8 -53 -10q-41 -4 -63 -4q-43 0 -60 -2q-72 -2 -217 -2q-94 0 -213 -11q-35 -4 -100 -16q-49 -9 -92 -24q-41 -14 -78 -35q-29 -16 -51 -45q-27 -35 -43 -78q-14 -37 -15 -80 q-2 -14 0 -29q78 0 117 2l121 6q20 0 60 1.5t61 3.5q29 2 59.5 1.5t61.5 -1.5q47 0 141 -5q57 -2 133 -20q63 -23 82 -53q16 -25 16 -53q0 -8 -2 -17q0 -18 -20 -33q-18 -12 -58 -16q-49 -8 -73 -8h-72q-55 -2 -168 -2q-57 0 -172 -4q-94 -4 -166 -15q-78 -12 -149 -37 q-12 -20 -19 -47q-4 -18 -8 -47q-2 -8 -2 -23.5t-2 -23.5l-6 -47q-4 -35 -8 -104.5t-4 -104.5q-2 -10 -11 -45q-6 -27 -24 -47q-18 -23 -52 -37q-28 -13 -68 -13q-8 0 -18 1q-74 6 -116 26q-47 20 -72 48q-27 27 -39 61q-10 28 -10 63z" />
<glyph unicode="&#xfb02;" horiz-adv-x="3141" d="M1864 342q6 106 35 223l31 115l24 117q2 35 2 100.5t-2 99.5q-1 22 -1 41q0 30 3 56q8 68 15 96q4 27 14 45q14 25 35 43q23 18 59 35q27 12 84 18q23 1 41 1q36 0 59 -5q33 -8 68 -27q23 -12 41 -38q16 -23 22 -48q4 -16 5 -51q0 -16 -5 -45q-12 -84 -36 -168l-52 -168 l-41 -170q-20 -98 -28 -170v-53q0 -35 2 -53q4 -33 8 -51q6 -25 23 -52h27q86 0 184 15q135 20 202 35l119 28q31 8 59.5 16.5t59.5 14.5q63 14 108 27q49 14 113 20q15 2 35 2q17 0 47 -2q39 -2 72 -16q27 -10 43 -31q8 -10 8 -21q0 -10 -6 -20q-23 -43 -70 -72 q-55 -35 -114.5 -57t-141.5 -43l-143 -37q-150 -33 -312 -55q-112 -15 -226 -15q-49 0 -99 3q-82 6 -84 6q-33 4 -80 16q-49 12 -70 23q-37 18 -53 32q-39 43 -51 74q-15 40 -19 80q-6 14 -10 41zM295 233q0 31 4 48q8 33 10 49l17 100q10 55 10 102q6 33 4 60q-2 31 0 57 q0 41 2 62l6 61q8 39 8 82t6 82q4 53 9 78q2 14 4 26.5t4 22.5t4 29q2 6 2 16t2 14t4 14.5t2 14.5q10 23 35 41q12 8 55 31q37 18 70 26q45 12 78 17q111 16 166 22l168 19q51 6 143 14q98 8 145 14q94 4 140 4q94 0 139 -4q59 -6 98 -20q49 -18 80 -37q14 -10 31 -21 q4 -4 15 -11t16 -11q8 -8 20 -25q8 -10 8 -26q-10 -18 -33 -25q-33 -8 -53 -10q-41 -4 -63 -4q-43 0 -60 -2q-72 -2 -217 -2q-94 0 -213 -11q-35 -4 -100 -16q-49 -9 -92 -24q-41 -14 -78 -35q-29 -16 -51 -45q-27 -35 -43 -78q-14 -37 -15 -80q-2 -14 0 -29q78 0 117 2 l121 6q20 0 60 1.5t61 3.5q29 2 59.5 1.5t61.5 -1.5q47 0 141 -5q57 -2 133 -20q63 -23 82 -53q16 -25 16 -53q0 -8 -2 -17q0 -18 -20 -33q-18 -12 -58 -16q-49 -8 -73 -8h-72q-55 -2 -168 -2q-57 0 -172 -4q-94 -4 -166 -15q-78 -12 -149 -37q-12 -20 -19 -47 q-4 -18 -8 -47q-2 -8 -2 -23.5t-2 -23.5l-6 -47q-4 -35 -8 -104.5t-4 -104.5q-2 -10 -11 -45q-6 -27 -24 -47q-18 -23 -52 -37q-28 -13 -68 -13q-8 0 -18 1q-74 6 -116 26q-47 20 -72 48q-27 27 -39 61q-10 28 -10 63z" />
<glyph unicode="&#xfb03;" horiz-adv-x="3854" d="M3412 385q4 106 14 192.5l23 192.5q4 33 11 96.5t11 94.5q2 14 29 190q4 39 8 55q4 23 22.5 55.5t45.5 51.5q33 23 84 37q17 2 33 1l34 -1q23 -2 60 -15q28 -9 49 -24q23 -16 32 -29q28 -55 28 -107q0 -10 -1 -20q-4 -70 -8 -108q-6 -51 -19 -109q-12 -111 -12 -115 q-6 -37 -14 -114q-4 -41 -4 -121q0 -39 8 -121v-113q0 -74 -4 -112l-19 -66q-8 -35 -30 -70q-18 -31 -64 -57q-43 -27 -110 -35h-13q-42 0 -73 17q-45 25 -58 37q-4 6 -11 23.5t-11 25.5q-8 14 -21 47l-18 110q-6 35 -6 64q0 24 4 47zM1858 233q0 31 4 48q8 33 10 49l17 100 q10 55 10 102q6 33 4 60q-2 31 0 57q0 41 2 62l6 61q8 39 8 82t6 82q4 53 9 78q2 14 4 26.5t4 22.5t4 29q2 6 2 16t2 14t4 14.5t2 14.5q10 23 35 41q12 8 55 31q37 18 70 26q45 12 78 17q111 16 166 22l168 19q51 6 143 14q98 8 145 14q94 4 140 4q94 0 139 -4q59 -6 98 -20 q49 -18 80 -37q14 -10 31 -21q4 -4 15 -11t16 -11q8 -8 20 -25q8 -10 8 -26q-10 -18 -33 -25q-33 -8 -53 -10q-41 -4 -63 -4q-43 0 -60 -2q-72 -2 -217 -2q-94 0 -213 -11q-35 -4 -100 -16q-49 -9 -92 -24q-41 -14 -78 -35q-29 -16 -51 -45q-27 -35 -43 -78q-14 -37 -15 -80 q-2 -14 0 -29q78 0 117 2l121 6q20 0 60 1.5t61 3.5q29 2 59.5 1.5t61.5 -1.5q47 0 141 -5q57 -2 133 -20q63 -23 82 -53q16 -25 16 -53q0 -8 -2 -17q0 -18 -20 -33q-18 -12 -58 -16q-49 -8 -73 -8h-72q-55 -2 -168 -2q-57 0 -172 -4q-94 -4 -166 -15q-78 -12 -149 -37 q-12 -20 -19 -47q-4 -18 -8 -47q-2 -8 -2 -23.5t-2 -23.5l-6 -47q-4 -35 -8 -104.5t-4 -104.5q-2 -10 -11 -45q-6 -27 -24 -47q-18 -23 -52 -37q-28 -13 -68 -13q-8 0 -18 1q-74 6 -116 26q-47 20 -72 48q-27 27 -39 61q-10 28 -10 63zM295 233q0 31 4 48q8 33 10 49l17 100 q10 55 10 102q6 33 4 60q-2 31 0 57q0 41 2 62l6 61q8 39 8 82t6 82q4 53 9 78q2 14 4 26.5t4 22.5t4 29q2 6 2 16t2 14t4 14.5t2 14.5q10 23 35 41q12 8 55 31q37 18 70 26q45 12 78 17q111 16 166 22l168 19q51 6 143 14q98 8 145 14q94 4 140 4q94 0 139 -4q59 -6 98 -20 q49 -18 80 -37q14 -10 31 -21q4 -4 15 -11t16 -11q8 -8 20 -25q8 -10 8 -26q-10 -18 -33 -25q-33 -8 -53 -10q-41 -4 -63 -4q-43 0 -60 -2q-72 -2 -217 -2q-94 0 -213 -11q-35 -4 -100 -16q-49 -9 -92 -24q-41 -14 -78 -35q-29 -16 -51 -45q-27 -35 -43 -78q-14 -37 -15 -80 q-2 -14 0 -29q78 0 117 2l121 6q20 0 60 1.5t61 3.5q29 2 59.5 1.5t61.5 -1.5q47 0 141 -5q57 -2 133 -20q63 -23 82 -53q16 -25 16 -53q0 -8 -2 -17q0 -18 -20 -33q-18 -12 -58 -16q-49 -8 -73 -8h-72q-55 -2 -168 -2q-57 0 -172 -4q-94 -4 -166 -15q-78 -12 -149 -37 q-12 -20 -19 -47q-4 -18 -8 -47q-2 -8 -2 -23.5t-2 -23.5l-6 -47q-4 -35 -8 -104.5t-4 -104.5q-2 -10 -11 -45q-6 -27 -24 -47q-18 -23 -52 -37q-28 -13 -68 -13q-8 0 -18 1q-74 6 -116 26q-47 20 -72 48q-27 27 -39 61q-10 28 -10 63z" />
<glyph unicode="&#xfb04;" horiz-adv-x="4704" d="M3426 342q6 106 35 223l31 115l24 117q2 35 2 100.5t-2 99.5q-1 22 -1 41q0 30 3 56q8 68 15 96q4 27 14 45q14 25 35 43q23 18 59 35q27 12 84 18q23 1 41 1q36 0 59 -5q33 -8 68 -27q23 -12 41 -38q16 -23 22 -48q4 -16 5 -51q0 -16 -5 -45q-12 -84 -36 -168l-52 -168 l-41 -170q-20 -98 -28 -170v-53q0 -35 2 -53q4 -33 8 -51q6 -25 23 -52h27q86 0 184 15q135 20 202 35l119 28q31 8 59.5 16.5t59.5 14.5q63 14 108 27q49 14 113 20q15 2 35 2q17 0 47 -2q39 -2 72 -16q27 -10 43 -31q8 -10 8 -21q0 -10 -6 -20q-23 -43 -70 -72 q-55 -35 -114.5 -57t-141.5 -43l-143 -37q-150 -33 -312 -55q-112 -15 -226 -15q-49 0 -99 3q-82 6 -84 6q-33 4 -80 16q-49 12 -70 23q-37 18 -53 32q-39 43 -51 74q-15 40 -19 80q-6 14 -10 41zM1858 233q0 31 4 48q8 33 10 49l17 100q10 55 10 102q6 33 4 60q-2 31 0 57 q0 41 2 62l6 61q8 39 8 82t6 82q4 53 9 78q2 14 4 26.5t4 22.5t4 29q2 6 2 16t2 14t4 14.5t2 14.5q10 23 35 41q12 8 55 31q37 18 70 26q45 12 78 17q111 16 166 22l168 19q51 6 143 14q98 8 145 14q94 4 140 4q94 0 139 -4q59 -6 98 -20q49 -18 80 -37q14 -10 31 -21 q4 -4 15 -11t16 -11q8 -8 20 -25q8 -10 8 -26q-10 -18 -33 -25q-33 -8 -53 -10q-41 -4 -63 -4q-43 0 -60 -2q-72 -2 -217 -2q-94 0 -213 -11q-35 -4 -100 -16q-49 -9 -92 -24q-41 -14 -78 -35q-29 -16 -51 -45q-27 -35 -43 -78q-14 -37 -15 -80q-2 -14 0 -29q78 0 117 2 l121 6q20 0 60 1.5t61 3.5q29 2 59.5 1.5t61.5 -1.5q47 0 141 -5q57 -2 133 -20q63 -23 82 -53q16 -25 16 -53q0 -8 -2 -17q0 -18 -20 -33q-18 -12 -58 -16q-49 -8 -73 -8h-72q-55 -2 -168 -2q-57 0 -172 -4q-94 -4 -166 -15q-78 -12 -149 -37q-12 -20 -19 -47 q-4 -18 -8 -47q-2 -8 -2 -23.5t-2 -23.5l-6 -47q-4 -35 -8 -104.5t-4 -104.5q-2 -10 -11 -45q-6 -27 -24 -47q-18 -23 -52 -37q-28 -13 -68 -13q-8 0 -18 1q-74 6 -116 26q-47 20 -72 48q-27 27 -39 61q-10 28 -10 63zM295 233q0 31 4 48q8 33 10 49l17 100q10 55 10 102 q6 33 4 60q-2 31 0 57q0 41 2 62l6 61q8 39 8 82t6 82q4 53 9 78q2 14 4 26.5t4 22.5t4 29q2 6 2 16t2 14t4 14.5t2 14.5q10 23 35 41q12 8 55 31q37 18 70 26q45 12 78 17q111 16 166 22l168 19q51 6 143 14q98 8 145 14q94 4 140 4q94 0 139 -4q59 -6 98 -20 q49 -18 80 -37q14 -10 31 -21q4 -4 15 -11t16 -11q8 -8 20 -25q8 -10 8 -26q-10 -18 -33 -25q-33 -8 -53 -10q-41 -4 -63 -4q-43 0 -60 -2q-72 -2 -217 -2q-94 0 -213 -11q-35 -4 -100 -16q-49 -9 -92 -24q-41 -14 -78 -35q-29 -16 -51 -45q-27 -35 -43 -78q-14 -37 -15 -80 q-2 -14 0 -29q78 0 117 2l121 6q20 0 60 1.5t61 3.5q29 2 59.5 1.5t61.5 -1.5q47 0 141 -5q57 -2 133 -20q63 -23 82 -53q16 -25 16 -53q0 -8 -2 -17q0 -18 -20 -33q-18 -12 -58 -16q-49 -8 -73 -8h-72q-55 -2 -168 -2q-57 0 -172 -4q-94 -4 -166 -15q-78 -12 -149 -37 q-12 -20 -19 -47q-4 -18 -8 -47q-2 -8 -2 -23.5t-2 -23.5l-6 -47q-4 -35 -8 -104.5t-4 -104.5q-2 -10 -11 -45q-6 -27 -24 -47q-18 -23 -52 -37q-28 -13 -68 -13q-8 0 -18 1q-74 6 -116 26q-47 20 -72 48q-27 27 -39 61q-10 28 -10 63z" />
</font>
</defs>
</svg>
