<?xml version="1.0" standalone="no"?>
<!DOCTYPE svg PUBLIC "-//W3C//DTD SVG 1.1//EN" "http://www.w3.org/Graphics/SVG/1.1/DTD/svg11.dtd" >
<svg xmlns="http://www.w3.org/2000/svg">
<metadata>
This is a custom SVG webfont generated by Font Squirrel.
Copyright   : Copyright c Iconian FontsShyFonts Type Foundry 2000
</metadata>
<defs>
<font id="webfont44iv0SEB" horiz-adv-x="1716" >
<font-face units-per-em="2048" ascent="1638" descent="-410" />
<missing-glyph horiz-adv-x="1329" />
<glyph unicode=" "  horiz-adv-x="1329" />
<glyph unicode="&#x09;" horiz-adv-x="1329" />
<glyph unicode="&#xa0;" horiz-adv-x="1329" />
<glyph unicode="!" horiz-adv-x="862" d="M135 170q-4 33 25 57q23 18 76 41q33 14 104 25q57 8 113 6q23 0 67 -4q31 -2 68 -10q10 -2 59 -19q28 -9 49 -24q39 -27 51.5 -59.5t6.5 -65.5q-4 -33 -33 -56q-37 -29 -76 -45q-41 -16 -102 -26q-55 -10 -115 -6q-70 4 -119 20q-45 16 -92 45q-35 20 -59 57 q-23 33 -23 64zM324 563q16 102 20 123q20 82 33 123q16 27 26 65q2 4 13 66q6 35 6 66q0 20 4 65q2 45 23 98q16 43 49 97q25 27 57 51q33 23 76 39q37 14 90 20q47 6 96 0q37 -6 57 -14q14 -6 44 -25q20 -14 32 -28l27 -31q14 -27 24 -59q8 -27 9 -62q-6 -47 -27 -106 q-25 -70 -41 -105t-53 -104q-14 -25 -55 -105q-41 -55 -64 -98q-27 -51 -59.5 -98t-83.5 -92q-53 -47 -129 -76q-70 4 -101 24q-33 23 -47 54q-16 37 -22 55q-8 22 -4 57z" />
<glyph unicode="&#x22;" horiz-adv-x="1316" d="M311 1104q2 29 21 76q14 37 37 75q10 10 30 35l35 35q6 6 45 31q18 12 62 22q6 0 18 3t21 5q29 4 41 5q39 2 69 -7q29 -8 51 -24q25 -18 35 -33q14 -20 19 -33q20 -63 22 -104q2 -31 -2 -92q-4 -18 -8 -51q0 -10 -4 -29t-4 -27q-2 -25 -13 -53q-8 -23 -28 -51 q-16 -23 -49 -45q-27 -18 -78 -35q-18 -6 -37 -6h-39q-43 2 -80 16q-23 8 -55 33q-25 18 -39 39q-4 6 -14.5 19.5t-14.5 19.5q-31 49 -37 88q-6 47 -4 88zM907 1020l4 39q6 22 7 43q2 16 5 45t3 43q4 45 18 90q6 18 27 39q16 16 45 33q23 12 63 22q31 8 82 4q61 -10 99 -26 q45 -20 65 -41q25 -25 37 -51.5t18 -59.5q6 -31 6 -57q0 -10 1.5 -28.5t1.5 -27.5q-10 -57 -15 -77q-9 -40 -31 -80q-20 -39 -59 -72q-37 -31 -108 -57q-4 0 -17 -4q-6 -2 -16 -2l-35 -4h-10q-45 0 -64 6q-29 10 -45 20t-31 29q-8 10 -20 31q-18 35 -25 69q-8 49 -6 74z" />
<glyph unicode="#" horiz-adv-x="1904" d="M225 711q0 20 17 37q20 20 43 30q25 10 63 21q6 2 76 12q29 4 78 8q39 2 71 4q4 16 9 49q0 8 4 24.5t4 25.5q-20 -2 -66 -2h-65q-31 0 -45 2q-10 2 -37 10q-8 2 -20.5 8t-14.5 6q-6 4 -14.5 7t-16.5 8q-25 18 -37 38q-14 25 -8 45q14 29 56 48q43 20 94 28q68 12 110 17 q16 2 52 5t55 5q6 20 26 53q16 25 50 51q29 23 77 39q43 14 107 15q37 0 70 -7q29 -6 59 -20q20 -10 39 -29q14 -14 10 -37l-4 -61q25 0 51.5 -1t52.5 -1q16 0 51 -1t54 -1q8 23 18 47q8 25 31 49q23 27 51 39q39 18 90 21q45 -2 88 -13q45 -10 78 -24q74 -29 90 -76l-2 -19 l2 -18l2 -14q47 -2 101 -13q51 -8 94 -24q45 -16 70 -35q29 -23 28 -49q3 -18 -12 -37q-12 -14 -43 -29q-23 -10 -61 -20q-31 -8 -70 -8h-113l-8 -101q29 -4 90 -8q47 -2 90 -12q45 -10 72 -24.5t31 -41.5q0 -12 -6 -24q-6 -10 -19 -21q-2 -2 -11 -10t-15 -12l-29 -21 q-49 -20 -74 -28q-33 -10 -86 -15l-39 -2h-33h-8q0 -6 -4 -22q0 -2 -3 -10.5t-3 -12.5l-6 -24q-2 -10 -12 -23q-14 -18 -33 -29q-27 -14 -49 -22q-51 -18 -58 -19q-39 -8 -65 -10q-59 0 -103 17q-39 14 -61 40q-25 29 -31 54q-6 31 -4 55q-74 0 -108 2h-107l-4 -59 q0 -14 -8 -23q-14 -14 -23 -20q-14 -10 -28 -17q-10 -4 -35 -12q-31 -14 -80 -25q-47 -10 -90 -10q-53 6 -92 27q-31 16 -54 43q-18 20 -28 51l-17 53h-75q-51 0 -76 4q-35 0 -72 11q-41 10 -59 20q-31 14 -43 31q-17 21 -17 37zM1038 823h107q72 0 108 2q0 8 1 24.5t1 24.5 q0 33 -2 50h-206z" />
<glyph unicode="$" horiz-adv-x="1708" d="M125 555q-6 18 6 31q10 10 35 20q29 12 51 15q20 2 59 2q66 -4 97 -9q37 -4 94 -16q35 -8 96 -16q47 -6 94 -19q45 -6 139.5 -14t141.5 -8q6 0 20.5 1t22.5 1q14 0 43 4q14 2 35 10q15 6 18 18q2 25 -18 46q-18 18 -58 34q-47 20 -79 27q-57 12 -86 16q-8 2 -220 31 l-112 16.5t-107 14.5q-66 14 -84 20q-47 16 -73 33q-25 14 -47 41q-18 23 -13 49q8 27 39 47.5t72 39t90 30.5l90 24q98 25 203 43q92 16 213 27q16 39 35 107q14 51 36 106q16 29 33 47q20 25 51 45q29 20 72 32.5t96 12.5q14 0 52 -4q6 0 17 -2t20.5 -3t17.5 -1 q25 -2 49 -10q14 -4 39 -17q45 -14 67.5 -40.5t20.5 -53.5l-12 -55q-6 -29 -25 -53q-37 -53 -51 -105q74 -6 160 -26q23 -6 145 -43l62 -25q27 -10 55 -29q25 -16 41 -34q14 -16 14 -39q0 -18 -20 -33q-23 -14 -50 -21q-41 -8 -65 -10q-27 -2 -68 2q-33 2 -96 2q-47 0 -92 6 q-94 6 -96 7q-51 6 -97 4q-10 0 -18 1t-16.5 1t-32.5 4l-25 -13q6 -10 31 -22q23 -12 43 -16q8 -2 23.5 -7.5t23.5 -7.5q33 -8 47 -14l48 -12.5l57.5 -15.5t48.5 -15q80 -25 145 -51q18 -6 62 -31q37 -20 51 -33q16 -14 31 -39q12 -22 12 -43q-8 -29 -27 -51 q-25 -27 -49 -45t-67.5 -38.5l-77.5 -35.5q-76 -27 -185 -53q-100 -25 -200 -37q-2 -16 -2 -49q0 -14 4 -47q0 -33 2 -49q4 -27 -2 -49q0 -6 -4 -16.5t-4 -16.5q-4 -25 -9 -33q-4 -10 -16 -31q-6 -10 -27 -30q-16 -20 -49 -33q-37 -14 -67 -23q-37 -9 -80 -12q-29 -2 -82 -2 q-20 0 -58 4q-27 2 -55 10q-23 6 -45 19q-20 12 -31 24q-6 12 -6 27q0 16 2 25q0 20 2 32q2 6 5.5 18.5t3.5 16.5l8 33q0 6 4 17.5t4 17.5q8 23 20 67l19 70q-86 6 -180 22q-86 14 -166 41q-82 27 -142 58q-61 33 -112 74q-16 14 -27 30q-8 15 -8 33z" />
<glyph unicode="%" horiz-adv-x="2392" d="M266 1044q16 61 47 113q33 53 103 105q63 51 166 81q100 31 223 37q141 12 252 -12q115 -25 186 -74q72 -47 103 -112q31 -63 10 -125q-2 -20 -10 -56q-6 -31 -21 -55l293 244q139 115 303 237q8 6 16.5 13.5t16.5 13.5l39 24.5t47 20.5q16 6 57 10q55 -3 105 -12 q43 -8 88 -29q43 -20 61 -41q23 -25 19 -53q-16 -45 -50 -84q-37 -43 -73 -78q-29 -27 -90 -75l-89 -74l-229 -178l-227 -178l-389 -306l-377 -305q-43 -33 -82 -73l-74 -74q-16 -20 -61 -32.5t-88 -10.5q-59 4 -100.5 14t-78.5 33q-29 16 -49 45q-18 23 -14 51q2 16 16 37 q12 18 27 33q12 12 37 33l37 32l352 297l354 295q-74 -29 -170 -45q-106 -16 -192 -14q-59 0 -119 6q-63 6 -111 20q-66 18 -96 35q-51 27 -76 45q-59 45 -82 107q-20 53 -10 114zM686 1010q0 -14 2 -21q4 -12 10 -18q10 -10 23 -13q23 -4 39 -2q43 0 71 13q33 14 46 28 q16 20 22 39q10 35 10 37q0 12 4 33q2 10 -2 35q-8 10 -39 20q-29 10 -61 6q-23 0 -41 -6q-16 -6 -31 -16q-16 -12 -22 -21q-10 -12 -12 -20q-10 -18 -11 -47q0 -14 -8 -47zM1360 303q-12 63 33 131q47 70 129 117q88 51 207 78q127 29 264 20q55 0 110.5 -6t104.5 -18 q41 -10 90 -33q45 -20 67 -43q55 -47 72 -103q16 -57 4 -108q-8 -59 -51 -117q-45 -59 -117 -108q-68 -47 -182.5 -84t-230.5 -39q-129 -12 -238 14q-102 25 -167.5 72t-90 108.5t-4.5 118.5zM1804 262q6 -23 37 -35q33 -14 80 -10q25 -2 49 8q16 8 29 23q4 14 8 26 q2 8 2 25l4 18l2 19q4 16 4 29q0 18 -8 28q-10 14 -26 23q-20 10 -54 10q-29 0 -53 -6q-23 -6 -41 -17q-8 -4 -22 -24q-8 -10 -9 -27q-14 -47 -2 -90z" />
<glyph unicode="&#x26;" horiz-adv-x="2043" d="M229 489q-2 43 27 89q28 43 80 79.5t123 67.5q53 23 149 49q-35 18 -100 60q-53 33 -86 63q-39 37 -57 72q-18 39 -7 80q4 39 27 71q25 35 66 66q35 27 92 57q70 37 108 51q113 43 260 70q137 25 285 25q123 0 219 -9q92 -8 207 -28q72 -14 96 -21q45 -10 90 -28 q40 -15 68 -37q27 -20 33 -47q0 -14 -6.5 -26.5t-18.5 -25.5q-14 -14 -24 -22q-8 -6 -14.5 -12.5t-14.5 -10.5q-10 -8 -70 -37q-37 -18 -90 -18q-80 0 -139 8q-90 12 -135 17l-74 4t-72 6q-94 8 -143 8q-14 0 -43 -4t-43 -8q-4 0 -9 -2t-12 -4q-2 -2 -10 -2t-10 -3 q-2 0 -5 -2t-5 -4t-4 -2q-6 -2 -11 -12q-2 -10 2 -33q2 -18 17 -35q12 -15 30.5 -30.5t49.5 -24.5q59 -16 137 -26l145 -17l144 -12q92 -8 145 -10q14 23 35 34q29 18 55 29q20 8 70 16q33 6 76 3q65 0 116 -13q49 -12 86 -35q33 -20 52 -53q16 -29 10 -57q-4 -39 -21 -127 q-8 -43 -32 -125q-16 -55 -41 -125l-43 -127q-6 -12 -19.5 -35.5t-15.5 -27.5q-16 -29 -45 -66q-27 -33 -62 -59q-37 -29 -88 -54q-45 -16 -114 -34q-41 -10 -127 -22.5t-134 -14.5l-133 -6q-96 -2 -200 10q-127 16 -189 30q-104 25 -172 52q-80 31 -149 65q-71 34 -129 74 q-39 27 -99 86q-41 41 -63 92q-23 53 -21 100zM778 475q-4 -25 12.5 -47t43.5 -41q23 -14 65 -33q29 -12 80 -26q86 -25 180 -37q95 -12 197 -12l37 2l37 2h32q10 41 20.5 77.5t18.5 71.5l37 150q-35 4 -92 8q-16 0 -49 2t-49 2q-33 -2 -107 -2q-37 0 -114.5 -4t-114.5 -8 q-61 -6 -105 -19q-49 -12 -80 -33q-33 -20 -49 -53z" />
<glyph unicode="'" horiz-adv-x="706" d="M289 1110q8 49 18 74q20 49 35 73q6 8 11 17.5t14 19.5q10 12 32 35q18 18 41 33q25 16 58 24q45 10 86 11q43 -2 75 -17q33 -12 55.5 -32.5t37 -39t24.5 -40.5q33 -57 41 -86q12 -39 8 -88q-6 -40 -18 -80q-12 -41 -39 -76l-29 -39q-20 -25 -34 -39q-16 -16 -46 -33 q-23 -12 -63 -22q-14 -4 -39 -8q-14 -2 -41 -2q-57 8 -102 28q-41 18 -68 45q-25 25 -37 56q-14 33 -16 63q-4 41 -4 64v59z" />
<glyph unicode="(" horiz-adv-x="1599" d="M182 598q6 115 58 223q52 111 141 215q96 109 229 203q143 100 322 168q96 35 182 53q94 20 207 15q63 -2 113 -19q53 -16 84 -39q35 -25 49 -51q16 -29 12 -59q-6 -14 -22.5 -24.5t-38.5 -16.5l-45.5 -12.5l-45.5 -12.5q-172 -37 -303 -104q-133 -68 -213 -152 q-49 -49 -73 -90q-23 -37 -45 -94q-20 -49 -29 -96q-6 -37 -14 -97q-2 -25 -2 -76q0 -25 12 -77q8 -39 31 -76q20 -37 57 -70q41 -35 86 -59q41 -23 104 -51q37 -16 119 -45q49 -18 125 -39q61 -18 123 -31l123 -29q31 -6 45 -20q16 -16 14 -33q-6 -27 -30.5 -51.5 t-63.5 -42.5q-51 -23 -88 -33q-43 -10 -107 -14q-100 -8 -217 8q-106 16 -196 45q-70 18 -166 61q-96 41 -144 72q-98 61 -122 80q-63 49 -103 88q-92 92 -133 186q-43 101 -35 197z" />
<glyph unicode=")" horiz-adv-x="1595" d="M334 1350q2 29 33 53q27 20 75 41q51 20 101 29q55 10 108 12q133 12 262 -4q121 -14 230 -54q104 -37 190 -86t148 -104q131 -109 198 -240q68 -129 56 -260q-6 -63 -35 -135q-27 -66 -72 -133q-41 -61 -100 -127q-51 -57 -123 -125q-29 -27 -137 -113 q-74 -59 -170.5 -108t-210.5 -80q-117 -31 -258 -25q-47 2 -105 17q-52 12 -92 31q-41 18 -65.5 42.5t-28.5 55.5q-2 12 10 29q10 12 37 22l28.5 7l28.5 7q35 8 60 11q104 20 170 47q88 35 141 65q61 35 113 80q43 39 88 86q92 98 133 195q45 104 53 205q6 86 -43 167 q-45 78 -160 146q-98 57 -235 102q-145 47 -283 70q-12 4 -24.5 6l-24.5 4q-20 6 -47 17q-25 10 -37 20.5t-12 26.5z" />
<glyph unicode="*" horiz-adv-x="1497" d="M201 733q14 29 53 55q33 23 84 41q90 35 100 37q70 20 101 33l-90 35q-68 27 -87 37q-43 23 -67 45q-33 29 -37 51q9 22 31 43q18 18 55 35q43 20 74 26q45 10 86 11q35 0 65 -6q25 -4 56 -17q25 -8 51 -22q10 -6 22.5 -12.5l24.5 -12.5l2 12q8 41 18 62q16 33 41 57 q29 29 80 47q55 18 115 17q43 0 76 -9q45 -10 65 -20q29 -12 47 -31q16 -16 17 -39q0 -14 -4 -43q0 -6 -4.5 -20.5t-4.5 -22.5q66 27 115 41q59 16 135 21q35 -2 82 -15q29 -6 68 -26q25 -12 47 -35q20 -18 22 -41q-4 -25 -18 -45q-16 -23 -59 -35q-68 -18 -164 -47 l-160 -51l135 -45l135 -45q41 -12 54 -37q14 -29 6 -47q-2 -6 -23 -41q-12 -20 -39 -39q-25 -16 -67 -31q-33 -10 -80 -14q-70 0 -119 14q-25 8 -98 35v-14q0 -6 -4 -15q0 -20 -33 -43q-25 -18 -70 -35q-41 -16 -88 -24q-33 -6 -98 -10q-68 4 -98 20q-29 16 -52 45 q-20 27 -22 55q-2 20 -2 54q-16 -4 -49 -16.5t-49 -16.5q-47 -12 -52 -12q-37 -4 -55 -2q-43 -2 -94 8q-6 2 -82 24q-39 12 -66 33q-26 18 -28 43z" />
<glyph unicode="+" horiz-adv-x="1429" d="M137 705q16 25 45 43q31 18 74 30q31 8 92 17q96 12 101 12q16 0 51 1t51 3q16 0 48 1t46 3l2 21q2 29 17 69q10 31 45 70q31 34 86 55q53 20 137 21q45 0 78 -9q49 -12 67 -22q29 -16 45.5 -32.5t20.5 -39.5q-4 -47 -2 -69q4 -37 -2 -70h22q4 0 11.5 -1t11.5 -1 q14 0 45 -1t47 -1q49 0 98 -6q61 -8 92 -15q45 -10 78 -24q39 -18 53 -35q18 -20 19 -47q-2 -18 -22.5 -39t-49.5 -35q-31 -16 -69 -24q-45 -10 -80 -11q-94 0 -139.5 -2t-137.5 -2q-6 -29 -6 -59q0 -35 -8 -62q-6 -25 -33 -45q-20 -16 -70 -34q-41 -20 -86 -29 q-55 -10 -102 -10q-78 10 -115 34q-41 29 -59 62q-18 35 -23 74q-2 14 -5 37.5t-3 31.5h-116q-80 0 -121 2q-51 0 -95 13q-49 14 -73 32q-29 16 -51 43q-21 25 -15 50z" />
<glyph unicode="," horiz-adv-x="763" d="M127 -74q0 29 16 62q16 31 39 57q41 47 54 57l61 54l70 49q37 28 79 49q45 23 95 37q53 16 114 18q51 -2 99 -16q39 -10 63 -39q14 -18 21 -47q8 -33 6 -47q-6 -35 -31 -70q-29 -41 -59 -65q-59 -49 -78 -62l-90 -55q-10 -6 -18.5 -10l-15.5 -7.5t-20 -11.5 q-37 -20 -57 -29q-41 -16 -63 -22q-31 -8 -76 -8q-10 2 -30.5 2t-31.5 2q-47 4 -67 10q-27 8 -45 25q-18 14 -27 32q-8 17 -8 35z" />
<glyph unicode="-" d="M283 705q29 39 86 59q59 23 131 31q74 10 149 12q25 0 74 1t72 3h92q57 0 88 -2q16 0 47 -1t45 -1h92q61 0 180 -4q123 -4 183 -8q57 -8 86 -15q49 -10 78 -22q39 -16 57 -35q23 -23 20 -45q-6 -18 -32 -39q-23 -16 -58 -33q-25 -10 -78 -22q-29 -6 -86 -11 q-213 -8 -479 -8q-119 0 -239.5 1t-241.5 1q-47 2 -98 17q-53 14 -80 28q-4 2 -35 21q-16 10 -29 22q-18 18 -20 23q-6 15 -4 27z" />
<glyph unicode="." horiz-adv-x="811" d="M201 162q6 33 37 59q29 27 77 49q43 20 105 33q58 12 123 12q68 4 119 -8q70 -16 100 -31q41 -20 63 -49q23 -31 21 -59q-2 -35 -29 -70q-23 -31 -74 -61q-47 -31 -106 -47q-63 -18 -137 -19q-80 -4 -138 15q-63 18 -98 43q-39 27 -55 63.5t-8 69.5z" />
<glyph unicode="/" horiz-adv-x="1480" d="M98 72q0 31 13 57q16 37 28 55q25 37 39 56l45 53l111 115q80 86 110 116q74 78 125.5 139.5t124.5 139.5q115 121 244 237l262 232q29 25 64 51q23 18 79 47q53 27 97 37q49 12 119 8q37 -4 55 -8q27 -6 51 -16q29 -12 37 -21q12 -12 12 -29q0 -25 -4 -34 q-6 -16 -16 -33q-10 -18 -23 -33q-20 -27 -22 -31l-60 -67q-28 -34 -61 -68l-219 -246l-228 -243l-241 -240q-147 -141 -260 -237q-47 -37 -62 -48q-29 -20 -74 -45q-29 -14 -90 -30q-55 -14 -110 -9q-70 6 -109 33q-40 28 -37 62z" />
<glyph unicode="0" horiz-adv-x="1972" d="M236 659q10 115 65 228q57 117 162 217q51 55 108 98q72 55 146 90q86 41 182 68q94 25 219 29q182 0 334 -35t254 -90q111 -59 178 -134q71 -77 111 -159q41 -86 53 -168q12 -80 -2 -164q-4 -45 -23 -109q-12 -47 -45 -110q-25 -49 -71 -107q-45 -53 -103 -100 q-57 -51 -131 -92q-84 -47 -170 -76q-90 -31 -200 -49q-102 -18 -224 -14q-121 0 -217 20q-106 23 -184 57q-86 39 -148 82q-74 53 -110 92q-51 51 -86 101q-35 47 -62 106q-23 49 -32.5 108.5t-3.5 110.5zM778 522q0 -34 6 -67q6 -29 23 -64q14 -31 49 -57q31 -25 82 -41 q57 -18 125 -21q53 -2 121 13q55 12 100 34q51 25 80 50q34 28 55 55q51 88 71.5 155.5t27.5 145.5q0 10 -1 35.5t-1 40.5q0 45 -9 84q-10 45 -26 82q-20 43 -58 71q-43 33 -100 53.5t-154 26.5q-76 -4 -120 -20q-49 -18 -84 -47q-33 -27 -58 -62l-41 -59q-23 -41 -39 -92 q-23 -66 -26 -88l-15 -84q-4 -29 -8 -82v-62z" />
<glyph unicode="1" horiz-adv-x="903" d="M242 1206q2 27 26 62q18 27 62 55q29 20 90 41q43 16 119 22q10 0 61 -12q29 -6 59 -14q78 -23 136 -51q51 -25 102 -70q39 -33 66 -80q25 -43 24 -86q-4 -16 -2 -24.5t2 -22.5q-6 -100 -20 -176l-33 -176q-15 -89 -37 -178q-14 -61 -31 -177q3 -22 0 -43q-4 -29 -2 -43 q0 -27 -2 -40q0 -2 -3 -17.5t-3 -23.5q0 -29 -14 -52q-16 -27 -37 -47q-25 -29 -64 -45q-37 -16 -94 -22q-51 -4 -76 -2q-39 4 -71 12q-35 10 -60 20q-33 14 -47 27q-25 25 -33 47q-12 33 -14 51q-2 16 -2 52q0 8 1 25.5t1 25.5q4 51 21 157q14 98 26 156l33 164 q20 102 27 162q0 29 2 45v47q0 27 -9 45q-10 25 -28 43q-12 6 -28.5 13t-35.5 16q-33 14 -59 32q-29 18 -43 39q-16 23 -10 43z" />
<glyph unicode="2" horiz-adv-x="2043" d="M283 1018q-6 27 0 53q14 51 55 84q46 37 111 68q47 23 143 53q72 23 156 43q158 35 342 51q195 16 352 14q117 -2 205 -41q86 -37 131 -88q53 -51 77 -104q23 -51 23 -115q0 -37 -12 -69q-10 -31 -35 -68q-20 -35 -53 -65q-43 -43 -66 -64l-172 -129l-174 -129l-82 -63 q-53 -41 -76 -64q-43 -43 -61 -66q-27 -33 -45 -69q197 16 385 37q209 25 385 35q43 2 94 -13q47 -14 72 -33q35 -23 53 -38q18 -18 14 -50q-59 -35 -131 -55q-76 -23 -155 -37q-117 -23 -166 -28l-164 -25q-207 -27 -379 -41q-190 -16 -385 -12q-63 0 -117 16 q-49 14 -84 41q-33 23 -49 57q-14 27 -10 62q0 41 18 78q16 33 47 73q23 31 68 72l76 68l205 161l206 160q43 35 82 70q27 25 72 74q35 39 55 75q23 43 29 78q2 10 -4 25q-8 16 -19 22q-18 10 -36 17q-14 4 -52 4q-39 0 -120 -8q-55 -6 -117 -19q-37 -6 -107 -22 q-53 -12 -90 -37l-14 -19l-12 -16l-11 -16q-12 -20 -36 -39q-20 -14 -58 -29q-43 -16 -74 -20q-40 -6 -79 -7q-39 0 -57.5 2t-51.5 11q-29 8 -43 16q-20 14 -29 27q-22 18 -30 51z" />
<glyph unicode="3" horiz-adv-x="2002" d="M254 1059q18 39 61 69q41 29 101 58q58 28 123 49l127 45l137 37q94 25 143 35q74 15 148 24q82 10 153 10q106 0 209 -22q90 -20 176 -59q49 -25 72 -39q29 -18 55 -45q29 -29 39 -50q12 -25 12 -53q-4 -33 -18 -59q-20 -37 -39 -58q-33 -37 -53 -55l-62 -51 q117 -6 220 -39q94 -31 157 -78q59 -45 86 -106q23 -55 4 -117q-6 -68 -39 -115q-37 -55 -94 -106q-58 -52 -135 -98q-80 -47 -164 -84q-86 -40 -184 -74q-80 -27 -209 -53q-125 -25 -221 -33q-115 -10 -232 -6q-76 4 -133 20q-59 18 -98 47q-49 28 -74 62q-25 33 -24 71 q0 4 4 16.5t8 18.5q6 8 14 15q14 10 27 12q12 4 70 8q12 0 34.5 1t34.5 3q65 3 123 6q78 4 119 8q106 12 215 35q86 18 196 58q46 15 87 36q45 25 71 43q31 20 51 50q18 27 23 55q4 12 2 20q-4 14 -12 23q-14 14 -25 18q-20 8 -43 9q-143 0 -311 -17q-158 -16 -301 -51 q-20 -4 -56 -14.5l-43 -12.5q-37 -10 -100 -20q-55 2 -102 18q-46 15 -80 37q-45 25 -64 43q-23 23 -26 53q4 27 18 43q14 18 47 39q8 6 64 31q29 12 69 27q35 10 83 26.5t100 30.5l184 55q49 20 74 33q51 25 65 37q37 29 49 43q18 23 19 47q4 12 8 18q6 8 8 17l-16 6 q-111 -10 -191 -35l-176 -53l-147 -47q-66 -20 -158 -43q-16 0 -49 4q-20 2 -47 10q-23 6 -41 15q-4 2 -18.5 7t-20.5 9q-14 8 -31 16q-6 4 -28 21q-12 8 -21 20q-8 11 -4 25z" />
<glyph unicode="4" horiz-adv-x="1851" d="M123 707q8 57 41 118q23 41 76 115q49 66 100 117q53 53 121 108q35 31 69 56q37 25 82 51q45 29 78 45q43 23 101 31q57 2 108 -11q47 -12 88 -30q12 -6 37 -23q29 -18 33 -22q16 -12 22 -27q6 -12 6 -29q-10 -27 -26 -49q-12 -16 -41 -49l-47 -47l-49 -45 q-41 -39 -107 -109q-53 -55 -90 -110q78 -8 242 -17q160 -8 239 -14q16 45 19 82q0 14 4 42t4 42q4 53 4 82q0 31 4 84q4 25 16 90q6 35 33 90q8 20 31 39q23 20 55 33q39 14 72 20q45 6 86 4q61 -4 106 -18q53 -18 80 -35q33 -20 52 -49q20 -31 20 -55q2 -37 -2 -107 l-12 -104q-2 -27 -5.5 -54.5t-5.5 -54.5l-12 -106q-2 -10 2 -31q2 -10 2 -31q45 -12 66 -20q18 -8 51 -31q18 -12 33 -35q12 -16 8 -41q-12 -39 -51 -72q-41 -35 -113 -49q-4 -12 -8 -28.5t-8 -28.5q-4 -41 -4 -66v-63q2 -20 -2 -64l-7 -61q-2 -25 -20 -59q-12 -27 -47 -54 q-31 -25 -78 -43q-43 -16 -111 -20q-41 -4 -82 0q-51 4 -73 10q-31 8 -60 25q-31 16 -41 34q-18 18 -24 39q-4 14 -8 43q-2 14 -2 43q0 8 2 22.5t2 20.5q2 14 6 47t8 48q12 29 14 47q4 33 9 47q-3 12 0 24.5t0 24.5q-49 4 -70 4h-70q-129 0 -258 6q-150 6 -252 23 q-33 4 -114 16q-45 8 -115 23q-51 10 -102 30q-53 20 -82 41q-23 23 -29 45q-6 27 -4 50z" />
<glyph unicode="5" horiz-adv-x="2027" d="M270 637q8 119 41 250q18 55 33 123q10 55 31 120q12 51 59 95q49 47 131 73q96 33 176 45q95 15 191 25q129 14 237 16q121 4 240 0l133 -6q66 -2 121 -24q61 -18 86 -54q27 -37 20 -67q4 -23 -12 -41q-14 -18 -53 -31q-35 -8 -82 -8q-53 0 -82 -2q-27 0 -79 -2 t-78.5 -2t-79 -2t-78.5 -2l-79 -8.5t-79 -6.5q-78 -6 -152 -24q-20 -66 -36 -133q-2 -6 -12.5 -56.5t-18.5 -74.5q55 33 143 65q59 23 168 49q89 22 184 31q111 10 191 8q47 0 137 -8q45 -4 131 -20q57 -10 119 -35q63 -25 98 -47q41 -25 72 -58q33 -37 45 -63 q18 -39 21 -68q3 -34 0 -67q-6 -66 -54 -129q-46 -61 -116 -117q-74 -57 -162 -105q-123 -66 -189 -94q-86 -37 -206 -78q-127 -43 -228 -65q-113 -27 -246 -39q-127 -12 -256 -6q-70 4 -125 20q-55 18 -92 45q-39 29 -57 60q-20 33 -23 65q0 33 31 60q31 29 98 35 q37 4 111 8t113 2h110q35 0 109 8q66 10 102 22q41 12 92 35q29 12 82 41l76 41l74 45q14 8 65 49q31 25 52 52q22 28 30 55l2 18q0 14 -8 29q-8 12 -45 16q-41 -2 -100 -14q-61 -12 -90 -22l-88 -31q-57 -23 -84 -31l-166 -70l-166 -67q-53 -23 -119 -37q-63 -14 -133 -14 q-84 4 -131 24q-51 23 -86 58q-39 49 -49 67q-21 39 -15 74z" />
<glyph unicode="6" horiz-adv-x="1882" d="M219 479q6 59 24.5 114.5t47.5 113.5q37 74 59 110q45 74 70 111l76 104q25 35 82 105q35 41 100 100q61 55 129 94q45 23 111 39q51 12 129 16q43 6 79 0q39 -6 66 -18t45 -30.5t20 -37.5q10 -27 15 -65q-41 -55 -98 -113l-109 -110l-80 -86q-35 -37 -70 -90 q102 27 240 41q133 12 250 10q70 0 139 -6q61 -6 133 -23q94 -23 121 -33q61 -23 100 -49q80 -51 113 -119q31 -68 23 -131q-6 -51 -31 -100t-66 -96q-35 -41 -96 -88q-45 -35 -121 -82q-68 -41 -143 -74q-76 -31 -168 -57q-90 -25 -186 -37q-104 -12 -201 -10 q-96 0 -174 14q-111 20 -160 37q-70 23 -137 55q-55 27 -111 68q-43 27 -92 73q-41 39 -72 78q-29 37 -45 84q-14 43 -12 88zM791 334q-4 -23 18 -39q20 -14 59 -25q37 -10 78 -12q57 -4 80 -4q94 -2 191 16q92 18 159 56q63 37 99 84q33 45 36 96q4 20 -2 39q-6 20 -24 39 q-12 12 -47 26q-33 12 -76 11q-74 0 -145.5 -16.5t-133.5 -37.5q-72 -20 -120 -45q-51 -25 -93 -63q-6 -4 -14 -14.5t-14 -16.5q-10 -10 -27 -31q-10 -12 -18 -32q-6 -16 -6 -31z" />
<glyph unicode="7" horiz-adv-x="1849" d="M242 1108q6 41 43 78q39 39 94 67q57 31 127 52q71 22 147 36q135 27 324 37q166 8 330 6q76 -2 223 -10q109 -6 217 -24q47 -8 96 -25q57 -18 84 -35q41 -25 60 -45q23 -27 22 -53q-25 -55 -51 -98q-41 -66 -66 -97l-73 -94l-76 -96l-195 -232l-200 -229 q-25 -33 -37 -53q-20 -37 -29 -55l-25 -58l-24 -55q-20 -37 -33 -55q-23 -33 -45 -54q-14 -10 -41 -16q-33 -8 -49 -10q-49 -6 -55 -6q-10 0 -27.5 -1t-26.5 -1q-76 -4 -127 10q-57 14 -96 39q-35 23 -55 55q-18 31 -12 64q4 35 14 61q16 41 29 61q16 27 39 60l22 29.5 l23 29.5l282 344l279 344q8 16 14 25q4 6 9 12t9 12q-20 0 -59 1t-57 4q-37 2 -117 2q-78 0 -119 -2q-43 -2 -116 -15q-53 -8 -107 -24q-45 -12 -90 -41q-34 -22 -80 -37q-53 -18 -100 -21q-51 -2 -115 4q-51 6 -102 23q-49 12 -70 35q-22 24 -12 51z" />
<glyph unicode="8" horiz-adv-x="1916" d="M240 358q-6 49 24.5 94.5t83.5 84.5q59 43 129 71q78 33 158 54q-74 16 -148 47q-70 29 -116.5 63.5t-71.5 77.5t-12 88q6 45 32 86q25 37 70 80q43 40 98 74q45 29 117 63q68 33 133.5 59.5t149.5 45.5q90 20 162 28q92 10 172 10q160 0 295 -36q139 -37 237 -91 q41 -20 98 -57q43 -29 78 -63q31 -31 51 -72q18 -37 19 -76q6 -47 -23 -94q-31 -49 -80 -88q-51 -39 -127 -74q-63 -29 -159 -53q74 -22 135 -49q63 -29 106 -66q47 -41 66 -78q20 -43 12 -86q-10 -49 -31 -82q-25 -39 -63 -75q-41 -39 -90 -72q-33 -23 -111 -63 q-47 -23 -129 -54q-70 -25 -143 -43q-55 -12 -158 -24q-96 -10 -166 -8q-150 0 -297 28q-141 28 -252 80q-49 23 -102 57q-43 29 -80 66q-33 33 -51 70q-16 32 -16 77zM817 340q-4 -25 19 -41q20 -14 59 -25q37 -9 80 -12q57 -4 82 -4q41 -2 94 4q61 8 92 17q35 10 70 32 q25 16 24 45q2 18 -14 43q-14 18 -45 35t-70 25q-45 10 -86 10q-57 0 -106 -12q-47 -12 -94 -31l-37 -18q-18 -10 -33 -21q-18 -14 -25 -22q-10 -15 -10 -25zM911 979q-2 -20 11 -41q12 -18 39 -35q25 -15 61 -24q33 -8 82 -9q63 0 108 15q61 18 91 35q18 12 34 24 q18 12 31 25q8 8 21 28q10 16 10 29q0 18 -13 37q-10 14 -34 33q-14 10 -56 22q-35 10 -71 10q-63 0 -113 -14q-66 -18 -96 -35q-49 -23 -74 -47t-31 -53z" />
<glyph unicode="9" horiz-adv-x="1873" d="M172 848q16 72 55 139q41 68 115 133q68 57 184 119q106 55 236 92q80 25 194.5 41.5t204.5 13.5q94 0 180 -12q80 -12 164 -35q86 -25 146 -51q66 -29 118 -67q102 -72 156 -156q53 -86 51 -176q-6 -57 -32 -129q-29 -76 -60 -129q-33 -59 -80 -125l-49 -65.5t-43 -57.5 q-23 -23 -63 -76l-64 -78q-31 -35 -74 -75q-45 -41 -86 -70q-45 -31 -108 -59q-47 -23 -137 -43q-47 -4 -80 2q-35 6 -64 20q-25 12 -39 32.5t-8 41.5v12q0 12 2 16l6 13v12q6 27 23 57q10 18 39 56q14 18 47 55l47 53q29 33 57.5 61.5l51.5 53.5q52 55 104 117 q-117 -47 -268 -76q-139 -27 -301 -27q-49 0 -140 8q-74 6 -131 21q-76 18 -118 35q-68 27 -101 47q-82 51 -112 119q-31 69 -23 137zM686 807q2 -12 19 -37q8 -14 38 -29q25 -12 68 -12q49 0 111 10q51 8 102 25q66 20 94 33q57 25 82 39l72 43q31 18 61 47q29 25 43 51 q18 33 19 55q-4 20 -25 33q-23 12 -51 18q-20 4 -66 9q-23 2 -65 2q-96 6 -197 -15q-92 -18 -160 -55q-63 -35 -106 -84q-41 -47 -37 -96q-4 -25 -2 -37z" />
<glyph unicode=":" horiz-adv-x="786" d="M178 182q0 31 33 58q31 25 80 43q43 16 108 26q39 6 115 6q66 4 117 -2t100 -26q45 -18 66 -43q23 -25 10 -58q-6 -33 -32.5 -69.5t-61.5 -65.5q-47 -31 -107 -51q-72 -25 -137 -23q-74 0 -135 21q-59 20 -92 47q-35 29 -52 68q-14 36 -12 69zM303 743q4 18 25 60 q16 31 55 57q34 25 86 43q51 18 113 19q68 -4 116 -15q51 -12 86 -43q16 -10 27 -24q12 -16 14 -29q0 -2 3 -12.5t3 -16.5q0 -8 5 -28q4 -31 -9 -62q-10 -31 -43 -59q-23 -20 -82 -43q-47 -18 -122 -15q-23 0 -64 5q-8 0 -59 12q-29 6 -56 16q-20 8 -43 23q-12 8 -30 26 q-10 10 -17 27q-6 15 -6 31q0 6 -1 14t-1 14z" />
<glyph unicode=";" horiz-adv-x="849" d="M158 -47q4 31 16 53q16 31 37 53q29 35 49 52l57 49q63 45 72 51q59 37 82 47q57 27 98 39q61 18 117 20q35 0 51 -2q37 -4 49 -8q29 -8 41 -14q16 -8 27 -23q14 -20 14 -49q0 -8 -2 -25.5t-2 -25.5q-10 -37 -33 -70q-31 -41 -61 -67q-49 -41 -78 -62l-86 -59 q-12 -6 -26.5 -14.5t-26.5 -16.5q-18 -10 -59 -26q-39 -16 -66 -21q-39 -6 -76 -4q-8 2 -26 2q-6 0 -14.5 1t-14.5 1q-39 6 -66 19q-18 8 -43 28q-18 14 -24 35q-6 19 -6 37zM365 731q2 29 26 66q18 31 64 57q43 27 98 41q58 15 129 12q74 -4 125 -20.5t94 -46.5 q41 -29 59.5 -62t18.5 -65q6 -59 -80 -107q-49 -23 -104 -35q-70 -14 -121 -12q-39 0 -113 8q-55 6 -104 25q-31 16 -51 37q-23 23 -29 35q-10 20 -10 34q0 6 -1 16.5t-1 16.5z" />
<glyph unicode="&#x3c;" horiz-adv-x="1435" d="M115 676q10 31 35 49q37 29 65 43q43 23 80 35l82 33l196 61l193 61q72 25 219 70q68 20 111 27q68 10 116 8q43 -3 80 -12q29 -6 68 -27q25 -12 47 -35q18 -18 18 -40.5t-14 -43t-57 -33.5l-273 -90l-270 -94l266 -67l264 -70q31 -6 50 -19q20 -12 26 -24q10 -16 10 -31 q0 -20 -2 -31q-8 -27 -22 -40q-23 -23 -45 -35q-33 -18 -66 -27q-25 -6 -80 -10q-94 0 -165 14q-61 12 -152 35q-39 12 -82 23.5l-86 23.5q-82 25 -168 47q-74 27 -129 41q-45 12 -131 41q-53 18 -113 51q-48 29 -71 66z" />
<glyph unicode="=" horiz-adv-x="1759" d="M287 539q-2 20 14 34q18 16 45 25q47 16 64 18q37 6 67 13q49 8 160 16q53 4 160 4h86q29 0 86 -4q29 -2 88 -2q14 0 43.5 -1t44.5 -1h98q14 2 47 2t49 2q12 0 43 -1t48 -1q47 0 96 -6q61 -8 92 -14q53 -12 76 -23q35 -16 47 -35q15 -22 6 -49q-10 -20 -43 -43 q-25 -18 -70 -35q-29 -10 -86 -22q-51 -10 -96 -10q-152 -6 -453 -7q-248 0 -450 9q-57 4 -98 14q-61 16 -80 27q-37 20 -58 40q-18 19 -26 50zM324 854q4 16 30 35q16 12 54 26q27 10 65 21q18 4 72 14q66 14 149 21q102 8 154 10h80q55 0 80 -2q111 -4 163 -4h52 q8 0 25.5 -1t25.5 -1q16 2 51 2q37 0 53 -2q31 0 92 -4q31 -2 93 -11q46 -6 86 -18q59 -18 71 -25q35 -16 52 -36q20 -23 22 -45q10 -25 -10 -46q-25 -25 -55 -34q-37 -12 -82 -19q-51 -6 -91 -4h-1028q-43 0 -88 10.5t-69 26.5q-31 20 -41 39q-14 24 -6 47z" />
<glyph unicode="&#x3e;" horiz-adv-x="1435" d="M328 397q0 23 16 45q10 16 59 33l277 98l274 101l-270 78l-270 75q-25 6 -47 21q-16 10 -25 24q-10 16 -10 31q0 8 4 29q2 20 18 39q16 20 43 35q29 16 64 24q37 10 78 12q72 -4 127 -14l122 -24q18 -4 59.5 -14.5t59.5 -14.5l117 -31l254 -78q160 -51 242 -86l41 -20 q23 -10 38 -21q12 -8 29 -24q14 -14 17 -29q-10 -31 -39 -53.5t-70 -44.5q-35 -18 -90 -41l-90 -37l-63.5 -22.5t-54.5 -17.5t-64 -21l-185 -64q-14 -4 -52 -16.5l-56 -18.5q-63 -23 -111 -35q-51 -14 -108 -24q-66 -10 -117 -8q-35 2 -82 14q-39 10 -66 25q-18 10 -45 36 q-18 19 -24 39z" />
<glyph unicode="?" horiz-adv-x="1882" d="M248 1030q10 47 45 86q35 37 94 74q53 33 127 61q57 23 145 47q157 46 332 68q180 23 348 16q70 0 138 -6q96 -8 135 -14q43 -6 125 -27q51 -12 110 -39q104 -46 154 -110q51 -66 47 -135q-18 -51 -63 -95q-41 -37 -111 -77q-61 -35 -145 -68q-53 -20 -168 -57 q-86 -27 -175 -52q-25 -8 -53 -16t-61 -18.5l-51 -16.5q41 -2 116 -2q18 0 58.5 -1t60.5 -1l111 -8q70 -4 108 -8q6 -10 12.5 -19.5t12.5 -19.5q12 -20 10 -39q0 -18 -16 -39q-20 -25 -37 -35q-39 -25 -55 -30q-12 -4 -34 -12.5t-30 -10.5q-49 -4 -74 -4q-51 0 -75.5 -2 t-73.5 -2h-74q-121 -2 -258 10q-117 10 -246 35q-80 18 -106 26q-39 12 -94 39q-47 23 -68 47q-23 25 -16 60q4 33 30 57q37 33 68 49q49 27 88 41q33 12 98 33l258 72q143 41 258 67q14 4 43 11.5t41 11.5q49 14 82 27q51 20 68 30q29 18 41 43q-10 29 -41 39 q-35 12 -78 19q-61 8 -94 8q-37 0 -90 4q-102 4 -193 -8q-106 -14 -180 -35q-37 -16 -51 -25q-20 -12 -41 -28q-6 -6 -18.5 -14.5t-18.5 -14.5q-10 -6 -18.5 -14.5t-16.5 -14.5q-39 -37 -94 -55q-61 -22 -135 -25q-53 0 -88 9q-37 8 -70 26q-28 15 -43 37q-14 18 -10 45z M500 170q-6 37 26 70q37 37 90 57q61 25 125 35q76 12 142 10q70 2 151 -10q72 -12 135 -35q55 -20 93 -57q33 -33 20 -76q-4 -35 -27 -68q-20 -27 -69 -59q-41 -27 -107 -43q-68 -16 -135 -14q-92 4 -160 14q-92 14 -145 35q-68 25 -104.5 61.5t-34.5 79.5z" />
<glyph unicode="@" horiz-adv-x="2816" d="M244 649q2 68 37 150q31 72 92 143q59 68 147 131q84 59 203 115q104 47 244 90q125 37 276 63q154 27 295 35q174 10 299 8q117 0 234 -12q133 -14 221 -35q102 -25 198 -59q94 -35 164 -80q68 -39 129 -94q55 -49 90 -107q31 -51 47.5 -112.5t10.5 -116.5 q0 -47 -17 -100q-16 -55 -47 -98.5t-84 -94.5q-43 -41 -117 -84q-66 -43 -151 -74q-90 -33 -178 -53q-84 -18 -199 -33q-102 -12 -205 -12q-137 -2 -340 17q-158 14 -323 47q-57 10 -96 20q-66 16 -97 27q-53 18 -86 32q-39 18 -71 41q-29 20 -47.5 45t-18.5 56q-4 39 20 71 q20 29 70 64q37 27 100 53q43 18 123 41q133 35 285 51q147 16 301 13q-14 29 -55 57q-40 28 -105 37l-100 12q-63 8 -104 10q-33 8 -46 15q-16 8 -26 22q-12 16 -14 27q-4 16 -5 27q2 25 29 51q25 25 66 43q37 16 92 26q47 8 106 9q104 0 156 -7q80 -10 145.5 -24.5 t126.5 -40.5q55 -25 99 -60q45 -33 71 -67q35 -45 45 -72q14 -33 21 -78q6 -35 2 -77q-10 -68 -35 -127q-27 -61 -86 -121q96 12 162 43q63 31 100 73q35 41 51 89q16 49 17 90q23 78 -21 153q-45 78 -133 135q-88 55 -229 91q-135 33 -305 26q-96 0 -195 -6 q-127 -8 -192 -16q-100 -12 -183 -33q-78 -18 -164 -53q-84 -39 -151 -90q-63 -49 -100 -97q-37 -49 -56 -100q-16 -49 -20 -102q-18 -57 -2 -117q16 -61 59 -111q51 -59 117 -98q70 -43 164 -74q98 -33 205 -47q109 -14 239 -8q45 4 78 -2q31 -6 65 -21q33 -14 44 -30 q12 -18 4 -39q-2 -25 -29 -52q-25 -25 -66 -43q-43 -20 -92 -28q-57 -10 -104 -10q-135 0 -250 14q-133 16 -234 39q-109 25 -210 65q-94 39 -173 88q-80 47 -137 101q-49 47 -92 114q-31 49 -49 121q-16 64 -10 125zM1268 526q8 -8 32 -20q18 -10 43 -17q14 -4 48 -12 q16 -4 49 -8q66 -12 108 -16q74 -8 113 -9q49 20 90 62q33 33 55 72l-57 6q-18 2 -59 6q-70 -4 -113 -4q-41 0 -119 -4q-55 -2 -108 -16.5t-82 -39.5z" />
<glyph unicode="A" horiz-adv-x="2203" d="M201 213q0 63 32 121q43 76 78 119q35 45 105 125q25 27 102 124q59 111 121 203l127 199q57 63 76 86q41 47 94 88q49 37 123 69.5t172 41.5q82 0 178 -21q76 -16 152 -47q71 -28 122 -68q47 -35 89 -84l47 -84q4 -6 18 -35.5t25 -45.5l159 -326q86 -182 144 -330 q16 -27 26 -57q10 -33 25 -60q13 -36 12 -68q0 -24 -6 -48v-6q-4 -16 -24 -37q-18 -18 -46 -31q-33 -14 -61 -23q-35 -10 -70 -12q-20 -2 -65 -2q-23 0 -68 4q-27 2 -61 10q-25 6 -51 21q-35 25 -52 63q-10 23 -26 68l-21 63q-8 25 -26 64q-37 8 -68 10q-32 3 -50 3 q-11 0 -22 -1q-94 0 -186 -6q-117 -8 -182 -14q-55 -8 -88 -10l-86 -13q-35 -4 -84 -16q-49 -10 -76 -23q-12 -6 -29 -18q-12 -8 -18 -23q-2 -2 -6 -10l-6 -12q-4 -12 -9 -23l-12 -51q-6 -27 -29 -49q-10 -10 -34 -21q-23 -10 -45 -12q-49 -6 -52 -6q-6 0 -18.5 -0.5 t-18.5 -0.5q-10 0 -18 1q-66 6 -129 29q-51 18 -98 51q-37 27 -60 63q-24 37 -26 68zM1006 602l2 -16v4q35 -2 104 -2q72 0 107 -2h59q35 0 55 2q25 2 55.5 10t41.5 16q16 12 16 27q-4 59 -19 96q-18 46 -42.5 92.5t-55.5 92.5l-55 90q-47 -33 -103 -92q-39 -41 -79 -97 q-33 -53 -56 -100q-27 -55 -28 -102z" />
<glyph unicode="B" horiz-adv-x="2230" d="M279 412q4 61 14 114q10 51 31 115q25 66 41 119q20 63 28 121q7 37 7 57q0 7 -1 12q-4 45 -4 70q4 45 4 67q0 45 9 68q8 31 43 59q34 28 79 50q41 18 101 39q55 18 110 30q135 29 246 39q115 10 254 14q17 0 36 1q94 0 230 -13q121 -10 246 -45q49 -10 113 -33 q49 -16 94 -45q41 -27 65 -55q23 -29 23 -63q2 -59 -39 -117q-45 -61 -108 -107q113 -25 194 -69q83 -46 141 -99q53 -47 84 -108q24 -47 24 -98q0 -10 -1 -21q-4 -33 -37 -80q-25 -37 -76 -73.5t-104 -65.5t-125 -57q-66 -27 -139 -50q-94 -29 -142 -41q-168 -45 -254 -61 q-160 -31 -262 -47l-246 -33q-83 -10 -172 -10l-79 2q-74 4 -121 16q-59 16 -98 39t-74 53q-41 37 -56 56q-46 61 -61 123q-14 61 -18 127zM844 393q-1 -6 -1 -12q0 -12 5 -21q12 -20 24 -28q23 -14 48 -21q27 -6 63 -6q129 0 240 21q109 20 217 59q66 20 96 35q47 23 82 45 t59 51q23 25 29 59q2 29 -25 60q-20 25 -67 47l-8 6q-164 0 -273 -12q-133 -14 -254 -55q-61 -18 -102 -43q-39 -23 -74 -58q-31 -31 -45 -61.5t-14 -65.5zM934 926q0 -20 4 -54q98 14 154 27q68 14 145 39q12 4 28.5 9l34.5 11q45 16 64 27q31 16 49 33q25 21 25 42 q0 17 -19 27q-33 18 -51 23q-39 8 -68 10q-11 1 -23 1q-8 0 -23.5 -0.5t-22.5 -0.5q-57 0 -88 -2t-84 -14q-41 -10 -70 -29q-29 -20 -35 -41q-18 -63 -20 -108z" />
<glyph unicode="C" horiz-adv-x="2111" d="M223 647q8 123 92 244q86 123 220 227q66 53 145 101q88 53 178 86q115 43 213 61q110 21 220 21q13 0 26 -1q92 0 174 -12q83 -12 160 -31q86 -20 145 -45q90 -37 129 -57q57 -29 109 -65q49 -34 86 -74q43 -45 59 -80q18 -39 23 -84q4 -29 -16.5 -49.5t-59.5 -36.5 q-41 -16 -86 -23q-34 -4 -61 -4l-37 2q-41 0 -78 7q-25 4 -70 16q-37 10 -59 22q-25 14 -41 33q-33 45 -56 68q-35 35 -57 65q-27 29 -59 49q-33 18 -97 23q-92 0 -155 -16q-68 -18 -127 -47q-57 -29 -101 -66q-49 -43 -71 -70q-72 -72 -113 -157q-37 -78 -47 -164 q-2 -53 25 -115q23 -51 94 -100q37 -29 74 -45q55 -23 92 -33q61 -16 106 -21q55 -6 117 -6q98 0 194 23q98 23 173 51q12 6 49 21.5l57 23.5q37 14 123 31q8 1 15 0q38 0 71 -12q41 -16 55 -35q27 -20 33 -41t2 -45q-6 -31 -29 -60q-22 -28 -55 -55q-35 -29 -76 -49 q-43 -22 -92 -43q-96 -41 -203 -68q-104 -25 -235 -28q-42 -2 -81 -2q-90 0 -169 10q-117 14 -229 43q-109 27 -205 67q-88 37 -170 86q-84 53 -141 103q-68 57 -107 110q-37 49 -61 121q-16 45 -16 94q-1 15 1 31z" />
<glyph unicode="D" horiz-adv-x="2187" d="M291 229q2 14 2 47q0 27 6 48q0 8 2 15t5 16.5l5 15.5q8 33 11 49l6 55q2 18 2 55q4 29 4 86q0 27 4 84q2 33 10 88l12 86q16 61 25 115q8 55 29 119q18 55 49 113q31 55 88 106q78 14 164 25q55 6 170 14q70 6 194 14q66 4 197 9q31 1 62 1q109 0 227 -16 q139 -18 256 -55q115 -37 213 -90q95 -52 159 -117q63 -63 95 -133q23 -52 22 -108q0 -18 -2 -35q0 -82 -37 -158t-102 -152q-63 -72 -158 -141q-98 -72 -201 -129q-100 -61 -225 -113q-117 -49 -268 -88q-127 -33 -295 -53q-85 -10 -181 -10q-61 0 -130 4q-98 4 -166 22 q-76 20 -133 54q-51 29 -88 71q-33 39 -33 86zM868 455q3 -61 31 -123q109 10 174 28q72 18 150 54q86 37 133 65q72 43 114 72q37 25 107 78q49 37 92 84q33 37 66 86q27 41 32 92q-2 14 -2 41q0 14 -4 43q-2 20 -14 41q-10 16 -37 37q-35 20 -63.5 26t-75.5 15 q-27 4 -84 8q-29 2 -82 2h-100q-70 0 -105 -2q-66 -4 -96 -4q-16 0 -48 -1t-48 -1q-23 -6 -31 -14.5t-16 -20.5q-8 -10 -11 -23q-2 -10 -8 -18l-8 -49q-4 -33 -10 -49q-29 -117 -35 -170q-6 -57 -15 -172q-7 -70 -6 -103q-1 -11 0 -22z" />
<glyph unicode="E" horiz-adv-x="2105" d="M287 514q12 86 16 139q2 35 16 138q10 80 27 139q20 74 49 137q27 61 78 131q41 57 119 125q145 27 272 35q188 12 283 14q141 8 319 8q158 0 312 -6q53 0 120 -14q53 -10 101 -35q43 -20 65 -51q19 -25 20 -50q0 -6 -1 -12q4 -23 -6 -41q-10 -23 -31 -36q-6 -10 -23 -17 q-4 -2 -9 -4l-10 -4t-11 -4q-14 -4 -39 -8q-14 -2 -39 -2q-227 9 -455 12q-63 1 -133 1q-105 0 -321 -3q-33 -47 -43 -66q-16 -31 -21 -67v-6l1 -4l1 -5q35 0 106.5 4.5t108.5 4.5l217 6q25 0 68 2t77.5 3t65.5 1q23 0 69.5 0.5t70.5 0.5q39 0 71 -1q11 1 22 0l107 -10 q68 -12 111 -33q53 -25 73 -51q19 -23 19 -48q0 -9 -2 -18q0 -31 -33 -53.5t-80 -34.5q-63 -16 -106 -20q-84 -8 -107 -11q-98 -6 -309 -14q-209 -8 -311 -16q-71 -6 -135 -25q-61 -18 -113 -43q-45 -23 -76 -59q-27 -33 -24 -70q-4 -23 0 -45q2 -14 14 -43q8 -20 20 -41 l25 -43q145 10 268 39l254 63q96 27 266 62q131 27 285 33q22 1 37 1q38 0 63 -7q47 -14 70 -31q27 -20 37 -47q5 -12 5 -24.5t-5 -24.5q-18 -41 -31 -56q-29 -33 -57 -49q-66 -35 -143 -59q-102 -33 -158 -47q-100 -27 -170 -41l-170 -37q-84 -14 -170 -31 q-115 -20 -172 -29q-86 -12 -176 -18q-89 -6 -178 -6l-72 6q-8 0 -72 12q-45 8 -65 15q-31 9 -56 24q-18 8 -47 29q-25 16 -37 33q-4 4 -15 16t-15 18q-6 10 -14.5 19.5t-12.5 15.5q-16 29 -31 82q-8 31 -16 84q-6 43 -6 84q0 14 -1 42t-1 42z" />
<glyph unicode="F" horiz-adv-x="1818" d="M287 672q12 131 57 256q43 121 131 254q23 35 86 78q57 39 135 59l195 24q63 8 199 17q96 10 213 14q53 0 106 2l109 4q86 -4 153 -14q86 -14 139 -35q63 -25 99 -57q32 -29 31 -64q0 -6 -1 -12q2 -23 -14 -39q-18 -18 -49 -31q-27 -10 -70 -20q-55 -12 -75 -14 q-80 -10 -179 -15q-84 -3 -128 -3q-28 0 -54 1q-43 2 -133 2q-88 0 -133 2h-27q-18 0 -26 -2q-25 -20 -35 -37q-16 -25 -21 -38q-8 -31 -10 -41l-6 -43l-2 -23l172 6l174 8l170 7q78 3 118 2h50q78 0 117 -7q51 -8 104 -24q49 -15 86 -37q31 -18 53 -51q2 -2 7.5 -8.5 t7.5 -10.5q5 -7 5 -12q0 -25 -28 -49q-16 -14 -57 -33q-33 -14 -78 -24l-84 -15q-123 -23 -248 -31q-84 -6 -252 -14q-80 -6 -211 -14q-113 -6 -204 -27q-4 -29 0 -57q4 -31 0 -60q4 -106 4 -159q-6 -47 -18.5 -94.5t-47.5 -94.5q-16 -25 -31 -37q-27 -23 -51 -34 q-31 -15 -67 -25q-21 -5 -50 -5q-14 0 -30 1q-53 2 -101 18q-49 16 -71 39q-31 43 -43 72q-15 37 -25 74q-16 70 -18 75q-6 37 -19 74q-8 53 -20 160q-5 46 -6 103q1 27 2 59z" />
<glyph unicode="G" horiz-adv-x="2293" d="M242 725q6 57 30 113q27 59 68 112q37 49 100 105q35 33 127 98q70 49 148 90q63 33 178 74q88 31 205 51q119 20 225 21q199 0 375 -33q195 -37 338 -84l67 -27q25 -8 66 -28q25 -12 51 -35q18 -16 23 -41q-6 -20 -25 -33l-43 -29q-10 -6 -55 -24q-27 -10 -70 -15 q-84 4 -137 17l-127 28q-29 8 -59.5 14.5l-61.5 12.5q-63 14 -127 16q-21 1 -41 1q-61 0 -121 -7q-68 -8 -151 -28q-78 -20 -135.5 -45t-108.5 -64q-102 -72 -147 -147q-49 -84 -52 -164q-1 -9 -1 -20q0 -15 3 -50q4 -39 13 -72q10 -39 28 -67q23 -35 54 -64 q25 -31 69.5 -59.5t100.5 -46.5q70 -23 122 -31q61 -9 113 -9q13 0 25 1q57 0 104 8q66 12 98 23q43 14 84 35q29 14 66 43q59 47 88 96q29 47 35 104q4 12 0 32.5t-6 33.5q-49 -4 -131 -16.5t-134 -16.5q-90 -12 -135 -16t-137 -4q-61 0 -111 14q-59 16 -86 39 q-31 20 -45 51q-14 33 -14 57q2 6 6 14.5t6 14.5q6 14 25 27q49 20 108 32q106 23 121 25l123 18l123 17l254 33q126 15 258 18q111 0 184 -25q68 -23 117 -67q41 -39 57 -90q8 -27 9 -55q0 -20 -4 -42q0 -27 -7 -51l-16 -49q-27 -98 -119 -201q-86 -94 -225 -180 q-61 -37 -143 -76q-76 -35 -168 -63q-88 -27 -189 -43q-104 -16 -207 -16q-13 0 -26 -1q-108 0 -221 21q-115 20 -217 59q-96 35 -181 86q-76 45 -143 103q-78 59 -121 108q-68 76 -90 117q-35 61 -49 125q-10 43 -10 87q0 19 2 40z" />
<glyph unicode="H" horiz-adv-x="2148" d="M299 352q0 74 6 146q8 94 14 143l25 152q8 43 21 149q8 27 12 57l6 56l8 55q4 18 8 55q25 55 27 60q10 20 43 57q20 27 61 51.5t101 30.5q23 2 44.5 2t43.5 -2q45 -4 84 -12q27 -6 71 -27q33 -14 54 -33q53 -35 80 -86q18 -34 18 -67q0 -15 -4 -29q-3 -37 -18 -74 l-29 -73q-10 -27 -31 -76q-16 -39 -16 -76q197 0 293 2q40 1 84 1q67 0 206 -3q4 12 5 18q0 2 1 8.5t1 10.5q1 20 1 38q0 29 -3 54l-13 90q-8 61 -10 90q-2 22 -2 43.5t2 44.5q4 37 10 56q8 27 35 53q20 27 61.5 41.5t86.5 14.5q7 0 14 -1q82 -6 125 -22q59 -20 94 -45 q47 -33 72 -58q35 -35 53 -61q39 -61 63 -131q21 -57 21 -121v-16q4 -31 -2 -54q-4 -14 -8 -55l-9 -113q0 -20 1 -59t1 -59q0 -57 13 -119q8 -51 8 -113q0 -74 -8 -113q-16 -41 -27 -61q-14 -27 -47 -57l-29 -29q-12 -12 -36 -27q-14 -8 -48 -20q-25 -8 -59 -12 q-20 -3 -43 -4l-31 2q-39 4 -71 12q-27 8 -57.5 22.5t-43.5 30.5q-14 12 -35 37q-16 20 -24 38.5t-14 41.5q-8 31 -11 41q-2 20 -2 63q0 37 -8 64q-4 68 -41 133h-88q-14 0 -44 1t-46 1q-61 -6 -125 -6q-4 0 -127 -6q-18 0 -51 -1t-49 -1q-33 0 -103 -4q18 -71 31 -142 q10 -63 14 -141q-4 -37 -12 -70q-10 -37 -41 -67q-10 -16 -25 -29q-12 -10 -40 -27q-14 -8 -52 -16q-15 -3 -35 -3q-13 0 -28 1q-90 6 -139 25q-74 27 -107 49q-94 59 -115 135q-16 75 -16 145z" />
<glyph unicode="I" horiz-adv-x="2054" d="M330 1184q27 37 76 59q41 18 116 41q68 18 133 31q47 8 131 24q164 25 295 35q129 11 248 11q26 0 51 -1q72 0 158 -10q139 -16 150 -18q31 -4 71 -17q45 -12 66 -20q45 -18 55 -25q29 -18 41 -32q-18 -41 -53 -68q-41 -33 -109 -47q-53 -6 -155 -14q-51 -4 -154 -17 q-10 -35 -12 -65q-4 -43 -11 -66l-12 -70l-6 -67q-4 -57 -4 -82t-4 -82l-4 -80l-6 -80q0 -25 -5 -73l-6 -76q-1 -10 0 -22q0 -17 2 -52q4 -41 21 -72l35 -2l26 2h58h57q37 4 59 4q39 0 58 3q17 1 36 0q28 0 89 -3q57 -2 118 -16q31 -15 50 -31q16 -14 24 -32q8 -20 8 -33 l-6 -31q-10 -29 -37 -49q-33 -27 -90 -29q-266 -25 -522 -30q-91 -2 -186 -3q-162 0 -342 7q-39 2 -131 10q-72 6 -127 20q-57 14 -109 37q-49 20 -76 56q-14 12 -20 26q-6 16 -6 29q0 16 16 29q8 8 39 18q25 8 53 12l55 6q86 0 130 2l131 7q2 4 2 10v10q12 106 20 168 q12 86 31 170q8 35 18 100.5t13 73.5q16 88 24 174q4 49 4 74q0 43 -10 74l-33 -5q-10 -2 -33 -2l-34 -4l-35 -2h-15h-139q-61 0 -137 15q-35 4 -61 12q-35 12 -46 18q-25 16 -30 27q-5 8 -5 17q0 7 3 16z" />
<glyph unicode="J" horiz-adv-x="2078" d="M160 680q-2 20 16 39q14 14 49 29q23 8 72 16q32 5 57 5q11 0 21 -1q66 0 113 -8t94 -28.5t75.5 -41t55.5 -51.5q33 -59 78 -121q57 -78 83 -119q15 -22 37 -43q27 -25 52 -41q33 -18 69 -30q47 -14 90 -15q47 6 70 21q25 14 39 33q16 20 24 38q10 23 21 39q23 68 29 119 q2 16 7 51t7 54q0 20 1 62t3 63q1 17 1 36q0 31 -3 88q-4 63 -18 125q-15 61 -43 123q-6 2 -12.5 8.5t-14.5 8.5q-96 0 -141 2q-47 2 -138 14q-68 12 -100 43q-25 23 -25 48q0 8 2 16q0 25 23 47q25 25 55 41q29 16 82 26q51 10 96 10q90 1 171 2q127 0 239 -4 q223 -6 408 -20q92 -12 157 -45q68 -35 103 -78q8 -10 16 -31q2 -2 6 -32q-4 -25 -28 -35q-20 -10 -64 -17q-25 -4 -78 -4q-14 0 -38.5 -1t-34.5 -1h-41q-29 0 -43 -2q-23 -4 -35 -8q-15 -6 -19 -18q-2 -10 2 -23q0 -2 3.5 -10t5.5 -12q33 -113 45 -244q5 -49 5 -98 q0 -74 -12 -148l-22 -123q-12 -63 -37 -125q-20 -53 -70 -119q-41 -57 -114 -110q-41 -27 -88 -45.5t-108.5 -30.5t-117.5 -18q-61 -6 -122 -6q-121 0 -211.5 20t-176.5 55q-76 31 -149 78q-94 59 -125 84q-111 88 -199 195q-80 98 -139 206l-12 31q-6 17 -4 31z" />
<glyph unicode="K" horiz-adv-x="2066" d="M326 528q4 33 4 50q0 27 6 51l8 53q2 14 5 26.5t5 24.5q6 45 6 90q0 61 5 92q0 59 2 89q4 45 12 90q8 23 24 75q14 47 35 78q25 39 70 70q45 33 123 47q43 3 67 3q15 0 27 -1q51 -4 86 -14q49 -14 70 -29q28 -18 37 -43q12 -51 18 -102q2 -16 5 -50t5 -51l195 94l194 95 l53 18t50 16q35 12 112 29q43 8 117 17q31 3 62 3l61 -3q55 0 98 -13q47 -14 76 -30q33 -18 47 -43q15 -25 12 -50q0 -29 -12 -45q-18 -25 -39 -41q-25 -18 -55 -37q-14 -8 -68 -32l-174 -62l-170 -63l-63 -25q-39 -14 -62 -26q-28 -15 -49 -31q-20 -14 -26 -37 q6 -27 28 -55q20 -27 51 -51q41 -33 64 -50q29 -20 61 -47l193 -127l188 -129q14 -12 30.5 -24.5l33.5 -26.5q35 -31 53 -55q27 -35 37 -60q7 -17 7 -36q0 -12 -3 -25q-3 -18 -18 -37q-10 -14 -39 -31q-27 -16 -56 -24q-37 -10 -73 -10q-25 -3 -54 -4q-18 0 -36 1 q-45 4 -84 13q-53 12 -76 22q-47 20 -60 31l-100 80l-102 78l-224 159l-227 158q0 -57 2 -86q2 -22 2 -43t-2 -43q2 -29 2 -88q0 -10 0.5 -28.5t0.5 -27.5q0 -15 -1 -28q-2 -29 -20 -76q-15 -40 -56 -73q-43 -27 -73 -37q-41 -12 -82 -19q-57 -8 -82 -8q-53 0 -80 2 q-53 10 -82 27q-25 14 -47 41q-16 18 -27 47q-6 14 -14 49q-2 14 -4 44t-2 32q-2 25 -2 76q0 8 -1 25.5t-1 25.5t-1 25.5t-1 25.5q2 27 0 51q-3 23 -3 37q0 8 1 16z" />
<glyph unicode="L" horiz-adv-x="2023" d="M293 494q-2 12 -2 24t2 25q4 35 2 51q12 188 70 373q33 113 114 223l37 51q18 29 47 53q27 23 64 45q31 18 94 29q24 3 45 3q28 0 51 -5q51 -10 74 -25q29 -16 43 -41q14 -23 10 -47q0 -141 -16 -249q-2 -49 -17 -111q-8 -37 -16 -111q-14 -92 -16 -110l-7 -111v-76 q0 -51 5 -75q6 -39 26 -74q23 -39 64 -68q113 6 223 19l227 24l213 25q70 8 217 16q70 0 127 -14q68 -16 109 -35l43 -18q14 -8 35 -25q16 -12 22 -29q4 -11 4 -19q0 -6 -2 -11q-6 -16 -26 -29q-18 -10 -45 -20q-59 -20 -146 -43q-74 -18 -153 -31l-158 -25l-160 -24 q-141 -18 -323 -33q-118 -9 -248 -9q-38 0 -78 1q-88 4 -154 20q-74 18 -125 45q-61 31 -100 61.5t-70 71.5q-59 70 -86 150q-21 65 -21 138q1 10 1 20z" />
<glyph unicode="M" horiz-adv-x="2961" d="M311 457q-3 47 -3 91q0 58 5 111q6 92 31 184.5t64 182.5q25 49 55.5 98.5t77.5 96.5l47 45q10 10 57 43q29 20 72 37q37 14 92 20q21 2 41 2q50 0 102 -10q63 -12 117 -39q47 -23 86 -59q33 -31 55 -66l74 -158q43 -90 80 -155q8 -20 26.5 -39t30.5 -37l189 170l190 170 l94 72q43 35 101 69q61 37 119 60q59 23 151 32q117 -6 195 -26q82 -20 145 -60q57 -35 98 -82q45 -51 64 -94q23 -49 31 -100q7 -39 6 -75v-23q2 -29 -4 -64q-2 -10 -5.5 -30.5t-5.5 -30.5q-4 -12 -14 -66q-2 -12 -4 -36.5t-2 -26.5q-2 -18 -2 -37t2 -37q2 -29 14 -76 q10 -41 21 -72l24 -73q25 -68 43 -136q20 -72 23 -137q-15 -22 -43 -37q-20 -12 -66 -26q-29 -10 -75 -17q-59 -8 -84 -10q-35 -2 -105 -2q-55 0 -102 8q-35 14 -39 19q-10 8 -26.5 24.5t-22.5 24.5q-4 4 -19 26q-43 72 -67 144q-29 86 -39 147q-14 82 -17 150 q-4 102 -4 151q2 22 2 42t-2 40q-2 14 -2 41t-2 39q-131 -109 -248 -242q-106 -121 -186 -253q-37 -45 -49 -66l-43 -68l-29 -28q-18 -18 -37 -29q-20 -12 -47 -20q-31 -10 -61 -11q-24 -1 -45 -1q-42 0 -74 5q-57 10 -102 25q-41 14 -84 39q-35 20 -62 47q-37 39 -70 94 q-28 46 -49 99l-39 100l-43 100v-12q-6 -20 -6 -45q0 -22 -6 -43q-4 -29 -4 -43v-43q-2 -18 -2 -57q0 -47 2 -58q3 -25 12 -49q8 -20 15 -47l12 -49q6 -25 6 -49q6 -20 -6 -56q-10 -29 -37 -53q-28 -25 -74 -37q-37 -10 -79 -10q-17 0 -33 2q-27 2 -86 10q-43 6 -80 18.5 t-66 26.5q-20 10 -49 35q-35 35 -61 78q-25 41 -29 86q-25 88 -31 201z" />
<glyph unicode="N" horiz-adv-x="2238" d="M295 528l6 70q4 49 10 70q14 111 43 194q41 117 78 195q33 53 47 82q29 57 47 86q27 41 70 78q41 35 111 63q90 -6 153 -27q82 -27 121 -49q57 -33 94 -65q29 -25 76 -76q53 -55 70 -76q34 -40 67 -74q68 -82 88 -110l84 -111q39 -49 96 -110q49 -53 111 -105q6 15 6 31 q0 18 2 29q3 36 4 75q0 25 -2 54q-4 70 -14 127q-12 123 -12 127q-7 48 -7 95q0 16 1 32q2 33 16 73.5t43 73.5q10 16 27 31q23 18 45 26.5t59 14.5q27 5 49 5l19 -1q90 -6 155 -31q68 -27 105 -59q35 -33 55 -80q18 -45 16 -82v-100q0 -66 -2 -99q0 -31 -4 -96l-6 -98 q-4 -78 -8 -121t-8 -121q-4 -74 -8 -115q-4 -35 -21 -114q-12 -43 -28.5 -70t-61.5 -64q-31 -27 -90 -57q-53 -29 -125 -35q-108 0 -191 25q-86 25 -151 61q-76 41 -123 78l-58.5 43.5l-50.5 36.5l-206 205l-207 203q-16 -23 -29 -58q-8 -25 -8 -57q-4 -61 -4 -94 q0 -31 4 -92l6 -89q2 -29 2 -90q0 -4 -3 -25.5t-5 -33.5q-2 -33 -23 -61q-20 -31 -57 -48q-45 -20 -113 -20q-59 4 -100 14q-57 14 -86 29q-37 29 -53 45q-23 23 -35 47q-31 45 -49 96q-12 33 -25 99q-10 55 -10 100q0 16 -1 50t-1 50z" />
<glyph unicode="O" horiz-adv-x="2129" d="M260 729q6 51 27 115q20 59 51 110q37 61 82 109q49 51 112 100q59 47 146 92q61 33 182 70q102 33 211 47q106 15 197 15q15 0 30 -1q18 1 37 1q93 0 181 -13q109 -16 198 -43q98 -31 168 -65q80 -41 127 -86q59 -47 96 -97q39 -51 60 -102q25 -59 33 -107q7 -39 6 -79 v-27q-6 -72 -23 -127q-23 -76 -47.5 -127t-77.5 -121q-43 -57 -110 -119q-59 -57 -140 -108q-84 -55 -178 -96q-88 -39 -217 -66q-108 -23 -225 -23q-14 0 -27 1q-135 0 -239 20q-102 20 -203 64q-94 41 -162 88q-66 45 -121 104q-96 100 -143 229q-33 93 -34 188q0 27 3 54 zM817 571q4 -63 23 -112q16 -37 26 -58q14 -29 41 -55q23 -23 66 -39q41 -16 96 -18q88 0 160 22q66 20 119 56q45 29 86 73q33 35 59 76q57 84 84 170q25 74 31 172v53q0 25 -11 60q-8 29 -26 55q-20 31 -47 49q-33 25 -76 35q-41 10 -111 14q-115 -4 -186 -22 q-74 -20 -135 -58q-55 -34 -92 -79q-35 -45 -58 -95q-23 -51 -30 -96l-15 -88q-5 -47 -5 -84q0 -16 1 -31z" />
<glyph unicode="P" horiz-adv-x="1865" d="M348 160q10 37 12 76q4 43 15 75q37 129 37 260q2 25 2 74q0 25 -4 74q0 12 -4.5 36.5t-4.5 37.5l-6 71q0 4 -12 140q-2 23 -2 44q0 50 10 95v8q-1 7 -1 13q0 40 32 77q35 41 100.5 71.5t149.5 49.5q76 16 176 16l180 6q119 4 182 5q55 0 170 -9q74 -6 164 -22 q78 -14 150 -37q61 -18 131 -55q119 -57 184 -140q58 -72 58 -152q0 -8 -1 -16q0 -6 1 -11q0 -46 -23 -85q-27 -45 -76 -88t-117 -80q-74 -39 -147 -65q-166 -61 -373 -101q-203 -37 -405 -55q-4 -16 -4 -22q0 -8 -4 -25q0 -47 2 -70q4 -49 8 -69q4 -49 8 -70q3 -19 3 -41 q0 -14 -1 -29q1 -6 1 -12q0 -32 -26 -57q-29 -29 -86 -51q-59 -23 -125 -29q-31 -3 -58 -3q-44 0 -81 7q-58 3 -98 18q-41 16 -66 37q-29 25 -39 49q-12 29 -12 54zM887 987q-2 -17 -2 -32q0 -35 10 -70q12 -45 37 -103q104 6 198 25q86 16 185 47q8 2 35.5 10t42.5 15 q47 18 73 32q41 23 56 37q25 25 26.5 47.5t-16.5 48.5q-31 41 -37 48q-2 2 -10 9t-12 11q-10 10 -31 21q-25 12 -39 16t-45 4q-49 3 -75 3q-17 0 -32 -1q-57 -4 -108 -12q-66 -12 -99 -23q-55 -18 -83.5 -32.5t-55.5 -45.5q-18 -20 -18 -55z" />
<glyph unicode="Q" horiz-adv-x="2050" d="M238 635q14 131 67 239q61 123 168 230q47 47 125 102q74 52 166 92q90 39 200.5 63.5t237.5 24.5q15 0 29 1q102 0 188 -19q106 -23 180 -57q76 -35 142 -84q51 -37 94 -97q88 -111 117 -215q26 -92 25 -186q0 -19 -1 -37q-6 -45 -18 -100q-12 -53 -37 -103 q-27 -53 -63 -98q-40 -49 -99 -92l86 -61q45 -31 88 -64l39 -29q25 -20 33 -30q14 -18 20 -35q3 -10 4 -22q0 -7 -1 -15q-6 -20 -27 -39q-27 -23 -51 -35q-31 -15 -68 -24q-49 -12 -80 -15q-14 -2 -43 -2q-6 0 -20.5 -1t-22.5 -1q-61 51 -112 84q-33 23 -134 74 q-31 -23 -75 -45q-35 -16 -95 -35q-45 -14 -108 -20q-55 -6 -115 -7q-119 0 -213 21q-96 20 -180 55q-80 33 -147 78q-61 41 -111 90q-104 98 -150 201q-40 91 -40 180zM745 479q0 -18 5 -55q2 -25 16 -55.5t35 -49.5q29 -27 63 -38q45 -16 97 -23q7 -1 13 -1q11 0 32 3 q25 4 38 12q20 12 29 19q10 8 19 20q-49 37 -76 54l-78 51q-41 27 -63.5 55.5t-22.5 63.5q-4 23 14 38q20 20 47 31q41 16 68 21q32 5 60 5q11 0 22 -1q94 0 170 -21q72 -20 143 -53q23 55 29 104q8 70 10 105q2 33 2 100q0 59 -12 99q-12 41 -21 61q-14 33 -30 53 q-23 27 -55.5 41.5t-90.5 18.5q-58 -3 -104 -19q-59 -20 -80 -33q-29 -18 -57 -47q-25 -23 -45 -51q-25 -33 -37 -53q-8 -14 -33 -49q-47 -88 -72 -176q-27 -96 -35 -177v-53z" />
<glyph unicode="R" horiz-adv-x="2344" d="M348 188q-1 18 -1 35q0 59 9 113l25 147q25 102 35 154l28 154q0 37 -8 98q-8 55 -22 96q-12 49 -13 94q0 29 5 95q6 31 26 63q18 31 62 59q39 27 92 45q51 16 125 21q211 14 381 16q254 4 385 4q82 0 141 -8q49 -6 129 -26q47 -12 117 -39q55 -22 98 -49 q88 -55 135 -121q45 -63 45 -132q0 -36 -16.5 -69t-42.5 -59q-18 -18 -68 -56q-31 -23 -80 -51q-98 -53 -202 -90q-106 -39 -238 -64q104 -37 252 -96q111 -43 238 -104l98 -49l96 -50q31 -16 84 -53q43 -29 66 -61l6 -45q1 -5 0 -11q0 -16 -6 -32q-2 -18 -15 -35 q-14 -23 -33 -35q-23 -16 -51 -24q-33 -10 -67 -13q-31 -3 -63 -3q-21 0 -44 1q-55 4 -100 12q-31 6 -88 27q-41 14 -76 37l-133 88l-135 86q-135 66 -279 127l-293 117q-8 -18 -14 -41q-2 -6 -2 -41q0 -12 -1 -33.5t-1 -32.5v-65l-4 -45l-6 -43q-2 -18 -11 -45 q-6 -22 -18 -43q-16 -23 -45 -47q-31 -27 -57 -39q-39 -16 -72 -23q-28 -4 -50 -4q-16 0 -32 2q-76 4 -127 21q-59 20 -90 43q-35 27 -55 59q-19 30 -19 63zM969 932q0 -57 14 -107q88 8 191 29q96 18 182 43l78 25q35 10 77 28q37 16 60 35q27 25 33 45q2 6 2 12q0 8 -4 19 q-4 12 -23 26q-16 14 -41 23q-16 6 -57 6t-123 -1t-123 -1q-84 0 -248 -4l-6 -2q4 -4 4 -6t4 -6q-8 -14 -8 -28.5t-6 -29.5q-6 -55 -6 -106z" />
<glyph unicode="S" horiz-adv-x="2131" d="M287 784q-1 9 -1 19q0 24 5 51q6 53 33 100q31 55 71 97q51 51 107 90q61 43 135 80q76 39 151 67q88 33 177 53q102 25 190 35q82 10 203 10q84 0 170 -6q61 -4 170 -20q72 -10 157 -35q84 -25 140 -47q61 -27 110 -63.5t76 -77.5q12 -12 14 -23q0 -4 2.5 -11t4.5 -11 q2 -5 1 -10q0 -12 -12 -21q-16 -12 -41 -19q-18 -4 -59 -8q-31 -2 -57 0q-100 8 -140 15q-92 12 -131 22q-68 16 -133 25q-70 8 -139 12q-113 0 -211 -14q-100 -14 -195 -43q-53 -18 -85.5 -32.5t-69.5 -41.5q-29 -20 -49 -47q-18 -25 -19 -51q-2 -14 4 -27q9 -15 25 -25 q18 -10 41 -16q27 -6 55 -4q66 0 127 6q20 2 62.5 5t62.5 5l127 13q41 4 127 4q51 0 154 -9q84 -6 147 -20q53 -12 131 -39q59 -20 109 -53q46 -28 73 -62q33 -41 45 -69q18 -43 21 -74q2 -18 1.5 -35.5t-1.5 -36.5q-10 -57 -51 -104q-47 -53 -105 -92q-68 -45 -145 -80 q-96 -43 -170 -66q-172 -57 -385 -90q-172 -26 -347 -25q-35 0 -71 1q-123 6 -258 28q-119 20 -244 54q-20 31 -53 88q-27 47 -33 94q-2 6 6 18q4 8 23 15q4 2 9 5t10.5 5t11.5 2q25 4 37 4q68 -4 100 -10l96 -15q25 -4 49.5 -7t48.5 -7q63 -8 103 -10q49 -2 162 -2 q80 0 176 10q115 12 170 23q82 14 149 41q70 27 109 59q41 35 51 86q14 29 16 47l-6 16l-16 7l-156 -5l-153 -6q-51 -2 -156 -2q-25 0 -76 -1t-78 -1q-45 0 -143 4q-76 4 -145 13q-76 10 -138 24q-65 15 -122 37q-55 20 -90 53t-52 62q-16 30 -20 69z" />
<glyph unicode="T" horiz-adv-x="2183" d="M279 1235q6 22 30 37q29 18 60 26q39 10 75 17q25 4 78 8l428 20q416 18 428 19q111 6 328 6t328 -2q45 -6 110 -23q45 -10 90 -36l37 -21q4 -2 16.5 -10l18.5 -12q16 -14 27 -27q10 -14 10 -27q1 -5 1 -10q0 -17 -15 -33q-16 -16 -54 -32q-33 -14 -77 -25 q-29 -6 -82 -10q-92 -8 -129 -10q-82 -4 -121 -5h-113q-18 0 -55 1t-56 1q-29 -182 -81 -421q-39 -176 -103 -420q-18 -51 -35 -82q-10 -20 -55 -78q-10 -12 -33 -35q-12 -12 -45 -33q-29 -18 -57 -26q-35 -10 -74 -10q-11 -1 -23 -1q-46 0 -104 9q-63 10 -108 30 q-49 23 -74 48q-24 24 -24 52q0 6 1 11q2 33 15 94q12 66 24 94q6 20 29 91l29 90q10 31 26 92q12 47 19 90q7 78 7 156q0 26 -1 51q-2 90 -37 203q-88 0 -260 -5q-43 0 -130 -3t-132 -5q-20 2 -39 11q-6 2 -25 16q-8 6 -20 18q-4 2 -10.5 8.5l-10.5 10.5q-14 16 -26 45 q-7 16 -7 36q0 6 1 11z" />
<glyph unicode="U" horiz-adv-x="2013" d="M328 504q2 37 10 121q8 82 16 123l25 122q4 20 11 61.5t11 61.5v58q0 27 -10 57q0 28 -6 55q-6 29 0 58q10 33 43 57q27 20 84 45q68 23 111 33q59 12 120 18q102 -20 150 -53q53 -37 74 -82q25 -51 26 -96q2 -25 2 -48t-2 -44q-6 -78 -20 -142q-10 -47 -27 -141 q-10 -72 -22 -143q-12 -68 -19 -144q2 -18 2 -63q0 -34 13 -68q12 -33 43 -57q33 -25 100 -35q51 0 94 12q39 10 72 31q25 14 51 41q20 20 35 45q31 55 39 98l18 101q8 35 17 100q2 16 5 51t5 51q9 49 12 98.5t12 98.5q4 14 11.5 47t11.5 49q12 49 33 95q10 23 34.5 61.5 t55.5 60.5q43 31 88 45q44 13 103 13h24q57 -2 106 -23q72 -29 86 -37q35 -18 70 -43q29 -20 33 -53l-11 -22q0 -2 -16 -23q-20 -12 -31 -29q-6 -10 -28 -28q-12 -37 -15 -56q-4 -29 0 -57q-3 -32 -3 -48q0 -11 1 -22q3 -35 3 -50q0 -11 -1 -21q-2 -18 -1.5 -36.5t1.5 -35.5 q1 -15 2 -28q0 -21 -4 -42q-8 -96 -37 -194q-27 -96 -92 -193q-45 -66 -112 -127q-72 -66 -156 -108q-90 -47 -199 -74q-108 -27 -216 -27q-11 0 -21 1q-16 -1 -33 -1q-75 0 -156 11q-66 8 -170 37q-84 23 -149 55q-74 37 -117 72q-55 39 -90 79q-39 45 -59 86 q-25 49 -33 91q-9 44 -9 77q0 9 1 17z" />
<glyph unicode="V" horiz-adv-x="2023" d="M309 1227q3 12 13 24q6 8 26.5 20.5t32.5 18.5l37 17q31 10 92 22q33 6 98 14q63 0 104.5 -14t69.5 -37q27 -20 47 -51q27 -37 33 -49q37 -88 56 -162q16 -68 26 -151q12 -106 21 -160q20 -139 26 -162l5 -10t5.5 -11.5t2.5 -9.5q2 -14 10 -32q2 -6 20 -29q12 -14 39 -25 q18 8 33 23q8 8 20 24q4 4 15 27q4 8 16 25l31 61q6 14 31 59l79 156q27 51 88 154q37 61 89 118q70 78 108 117q27 20 53 47q35 35 56 49q41 29 67 41q31 14 94 25q76 -10 119 -29q37 -16 90 -53q18 -14 35 -29l31 -30q15 -15 24 -31q12 -20 15 -35q0 -33 -19 -59 q-20 -31 -47 -58l-59 -53l-60 -53q-49 -55 -90 -115l-39.5 -61.5l-35.5 -57.5l-74 -122q-37 -61 -80 -123q-43 -70 -102 -140q-76 -88 -125 -139q-31 -29 -86.5 -69.5t-108.5 -65.5q-57 -25 -135 -45q-59 -15 -133 -15q-14 0 -29 1q-66 4 -106 16q-53 16 -76 39 q-31 37 -43 53q-16 25 -27 55l-51 119q-25 57 -37 121q-25 82 -39 123q-8 20 -33 123q-37 133 -100 287l-121 282q-3 7 -3 15q0 5 1 10z" />
<glyph unicode="W" horiz-adv-x="2572" d="M315 541q0 31 1 61.5t1 61.5q10 111 41 202q35 102 95 199q6 10 59 90q29 43 76 90q43 45 108 78q65 34 160 49q17 1 32 1q61 0 93 -13q47 -18 72 -47q25 -28 30 -62q2 -12 3 -23q0 -21 -7 -40q-12 -57 -22 -88q-18 -53 -39 -88q-6 -16 -19 -33l-18 -35q-49 -94 -86 -180 t-47 -184q-3 -17 -3 -34t3 -34q6 -39 20 -66q55 55 97 119q39 61 71 125q33 66 55.5 125t55.5 125l29 78q12 39 38 74q18 23 39 34q25 14 54 27q31 12 67 18q25 4 76 5q53 0 78 -5q49 -8 71 -14q31 -8 60 -24q33 -18 45 -31q14 -14 35 -47q12 -18 22 -47l13 -50 q8 -33 10 -49t5 -51t5 -51q4 -35 8 -105q6 -66 25 -131q20 -76 51 -127q39 80 57 146q23 76 31 145q23 147 37 291q4 53 14 94q4 16 11.5 42t13.5 50q10 16 26 54q10 23 33 49q16 18 49 35q27 12 78 16q98 -6 166 -33q70 -27 113 -67q41 -35 61 -82q20 -49 27 -86 q0 -20 -4 -61.5t-11 -61.5l-16 -94q-6 -31 -10 -95q3 -22 0 -43q-4 -23 0 -45q0 -6 -1 -22.5t-1 -22.5q0 -16 -4 -45q-12 -94 -51 -180q-37 -84 -115 -174q-29 -35 -80 -82q-35 -33 -107 -76q-57 -35 -135 -59q-77 -25 -172 -31h-25q-81 0 -157 17q-80 18 -147 53 q-61 33 -113 74q-39 33 -80 79q-29 -35 -80 -82q-41 -39 -106 -77q-61 -37 -138 -58t-158 -21q-10 0 -20 1q-82 2 -155 18q-59 12 -131 41q-51 20 -107 58q-49 33 -78 67q-37 66 -51 119q-16 68 -23 123q-4 41 -4 123z" />
<glyph unicode="X" horiz-adv-x="2115" d="M324 176q0 29 16 62q14 27 41 61q33 41 53 59l60 58l155 121l154 122q23 16 33 29q12 14 28 29q-61 82 -127 149q-94 100 -137 150l-53 59q-28 31 -49 62q-23 33 -37 63q-12 29 -17 66q2 20 25 39q23 20 53 30q43 16 74 21q53 8 80 10q25 2 78 2t75 -4q37 -10 54 -23 q4 -2 19.5 -12t21.5 -16q14 -10 82 -68q35 -31 73 -71l24.5 -23.5l22 -21t23.5 -25.5l68 -74q45 35 102 92q66 66 102 97q59 51 121 86q66 39 158 67q68 -4 115 -16q53 -14 94 -37t65 -49q27 -31 27 -58q-10 -51 -37 -96q-33 -55 -66 -90q-35 -39 -90 -86q-55 -49 -104 -84 l-113 -80l-110 -82q63 -61 176 -162l178 -161l23.5 -22.5t19.5 -18.5t25 -23l65 -61q37 -33 62 -64q33 -41 49 -65q-14 -25 -39 -41q-18 -12 -68 -33q-18 -8 -78 -25q-31 -8 -88 -16q-58 0 -104 12q-57 14 -86 29q-39 18 -72 39q-10 6 -19 12l-13.5 9l-12.5 8.5t-20 11.5 q-117 84 -191 151q-106 98 -151 146l-113 -129q-49 -57 -119 -127q-35 -27 -61 -51q-25 -23 -72 -52q-45 -27 -88 -41q-59 -18 -115 -18q-37 4 -57 8t-57 13q-23 4 -49 16q-18 8 -35 24q-18 14 -25 25q-10 16 -12 29l-6 30z" />
<glyph unicode="Y" horiz-adv-x="1875" d="M313 997q-3 30 -3 60q0 59 14 114q4 33 22 58q20 27 57 51.5t86 38.5q43 12 117 16q21 1 36 2q31 0 52 -6q37 -8 66 -28q29 -18 43 -39q15 -22 24 -43q8 -88 15 -125l18 -123l14 -41q12 -29 27 -43q23 -23 47 -35q29 -14 78 -14q31 2 57 14q6 2 39 25q12 8 33 28 q14 14 33 27l55 61l23.5 29.5t29.5 34.5q49 49 70 76l64 77l11 11.5t13 12.5t10 11l35 35q20 20 41 35q23 16 51 29q41 14 80 20q22 3 43 3l43 -3q76 -8 113 -18q66 -18 94 -35q41 -23 66 -49q27 -29 28 -60q-4 -37 -20 -69q-16 -31 -47 -68q-29 -35 -66 -66 q-18 -14 -35.5 -30.5t-36.5 -32.5l-174 -141q-100 -82 -163 -144l-152 -182q-84 -100 -137 -184l-62 -90l-65 -88l-39 -41q-18 -18 -49 -39q-29 -18 -64 -31q-37 -12 -84 -12q-12 -1 -24 -1q-61 0 -115 13q-63 14 -107 43q-45 29 -65 61q-15 24 -15 48q0 11 3 22 q4 53 30 102q33 57 66 99q45 55 86 96l94 94q-98 12 -164 39q-80 31 -123 62q-63 45 -92 77q-47 53 -63 84q-52 82 -62 172z" />
<glyph unicode="Z" horiz-adv-x="2097" d="M385 1223q12 27 41 43q25 14 72 32q40 15 86 25l90 18q84 16 194 27q98 10 199 12q20 0 40.5 1t39.5 1q23 0 80 4h82q9 0 26.5 0.5t27.5 0.5q15 0 28 -1q68 0 145 -6q123 -10 150 -14q88 -14 137 -29q68 -18 115 -42.5t77 -57.5q29 -33 33 -76q0 -35 -16 -74 q-10 -25 -43 -69.5t-58 -69.5q-16 -18 -69 -67q-78 -70 -207 -170l-221 -164l-99 -74l-98 -72l-94 -71q-51 -41 -86 -76q160 6 346 22q150 14 338 41l63 7q14 1 30 0q25 0 77 -2q53 -2 100 -17q45 -12 70 -35q16 -14 16 -33q0 -9 -4 -20q-10 -39 -49 -67q-41 -29 -105 -48 q-193 -41 -389 -61q-133 -14 -403 -39q-72 -6 -217 -10q-31 -1 -65 -1q-51 0 -152 3q-61 2 -115 18q-49 14 -94 37q-29 12 -41 21q-25 16 -35 24q-20 16 -27 25q-8 12 -12 28q12 61 57 127q41 59 105 119q70 66 129 115l131 113q160 135 322 251l335 248q-33 0 -98 4 q-15 1 -33 1q-11 0 -33 -0.5t-34 -0.5h-84q-27 0 -84 -4h-82h-80h-180q-76 0 -176 15q-23 2 -72 10q-29 4 -68 16q-31 9 -49 25q-12 10 -12 24q0 6 2 13z" />
<glyph unicode="[" horiz-adv-x="1554" d="M334 367q2 49 2 149v158q0 66 14 155q6 33 10.5 63t8.5 60q6 47 26 125q15 61 43 123q29 66 72 119l35 29q14 10 53 18q170 16 365 20q193 4 364 -14q47 -2 94 -16q33 -10 72 -33q31 -18 49 -43q18 -23 21 -47q0 -12 -7 -23q-6 -9 -18 -18q-16 -12 -27 -18 q-14 -8 -28 -15l-44 -12t-36 -10q-43 -12 -88 -7q-90 6 -174 7q-29 0 -85.5 1t-86.5 1q-4 -10 -11 -23q-8 -16 -10 -24l-12 -142q-4 -53 -16 -143q-16 -131 -27 -291q0 -12 -2 -24.5t-4 -26.5q-4 -37 -8 -51q-2 -8 -3.5 -16.5t-2.5 -18.5t-1 -17l-6 -49q-2 -18 -4 -34 q-2 -12 2 -35q43 -2 135 -2h134q23 2 67.5 2t67.5 2q43 0 86 -6q35 -4 78 -21q29 -10 51 -33q20 -20 14 -43q-4 -29 -22 -51q-23 -27 -54 -43q-33 -18 -78 -33q-46 -15 -98 -18q-135 -12 -203 -16q-135 -8 -204 -9q-92 4 -181 13q-80 8 -168 32q-82 35 -120 91 q-37 51 -33 108q-4 99 -2 150z" />
<glyph unicode="\" horiz-adv-x="1490" d="M213 1311q-2 16 0 35q2 14 18.5 26t38.5 23q25 10 51.5 16t59.5 6q37 3 74 0t67 -12q27 -8 60 -23q29 -12 45 -26q14 -12 23 -21.5t14.5 -14.5t15.5 -15.5t22 -20.5q47 -47 68 -72q133 -133 195 -200q113 -123 174 -207q10 -14 44 -65.5t54 -77.5l102 -140l93 -116 q72 -90 90 -117l34 -53q20 -37 28.5 -55.5t17.5 -55.5q8 -33 2 -57q-12 -35 -52 -62q-41 -29 -112 -35q-78 0 -131.5 20.5t-94.5 49.5q-43 29 -71 61q-31 34 -62 62q-190 207 -389 452q-162 201 -342 463q-18 31 -49 68q-16 20 -45 65q-8 16 -18.5 33t-16.5 33q-4 13 -8 33z " />
<glyph unicode="]" horiz-adv-x="1566" d="M315 135q2 14 27 39q18 18 59 33q31 18 76 24q43 6 90 7l174 -7q57 -2 174 -2q8 14 21 47l12 142q4 41 17 139q6 45 14 145l12 146q0 27 6 51q4 14 9 51l12 103q-2 12 2 34.5t2 34.5q-90 4 -135 4h-135q-10 0 -35 -1t-35 -1q-45 0 -68 -2q-29 0 -86 8q-45 6 -75 21 q-35 16 -52 33q-18 18 -10 43q4 27 23 49q23 27 53 43q41 23 78 33t94 14q137 16 201 20q6 0 202 7q121 -4 181 -11q88 -10 166 -34q41 -18 71 -39q27 -18 49 -49q16 -20 27 -54q4 -10 8 -55l6 -301q0 -27 -1 -78t-1 -78q0 -80 -12 -155l-20 -123q-10 -68 -25 -125 q-8 -35 -43 -121q-23 -55 -70 -123q-12 -8 -18 -14q-8 -8 -21 -15l-24 -12q-2 -2 -33 -6q-176 -20 -367 -20q-172 0 -364 16q-47 2 -94 16q-39 10 -72 31q-31 18 -49 43q-17 22 -21 49z" />
<glyph unicode="^" horiz-adv-x="1425" d="M242 770q10 49 34 80q31 41 64 74q49 49 78 73q72 61 80 70q41 27 88 68q25 20 88 67q39 29 100 60q51 25 129 45q88 -12 141 -37q55 -25 109 -62q41 -29 88 -71q31 -29 82 -72q4 -4 68 -76q39 -39 65 -78q33 -47 45 -80q16 -43 10 -83q-6 -20 -26 -39q-23 -20 -53 -31 q-45 -16 -72 -21q-53 -8 -82 -8q-41 -2 -86 4q-43 6 -76 19q-35 12 -59.5 30.5t-38.5 38.5l-66 90q-12 20 -63 91l-96 -113l-93 -113q-12 -14 -30 -22q-23 -10 -45 -12q-49 -6 -52 -7h-51q-63 4 -96 11q-47 10 -84 24q-39 10 -66 35q-26 22 -34 45z" />
<glyph unicode="_" horiz-adv-x="2275" d="M264 90q6 25 37 43q25 14 74 29q33 10 88 20q25 6 90 15q90 8 121 10q39 2 108.5 6t102.5 4q16 0 50 1t50 1q57 2 113 0q37 -2 108 -2q78 -4 115 -4h115h127q86 0 129 -2q86 -4 127 -4h125q12 -4 45.5 -11.5t54.5 -13.5q57 -16 94 -32q41 -18 66 -46q20 -25 8 -57 q-10 -18 -33 -31q-20 -10 -55 -20q-41 -12 -66 -14q-4 0 -29.5 -3.5t-39.5 -3.5q-252 -6 -752 -6q-248 0 -752 4q-57 8 -84 15q-43 10 -67 26q-33 18 -49.5 34.5t-20.5 41.5z" />
<glyph unicode="`" horiz-adv-x="675" d="M309 1700q0 8 2 12q4 20 17 37q14 18 41 31q29 14 61 20q34 6 74 6q49 0 86 -12t67.5 -30.5t51.5 -39.5q12 -10 22 -21t21 -20q39 -41 63 -88q23 -43 16 -96q-2 -10 -14 -26q-6 -10 -26 -23q-25 -16 -41 -20q-33 -8 -56 -9q-92 0 -155 25q-72 27 -109 59q-43 37 -70 78 q-29 43 -45 78q4 6 0 14l-4 13q-2 4 -2 12z" />
<glyph unicode="a" horiz-adv-x="2095" d="M246 195q0 49 14 116q10 47 35 115q2 6 47 113l24.5 53.5l26.5 58.5l125 223q63 106 154 218l96 96q47 47 125 94q66 39 158 71.5t206 35.5q102 0 189 -23q74 -18 141 -59q66 -39 103 -82q43 -51 63 -90q55 -94 84 -181q35 -102 53 -184q6 -23 12.5 -44t10.5 -44l24 -90 q14 -49 31 -88q18 -43 41 -88l43 -60q22 -31 37 -61q16 -35 22 -62q2 -11 3 -21q0 -19 -7 -42q-8 -33 -24 -55q-22 -28 -55 -49q-27 -16 -80 -35q-45 -14 -107 -19q-45 -4 -69.5 -4t-65.5 4q-33 4 -59 13q-33 10 -50 22q-41 25 -57 57.5t-22 63.5q-2 33 -13 72 q-4 14 -8 40.5t-4 30.5h-86h-86q-57 0 -86 2q-22 2 -44.5 2t-43.5 -2q-94 0 -141 -2q-94 -4 -142 -8l-57 -92l-55 -94l-33 -39q-14 -18 -47 -39q-27 -16 -64 -27q-43 -11 -70 -10h-12q-74 4 -131 21q-59 18 -96 45q-29 31 -39 61q-14 39 -14 66zM961 569h243q26 0 81 -0.5 t83 -0.5q46 0 82 1q-18 96 -27 131l-28 131q-8 31 -19 62q-9 31 -24 61q-23 45 -33 60q-20 31 -51 57q-80 -59 -125 -117q-59 -74 -86 -125q-34 -65 -56 -129q-24 -74 -40 -131z" />
<glyph unicode="b" horiz-adv-x="2254" d="M326 295q0 10 4 39q2 10 10 41l7 20.5l7 20.5l13 41q16 47 30 110q12 51 19 109q7 99 7 199q0 33 -1 65q-2 113 -16 260q76 57 192 98q106 37 248 58q121 20 258 26q129 6 260 7q45 0 139 -5q51 -2 139 -10q68 -6 136 -18q61 -12 127 -31q63 -18 108 -43q43 -23 78 -57 q31 -33 47 -66q16 -37 16 -69q0 -31 -16 -68t-43 -66q-37 -41 -61 -61q-49 -41 -76 -59q96 -31 162 -76q63 -43 108 -98q39 -45 60 -105q12 -37 12 -71q0 -20 -4 -40q-6 -65 -62 -122q-51 -53 -139 -105q-88 -49 -192 -86q-127 -43 -220 -63q-221 -53 -481 -72 q-114 -8 -236 -9q-122 0 -259 9q-49 3 -93 12q-47 10 -82 25q-43 18 -67 33q-29 16 -49 41q-49 43 -68 90q-20 49 -22 96zM866 352q-1 -6 -1 -12q0 -10 3 -31l6 -43q40 -2 83 -1.5t87 1.5q89 3 179 13q80 8 172 28q88 20 147 45q65 28 105 68q41 41 43 90q4 10 3 20 q0 12 -5 27q-8 23 -35 43q-23 16 -68 31q-29 9 -69 9q-12 0 -25 -1q-102 -4 -172 -16q-141 -27 -166 -33q-70 -20 -145 -49q-70 -27 -125 -60q-8 -39 -11 -63q0 -10 -2 -33t-4 -33zM922 899q0 -10 1 -31.5t1 -31.5q10 2 54 9l71 11q45 6 135 23q82 14 131 26q65 15 117 37 q49 20 88 49q41 31 51 64q1 5 1 10q0 8 -3 14q-6 14 -19 23q-14 12 -32 16q-14 4 -48 4h-81q-27 -2 -81.5 -3t-80.5 -1q-82 -2 -156 -24.5t-106 -55.5q-39 -39 -41 -77q-2 -21 -2 -62z" />
<glyph unicode="c" horiz-adv-x="2084" d="M258 612q10 133 82 256q76 129 211 238q61 55 145 106q86 52 191 93q106 41 225 61.5t227 20.5q13 0 27 -1q172 -4 309 -45q147 -45 250 -100q59 -35 98 -63q61 -45 82 -68q41 -45 56 -76q18 -39 18 -80q2 -6 2 -13q0 -16 -10 -36q-12 -27 -43 -47q-25 -18 -74 -31 q-31 -8 -65 -8q-18 0 -37 2q-10 -1 -21 -1q-25 0 -55 5q-45 8 -68 15q-41 12 -57 22q-33 20 -45 33q-37 31 -64 63l-55 66q-18 18 -37 29q-27 14 -49 22q-35 12 -61 17q-35 6 -68 6q-80 0 -158 -25q-68 -22 -116 -55q-51 -35 -84 -74q-39 -45 -58 -78q-55 -92 -75 -172 q-18 -70 -29 -178v-47q0 -35 2 -51q4 -37 10 -51q10 -27 29 -45q23 -23 53.5 -37.5t87.5 -20.5q25 -1 53 -1q74 0 189 11q121 12 223 50q37 18 88 36l92 33q33 8 72 13q25 2 74 2q14 1 26 0q38 0 66 -7q33 -8 59 -30q23 -20 29 -43t-4 -45q0 -4 -4 -21q-2 -8 -6 -20 q-20 -29 -62 -58q-49 -35 -88 -51q-59 -27 -104 -41q-66 -23 -115 -35q-94 -29 -233 -53q-111 -18 -250 -22q-19 -1 -37 -1q-99 0 -180 15q-115 20 -191 47t-160 72q-66 35 -125 88q-109 94 -151 196q-38 91 -38 186q0 14 1 27z" />
<glyph unicode="d" horiz-adv-x="2054" d="M313 305q2 70 13 144l18 145q20 74 37 151l29 152q10 35 10 64v63l6 63q4 43 12 64q2 37 31 78q27 39 76 69q53 33 117 54q59 18 153 22q129 6 264 6q133 0 262 -12q127 -12 248 -37q115 -23 221 -65q96 -41 166 -101q68 -57 103 -118q37 -66 49 -129q9 -49 9 -103 q0 -15 -1 -31q-4 -80 -29 -145q-27 -68 -77 -141q-45 -66 -123 -133q-74 -65 -166 -123q-86 -59 -199 -109q-117 -51 -239 -84q-143 -37 -271 -51q-84 -9 -167 -9q-61 0 -122 5q-121 6 -194 37q-86 35 -129 78q-51 43 -78 94t-29 102zM860 592q-1 -17 -1 -34q0 -41 5 -93 q6 -66 33 -125q88 0 162 14q82 16 145 39q74 27 125 56q55 31 92 67q51 41 78 76t51 80q20 37 33 82q14 49 16 82q1 5 1 11q0 4 -0.5 11.5t-0.5 11.5q0 23 -2 35q0 8 -4 22.5t-4 22.5q-3 22 -12 43q-6 14 -29 41q-12 14 -49 37q-41 16 -78 23q-10 2 -26.5 5t-30.5 5t-29 2 q-61 4 -92 4h-92q-57 0 -86 -2q-22 -2 -43 -2l-43 2q-41 -72 -59 -127q-22 -65 -31 -129q-6 -39 -15 -131q-8 -86 -14 -129z" />
<glyph unicode="e" horiz-adv-x="2146" d="M299 467q2 57 16 125q16 82 29 123q29 96 39 125l43 125q29 82 47 122l55 123q35 33 103 60q53 23 137 39q98 20 152 26l149 21q168 18 340 24q61 2 131 3q94 0 213 -5q70 -4 102 -12q57 -14 87 -29q39 -18 59 -43q23 -27 22 -53q2 -18 -8 -35q-12 -18 -37 -30 q-31 -14 -57 -23q-23 -6 -70 -10q-18 0 -52 -2t-61.5 -3t-51.5 -1q-27 0 -82.5 1t-83.5 1q-80 0 -160 -6q-102 -8 -154 -19l-71 -18q-25 -6 -66 -23q-25 -10 -51.5 -28.5t-32.5 -34.5q-2 -6 -5 -17.5t-5 -17.5q-4 -12 -8 -37v-10q139 8 213 16l213 25q147 12 211 16 q104 6 215 6q59 0 106 -8q63 -10 92 -25q37 -16 60 -43q23 -25 12 -53q4 -25 -18 -47q-27 -27 -58 -39q-35 -14 -80 -26q-51 -14 -94 -17l-207 -12q-70 -4 -209 -8q-16 0 -50 -4t-50 -4q-70 -4 -100 -9q-66 -8 -99 -14q-61 -12 -94 -23q-49 -18 -74 -34q-31 -20 -51 -45 q-23 -27 -31 -48q-10 -27 -10 -49q0 -33 8 -94q6 -49 33 -92q123 20 256 53l248 66q119 31 256 57q152 29 274 31q31 0 97 -4q41 -2 90 -17q45 -12 74 -28q33 -18 51 -39l8 -13l-2 -6q-51 -49 -133 -86q-68 -31 -174 -65q-102 -33 -195 -56q-68 -16 -190 -53l-201 -49 l-205 -45q-117 -25 -211 -35q-109 -12 -219 -12q-61 2 -133 16q-68 12 -111 41q-16 8 -41 29q-14 12 -30 33q-14 16 -23 35l-20 32q-39 66 -56 142q-12 57 -16 143z" />
<glyph unicode="f" horiz-adv-x="1736" d="M307 231q0 27 6 52q8 31 11 51l18 98q10 55 10 100q0 16 2 46t3 54.5t1 47.5q0 72 7 145q6 80 14 144q6 71 24 141q6 12 6.5 24.5t6.5 24.5q12 27 35 45q14 12 59 37q34 18 74 31q43 14 86 22l182 25q68 8 186 20q88 12 150 17l147 12l142 6q31 1 58 2l83 -4 q68 -6 123 -24.5t96 -44.5l43 -25q18 -10 37 -29q20 -20 27 -30q10 -16 10 -33q0 -18 -21 -31q-18 -10 -51 -20q-31 -8 -70 -13q-49 -4 -65 -4q-74 0 -217 -4q-76 -2 -217 -10l-99 -12q-49 -6 -92 -19q-53 -14 -80 -29q-35 -18 -57 -43q-27 -41 -39 -71q-14 -35 -14 -72 q52 6 104 6q37 0 106.5 4t102.5 4q12 0 35 0.5t35 0.5l35 -1q20 0 40.5 -1t43.5 -1q31 0 84 -4l79 -12q40 -6 74 -18q70 -25 94 -66q20 -32 20 -66q0 -8 -1 -16q0 -12 -12 -29q-14 -16 -31 -26t-49 -21q-18 -6 -60 -10q-86 -4 -131 -4h-131q-39 -2 -121 -2q-41 0 -123 -4 t-120 -10q-63 -10 -111 -27q-20 -66 -27 -143l-12 -146q0 -90 -33 -174q-12 -25 -26 -39q-18 -16 -45 -33q-27 -14 -62 -20q-26 -4 -48 -4q-16 0 -32 2q-88 6 -141 29q-59 25 -94 57q-37 33 -51 72q-17 42 -17 75z" />
<glyph unicode="g" horiz-adv-x="2138" d="M256 653q6 133 98 270.5t267 241.5q86 55 196 99q119 45 235.5 71.5t262.5 38.5q90 8 180 8l90 -2q68 0 125 -8q74 -10 119 -26q52 -18 86 -43q35 -25 31 -62q2 -14 -4.5 -34.5t-24.5 -35.5q-16 -14 -51 -24q-18 -5 -43 -5q-12 0 -29 1h-29l-22 2q-40 1 -74 1 q-70 0 -131 -5q-115 -10 -197 -29q-109 -25 -176 -53q-88 -37 -139 -78q-61 -41 -106 -92q-37 -41 -68 -101q-29 -55 -41 -104q-12 -52 -18 -104q-3 -32 -3 -49q0 -11 1 -21q4 -47 14 -78q12 -39 37 -72q25 -34 67.5 -61.5t104.5 -42.5q66 -16 147 -16q92 0 156 14 q68 15 117 43q49 27 82 63q33 35 53 74q18 35 28 78q10 45 11 74q0 8 1 14t1 14v27q-14 -2 -44 -4t-44 -4q-33 -2 -88 -10q-31 -4 -93 -9l-94 -6q-13 -1 -25 -1q-38 0 -73 7q-53 10 -82 27q-35 20 -49 41q-16 27 -8 49q0 23 18 41q16 18 45 33q29 16 64 29q23 8 71 20 l54.5 11t46 9.5l55.5 12.5q63 14 158 33q55 10 161 22q84 10 164 12q57 -2 123 -16q55 -12 104.5 -34.5t77.5 -49.5q31 -27 43 -59q10 -23 13 -41q2 -11 1.5 -22t-1.5 -21q-2 -51 -23 -111l-33 -106q-37 -90 -108 -179q-70 -84 -195 -159q-70 -47 -123 -70q-84 -37 -151 -57 q-78 -25 -172 -37q-88 -12 -182 -12q-20 -1 -40 -1q-105 0 -194 15q-117 20 -209 49q-98 31 -176 74q-70 37 -135 96q-63 51 -104 100t-68 111q-27 57 -35 115q-6 39 -6 74q0 20 2 40z" />
<glyph unicode="h" horiz-adv-x="2162" d="M319 295q2 35 11 100q6 57 20 103l29 104q14 57 16 105l6 98q1 14 1 29q0 23 -3 69q-2 19 -2 42q0 19 2 54q2 31 11 97q16 49 28 73q20 39 49 72q20 25 33 37q20 20 41 35q16 12 53 26q29 10 70 15q33 3 61 3q36 0 64 -5q51 -8 90 -28.5t59 -45.5q25 -31 35 -57 q12 -31 13 -60q0 -41 -5 -57q-16 -115 -26 -172q-20 -115 -29 -172q86 -4 129 -4h127q53 0 160 4l80 4t80 2q0 4 -1 8t-1 8q0 12 2 19q0 23 2 33t2 32q8 16 8 33q0 23 2 35q1 9 1 20q0 16 -3 47l-6 68q-6 33 -6 70v69q-2 25 10 58q14 35 39 57q29 25 76 41q35 12 81 12 q16 0 33 -2q88 -4 150 -24q63 -23 100 -54q39 -33 57 -73q17 -36 17 -69q0 -15 -1 -44.5t-1 -44.5q0 -40 -6 -80q-2 -27 -2 -82q0 -53 -2 -82q-4 -57 -5 -170q0 -55 5 -170l12 -172l12 -170l-2 -16q-8 -20 -33 -39q-20 -14 -59 -33q-31 -14 -76 -24q-39 -8 -82 -13 q-23 -3 -43 -3q-26 0 -47 5q-39 8 -69 25q-33 16 -51.5 34.5t-32.5 43.5q-20 39 -29 63q-4 14 -14 60q-6 28 -7 55q0 10 -1 28.5t-1 26.5l2 33q0 23 -4 45q-8 53 -10 80q-25 0 -65.5 -2t-74.5 -3t-65 -1h-211h-118q-37 0 -119 4q-4 -20 -10.5 -43l-12.5 -45q-10 -47 -10 -86 q-2 -23 2 -64t4 -61q8 -25 8 -59v-64q4 -23 -14 -41t-51 -31q-37 -14 -76 -16q-19 -1 -35 -1q-25 0 -49 3q-102 10 -162 39q-61 31 -98 74q-35 39 -47 92q-15 57 -15 90z" />
<glyph unicode="i" horiz-adv-x="897" d="M303 385q8 125 14 193l19 192q14 113 26 191q4 20 25 190l21 68q8 29 38 63q25 31 27 33q15 15 36.5 30.5t49.5 24.5q35 12 64 16q19 1 34 2q25 0 48 -4q47 -6 71 -16q41 -14 60 -27q23 -14 43 -34q50 -64 50 -130q0 -10 -1 -20q-2 -37 -10 -110q-8 -70 -17 -109 q-2 -18 -7 -56t-9 -59q-6 -41 -15 -112q-2 -24 -2 -52q0 -24 2 -71q4 -82 4 -119q0 -76 3 -115q1 -15 0 -29q0 -42 -7 -83q-4 -45 -22 -78q-33 -55 -49 -78q-10 -16 -33 -35q-29 -25 -47 -35q-27 -14 -64 -24q-35 -10 -75 -12q-41 0 -60 4q-33 6 -51 14q-29 10 -43 20 q-12 8 -33 25q-29 33 -39 55q-4 8 -11 28.5l-11 31.5q-18 59 -25 112q-5 47 -5 84q0 16 1 31z" />
<glyph unicode="j" horiz-adv-x="2091" d="M211 725q0 14 8 23q6 6 23 16q12 8 32 14l37 13q31 6 82 14q43 6 88 6q59 -6 88 -23q33 -18 60 -40q18 -16 39 -50q4 -6 10 -16l11 -18.5t9 -14.5l39 -76q20 -39 41 -75q20 -41 55 -82t82.5 -74t108.5 -53q63 -20 147 -21q0 2 2.5 4t4.5 4l8 9v16l2 4q8 37 12 53 q6 25 6 54q0 8 1 25.5t1 25.5v51q2 16 2 51t2 51q5 74 6 164q0 43 -1 94q-2 125 -35 259q-90 4 -133 8q-72 6 -131 18q-53 10 -109 35q-47 20 -72 55q-14 16 -16 31q-4 23 -2 33q-2 14 8 26q14 14 31 23q4 2 45 12q25 6 51 6q247 8 418 8q83 0 160 -2q268 -6 575 -28 q39 -2 70 -19q37 -18 51 -28q31 -25 41 -37q17 -23 17 -48q0 -26 -19 -42q-27 -23 -56 -33q-43 -16 -79 -21q-61 -8 -95 -10q-10 0 -29.5 -2t-36 -3t-30.5 -1h-88q-1 -17 0 -35q0 -67 8 -159l17 -195q6 -73 5 -148q0 -117 -14 -241q-3 -58 -36 -123q-31 -59 -103 -115 q-68 -53 -168 -86q-99 -33 -218 -33q-10 0 -19 1q-13 0 -27 -1q-114 0 -219 23q-129 29 -209 61q-100 41 -172 89q-74 47 -135 102q-57 47 -113 108q-47 53 -84 117q-33 57 -49 121q-10 38 -10 77q1 24 4 48z" />
<glyph unicode="k" horiz-adv-x="2187" d="M328 401q0 35 4 109q2 16 5 53t5 55q8 68 10 111q0 8 4 24.5t4 24.5q4 33 2 47q4 16 9 49l6 48q10 61 26 112l18.5 58.5l16.5 52.5q33 68 82 123q10 8 30.5 28.5t33.5 28.5q25 16 41 23q31 12 57 16q17 2 35 2t35 -2q23 -2 63 -10q37 -8 55 -17q27 -14 43 -26 q35 -29 45 -68q6 -25 7 -47q0 -13 -2 -27q-4 -27 -13 -41q-12 -20 -14 -38l-9 -18.5t-9 -22.5q-10 -33 -11 -39q-8 -25 -4 -58q126 55 240 117q90 49 233 119q35 14 104.5 47t106.5 47q70 27 117 39q72 18 133 20q65 -3 117 -18q53 -16 94 -41q40 -25 61.5 -55.5t24.5 -61.5 q0 -14 -12 -26q-16 -16 -33 -25q-18 -9 -43 -18q-12 -4 -51 -15q-51 -18 -109 -30q-74 -16 -110 -29q-156 -53 -277 -119q-143 -76 -237 -137q78 -51 114 -72l119 -67q82 -53 127 -78l135 -76q29 -14 129 -78q51 -31 115 -84q51 -43 88 -88q35 -43 47 -98q-6 -23 -29 -45 q-18 -18 -55 -39t-78 -29q-43 -8 -94 -12q-55 0 -98 12.5t-80 30.5q-43 20 -68 39q-12 8 -27.5 19.5t-31.5 21.5l-176 131l-174 131q-25 14 -74 47q-43 29 -80 47q-41 20 -90 39q-47 18 -107 27q-4 -27 -10 -53q-8 -37 -14 -56q-4 -33 -8 -51q-6 -25 -6 -53q-4 -29 0 -60 l6 -57q4 -16 8 -57q2 -18 2 -58q6 -18 -6 -39q-12 -23 -39 -36q-31 -16 -66 -23q-26 -4 -48 -4q-17 0 -34 2q-76 6 -118 20q-49 16 -88 41q-35 23 -60 52q-16 18 -37 59q-14 27 -20 61q-6 31 -6 62q-2 36 -2 106z" />
<glyph unicode="l" horiz-adv-x="1740" d="M315 340q0 55 13 111l24 112l31 117l25 117q4 70 4 100.5t-4 99.5q-1 13 -1 26q0 31 5 71q2 16 7 49t7 49q4 29 20 57q20 35 49 55.5t83 41.5q43 16 110 22q23 2 47 2q41 0 74 -6q47 -8 84 -29q33 -18 55 -47q22 -28 31 -55q10 -31 10 -59q0 -37 -4 -54q-12 -84 -37 -168 l-51 -170l-45 -170q-18 -74 -29 -170q-1 -19 -1 -36q0 -28 3 -52q6 -47 19 -88q156 10 291 39q68 14 280 66l125 30q57 14 133 21q20 2 42 2q29 0 65 -4q45 -6 90 -23q37 -14 57 -41q9 -13 10 -27q0 -13 -8 -28q-23 -45 -74 -78q-52 -34 -122 -61q-74 -29 -150 -49l-153 -43 q-106 -25 -162 -35l-170 -29q-61 -8 -172 -16q-45 -3 -88.5 -3t-87.5 3q-35 2 -95 10q-68 8 -92 14q-47 10 -82 25q-45 18 -65 35q-41 41 -60 86q-16 39 -26 94q-10 25 -11 43q0 6 -2 20.5t-2 22.5z" />
<glyph unicode="m" horiz-adv-x="2609" d="M322 465q4 147 28 272q33 158 82 273q16 57 45 106q31 52 68 105q37 41 45 49q25 20 61 45q34 22 80 37q45 14 103 18q21 1 37 1q34 0 59 -5q45 -10 78 -25q31 -14 59 -38q27 -25 41 -43q86 -135 168 -289q72 -135 125 -297l151 203l150 202q25 23 74 80.5t79 85.5 q35 33 107 72q57 31 147 47q80 -6 129 -23q59 -18 100.5 -44.5t74.5 -59.5q23 -23 51 -63q47 -61 69 -136q21 -68 21 -127v-14q1 -8 1 -17q0 -25 -7 -51q-6 -23 -11 -69q-8 -33 -12 -70l-8 -69q0 -39 6 -78q8 -55 10 -76l9 -74q4 -49 4 -71q0 -45 -2 -70q-2 -33 -17 -74 q-10 -27 -26 -49l-37 -49q-27 -25 -58 -43q-31 -20 -88 -27q-19 -2 -39 -2q-28 0 -63 4q-47 6 -90 23q-37 14 -70 37q-31 20 -43 47q-8 18 -8 59t2 62l6 125q3 61 3 89q0 20 -1 38v22q0 122 -30 240q-31 -37 -84 -115l-80 -117l-84 -116q-37 -49 -97 -113q-52 -55 -116 -105 q-70 -53 -148 -96q-57 0 -94 10q-49 14 -74 29q-35 20 -55 39q-18 16 -39 45q-45 61 -72 117l-57 121q-45 98 -53 120q-25 61 -58 121q-14 -57 -20 -125q-4 -43 -8 -125q-1 -15 -2 -28q0 -22 4 -41l12 -70l12 -65q6 -35 7 -70l-7 -61q-4 -33 -26 -60q-12 -12 -37 -22 q-20 -8 -51 -13q-37 -4 -56 -4q-39 0 -55 2q-46 3 -86 13q-31 6 -69 26q-25 12 -52 35q-23 20 -37 39q-29 41 -43 82q-15 43 -24 86t-12 86q-2 29 -2 86z" />
<glyph unicode="n" horiz-adv-x="2105" d="M317 156q2 12 5.5 38.5l5.5 41.5q8 49 16 77q15 40 25 80q12 53 14 80q0 23 -1 72t-1 71q0 71 -6 142q0 92 2 139q4 84 16 139q4 37 31 88q35 68 47 88q12 12 33 41q2 2 35 41q18 20 47 37q31 16 71 23q19 1 36 1q26 0 46 -3q41 -6 70 -19q41 -16 57 -26q33 -20 47 -33 q43 -33 80 -80l64 -82l100 -131q53 -74 105 -133l124 -131q51 -51 144 -125q-2 10 -4 29.5t-4 35t-4 27.5q-4 29 -9 90q-12 119 -16 170q-4 60 -4 105q0 34 2 65q2 14 6 51q2 18 10 56q6 25 23 55q14 25 43 47.5t72 34.5q51 14 106 14q57 -4 80 -12q27 -10 57 -29 q27 -16 45.5 -34.5t34.5 -36.5q31 -45 47 -80q18 -41 19 -82q0 -2 -3 -20.5t-3 -26.5q0 -27 -7 -47l-8 -99q2 -76 10 -217q8 -143 15 -215q12 -71 12 -141q0 -80 -8 -144q-6 -31 -24.5 -61.5t-51.5 -57t-82 -45t-117 -24.5q-100 4 -170 31q-76 29 -129 63q-66 41 -104 78 q-47 45 -96 78l-195 192l-184 197q-1 -22 -1 -49q0 -16 0.5 -49t0.5 -49q0 -100 -2 -150q-12 -92 -13 -96q-9 -49 -30 -99q-10 -25 -33 -57q-12 -18 -49 -47q-31 -23 -68 -35q-27 -8 -57 -8q-16 0 -33 2q-55 3 -104 18q-57 18 -86 35q-39 23 -64 47q-23 23 -33 54z" />
<glyph unicode="o" horiz-adv-x="2211" d="M260 674q12 123 90 244q72 111 223 221q65 52 154 98q90 47 193 80q98 33 221 51q119 19 218 19q13 0 25 -1q115 0 223.5 -22.5t190.5 -56.5q100 -43 158 -82q68 -47 119 -95q111 -104 157 -212q40 -94 41 -191q0 -19 -2 -39q-2 -59 -24 -121q-20 -59 -62 -118 q-39 -59 -96 -115q-49 -49 -127 -107q-66 -49 -158 -96q-90 -47 -192 -80q-111 -35 -221 -53q-106 -17 -214 -17q-16 0 -32 1q-123 0 -223.5 20.5t-190.5 59t-153 81.5q-76 51 -121 95q-51 49 -90 102q-37 47 -64 109q-27 57 -37 110q-8 39 -8 76q0 20 2 39zM799 551 q6 -68 37 -131q8 -20 43 -60q29 -31 71 -53q53 -27 101 -37q57 -13 107 -12h18q11 -1 22 0q51 0 105 10q59 12 110 33q55 23 90 47q40 28 62 55q39 47 59 91q23 45 35 88q16 59 20 84q2 14 5.5 41.5l5.5 42.5q0 14 1 28.5t1 28.5q0 6 0.5 19t0.5 19q0 11 -1 19q-4 41 -9 58 q-8 35 -20 57q-14 27 -45 51q-27 23 -72 41q-47 20 -94 29q-49 9 -92 9q-11 0 -21 -1q-71 0 -135 -12q-68 -12 -119 -33q-49 -20 -96 -49q-39 -25 -69 -60q-53 -59 -84 -133q-29 -70 -35 -139q-4 -47 -5 -82q1 -26 3 -49z" />
<glyph unicode="p" horiz-adv-x="1787" d="M336 205q-2 29 -2 58q0 82 12 167q16 113 43 225q8 25 8 35t4 35q3 32 4 68q0 23 -2 49q-4 76 -10 114q0 18 1 56.5t1 56.5q0 66 11 111q12 35 44.5 65.5t86.5 52.5q61 27 112 39q84 20 133 27q90 12 138 16q72 6 133 6q25 1 52 1l126 -3q90 -4 176 -12q78 -8 166 -24 q74 -14 156 -41q74 -29 123 -64t83 -76q33 -37 50 -86q14 -41 14 -88q0 -49 -35 -96q-37 -49 -86 -88q-61 -47 -123 -80q-74 -39 -143 -67q-145 -63 -352 -121q-193 -53 -388 -86l13 -156q3 -36 3 -69q0 -44 -5 -85q4 -29 -8.5 -55.5t-43.5 -50.5q-33 -27 -73 -37 q-25 -7 -60 -7q-22 0 -49 3q-82 4 -137 22q-63 23 -102 50q-37 25 -58 63q-16 31 -16 72zM885 860q-1 -14 -1 -29q0 -23 3 -69q117 16 200 41l187 59l80 31q29 10 78 35q35 16 61 41q23 18 29 49q2 16 -11 29q-16 16 -34 24q-22 9 -50 19q-12 4 -53 14q-82 16 -125 20 q-65 6 -129 6q-39 0 -59 -2q-16 -2 -55 -10q-8 -2 -48 -18q-20 -10 -34 -23q-16 -31 -23 -59q-4 -18 -8 -60q-4 -32 -8 -98z" />
<glyph unicode="q" horiz-adv-x="2097" d="M260 639q10 129 64 246q55 121 170 235q61 59 139 105q86 51 182 86q109 39 217 59q102 19 214 19h32q121 0 217 -21q117 -25 186 -53q83 -34 148 -80q63 -45 106 -94q96 -100 133 -207q33 -96 34 -199q0 -9 -1 -18q-6 -61 -20 -115q-12 -47 -45 -113q-27 -53 -70 -108 q-47 -61 -98 -107q16 -27 43 -47q12 -10 61 -41q33 -23 51 -51q18 -27 9 -55q-6 -14 -33 -37q-14 -12 -55 -33q-31 -16 -70 -24q-40 -9 -80 -13l-29 -2l-32 2l-27 2l-29 7l-24 12q-6 6 -41 31q-23 16 -39 32q-29 -14 -80 -32q-41 -14 -90 -25q-31 -6 -96 -14q-49 -6 -101 -6 q-15 0 -30 -1q-93 0 -199 15q-121 16 -211 45q-102 33 -176 72q-80 43 -135 92q-55 47 -99 102q-39 51 -61 109q-23 55 -31 112q-5 34 -5 71q0 19 1 42zM786 573q0 -40 7 -79q6 -41 24 -78q20 -39 53 -68q35 -29 95 -51q55 -20 145 -27q35 0 66 6q33 6 59 19l-68 39 q-59 39 -63 41q-29 23 -47 47q-18 27 -17 51q2 14 23 39q18 23 45 37q33 18 66 26q49 12 79 13q37 -2 78 -17q45 -14 66 -28q10 -6 18 -11.5t15.5 -9.5t19.5 -12q35 -18 55 -35q31 33 43 57q18 33 27 58q4 14 14 57q4 18 8 60q3 32 4 67q0 22 -2 47q-2 55 -22 117 q-20 41 -35 59q-23 29 -51 50q-33 23 -74 34q-49 14 -96 15q-18 1 -35 0q-59 0 -110 -9q-76 -12 -129 -32q-63 -23 -103 -51q-45 -33 -70 -66q-27 -35 -40 -72q-15 -37 -25 -73q-12 -49 -14 -74q0 -12 -4.5 -37t-4.5 -37v-72z" />
<glyph unicode="r" horiz-adv-x="2306" d="M338 313l6 95q4 53 14 96q10 63 21 100q14 55 16 98q5 49 5 88q0 16 -1 31q-4 78 -4 119q6 55 6 57q0 39 2 58l7 57q2 23 14 57q2 20 16 48q12 23 37 45q23 20 58 38q27 14 79 29q51 16 86 21q10 2 29 5t34 5t30 2l96 6q66 4 96 8q23 0 66 4t63 4q43 2 129 2 q109 0 164 -2q111 -4 164 -8q57 -4 158 -20q86 -14 145 -33q72 -27 115 -57q53 -39 75 -72q27 -37 39 -80q12 -41 13 -82q-3 -34 -25 -67q-27 -41 -53 -66q-41 -37 -76 -59q-66 -43 -90 -56q-90 -51 -221 -102q-117 -45 -260 -74l122 -82l119 -82q61 -41 131 -73 q84 -39 162 -58q51 -16 129 -34q70 -16 127 -37q37 -12 53 -21q27 -14 43 -26q16 -14 27 -31q5 -8 5 -19q0 -8 -3 -16q-6 -23 -33 -43q-29 -23 -61 -33q-25 -8 -82 -20q-29 -6 -86 -10q-41 -3 -83.5 -3.5t-82.5 3.5q-78 6 -152 24q-76 18 -139 43q-51 20 -119 53l-227 138 l-231 135q-12 6 -37 17t-37 18q-29 14 -82 28q0 -2 -2 -19.5t-4 -25.5q-4 -14 -4 -45q0 -43 2 -63.5t2 -65.5l6 -61q4 -41 4 -64q2 -20 -4 -47t-25 -45q-23 -23 -55 -33q-32 -11 -74 -11q-9 0 -18 1q-53 4 -92 14q-49 14 -76 29q-39 23 -59 39q-16 14 -41 43q-40 46 -56 92 q-18 53 -20 96zM870 915q0 -53 25 -102q96 2 229 21q92 12 211 53q66 20 92 35q43 23 68 45q33 29 47 51q21 32 21 62q0 10 -11 18q-14 12 -32 16q-16 4 -45 8q-7 1 -17 1q-6 0 -16 -0.5t-15 -0.5q-32 2 -64 2t-63 -2q-82 -4 -129 -4q-29 0 -58.5 -2l-59.5 -4 q-41 -2 -123 -2q-8 0 -27 -6q-6 -2 -16 -12q-4 -4 -8 -13q-2 -4 -2 -14q2 -8 2 -23q0 -16 -2 -24q-7 -52 -7 -103z" />
<glyph unicode="s" horiz-adv-x="2138" d="M317 264q-2 18 9 35q14 20 34 31q31 16 56 20q17 3 39 4q14 0 30 -2q66 -4 103 -8q43 -6 94 -22l94 -25l44 -13.5t50 -13.5q86 -16 156 -22q80 -6 162 -6q104 0 188 8q88 8 172 39q41 18 72 43q27 20 43 47q14 23 20 45q8 27 11 45q4 18 0 59q-2 27 -25 56q-6 2 -14 4 t-15 2q-10 2 -32 2q-90 0 -176 -12l-172 -25l-170 -25q-75 -11 -146 -10h-31q-15 -1 -29 0q-67 0 -136 10q-80 12 -148 37q-76 29 -119 56q-51 33 -82 69q-61 70 -77 158q-6 35 -7 68q0 47 13 94q6 39 39 82q33 41 82 75q55 39 112 66q49 23 135 53q154 55 310 76 q174 23 337 22q125 -4 224 -14q104 -12 209 -41l90 -31q47 -20 80 -40q35 -23 55 -45.5t20 -55.5q6 -31 -16.5 -47t-62.5 -27q-53 -12 -89 -14q-25 -2 -46.5 -1.5t-43.5 1.5q-43 2 -125 14l-120 21q-43 10 -119 20q-55 8 -125 9q-14 1 -28 0q-69 0 -136 -13 q-78 -14 -149.5 -40.5t-108.5 -59.5q-43 -37 -49 -78q4 -31 12 -45q10 -18 33 -41q4 -4 10 -9t10 -9q2 -2 27 -17q8 -4 31 -12q18 -6 43 -6q90 8 137 16q37 6 70.5 13.5l60.5 13.5q78 18 164 31q96 14 170 14q66 0 141 -10q61 -8 129 -29q70 -20 113 -41q47 -23 92 -53 q76 -57 113 -125q29 -52 28 -108q0 -15 -2 -29q-14 -96 -86 -187q-70 -88 -205 -164q-59 -37 -141 -69q-84 -33 -166 -53q-98 -25 -184 -35q-80 -10 -193 -10q-154 0 -284 20q-143 23 -267 55q-92 29 -118 39q-47 16 -107 47q-53 27 -82 56q-33 32 -35 67z" />
<glyph unicode="t" horiz-adv-x="2088" d="M225 1171q14 31 47 48q53 27 86 34q37 8 105 21q80 12 104 16q45 6 135 15q31 2 65 6l69 8q104 12 299 29q106 8 299 20q18 0 53 2t63.5 3t53.5 1q19 0 56.5 0.5t55.5 0.5q31 0 56 -1q51 -2 143 -14q74 -10 133 -27q74 -20 113 -43q49 -27 69 -63q-14 -35 -49 -60 q-39 -27 -108 -32q-41 -5 -92 -6q-24 0 -54 1q-49 2 -145 3q-39 2 -115 2q-47 0 -108 -15q-2 -18 -11 -55q-2 -14 -5 -28.5t-5 -26.5q-31 -172 -41 -238q-2 -10 -31 -237l-8 -89q-2 -29 -10 -90q0 -31 -8 -88l-13 -88q-10 -47 -14 -61q-8 -31 -33 -62q-23 -29 -67 -51 q-47 -25 -113 -26q-86 6 -141 26q-63 23 -94 49q-33 29 -54 68q-16 33 -26.5 78t-10.5 78v71q6 59 21 107l33 106q6 23 33 109q14 49 24 110q2 26 2 53q0 45 -6 95q-9 74 -37 147l-94 -6q-66 -4 -96 -10l-88 -6l-88 -6q-30 -1 -56 -2q-42 0 -78 4q-68 6 -120 20 q-57 12 -82 41q-19 21 -19 44q0 7 2 15z" />
<glyph unicode="u" horiz-adv-x="2129" d="M311 614q0 63 6 125q8 45 21 140q6 43 27 139q14 68 43 137q31 76 73 135q35 33 105 58q68 23 143 22q19 1 34 1q24 0 44 -3q43 -6 63 -16q29 -12 47.5 -30.5t24.5 -37.5q20 -43 27 -90q3 -23 3 -45t-3 -45l-31 -156q-10 -51 -35 -153q-8 -31 -21.5 -89.5t-15.5 -66.5 q-16 -72 -20 -158q0 -6 -1 -18t-1 -19q0 -12 4 -36q2 -14 12 -35q8 -14 27 -31q18 -18 45 -27q20 -6 61 -14q23 -4 72 -8q25 -2 70 -2q15 -1 29 -1q72 0 130 13q71 15 123 43q57 31 86 62q41 43 58 75q23 41 30 78q12 53 13 76q4 43 3 91q0 47 -3 112q-6 94 -35 200 q-8 27 -17 84q-8 53 -10 82q-2 20 8 54q8 27 35 49q29 25 70 37q34 10 73 9q16 0 31 -1q53 -2 105 -17q35 -10 82 -32q37 -18 61.5 -43t42.5 -50q43 -65 68 -129q20 -53 34 -133q12 -68 13 -135q0 -90 -2 -135q-10 -119 -72 -225q-63 -109 -178 -211q-53 -47 -125 -94 q-82 -53 -158 -87q-86 -37 -190 -61q-96 -23 -223 -22q-17 0 -34 -1q-109 0 -220 17q-111 16 -224 57q-98 37 -180 86q-74 45 -125 111q-45 57 -72 117q-27 57 -38 122q-13 62 -13 125z" />
<glyph unicode="v" horiz-adv-x="1804" d="M309 1167q-1 9 -1 15q0 13 5 26q4 23 17 45q14 27 35 43q16 14 57 33q33 14 86 19q22 3 41.5 3t38.5 -3q41 -6 69 -19q37 -14 54 -29q23 -20 30 -34q18 -39 33 -86q10 -35 21 -84l41 -162q33 -123 45 -162q23 -76 65 -162l82 -159q41 55 70 116l53 119l53 119 q27 55 49 121q27 61 66 133q23 43 76 129q16 18 45 59q22 31 49.5 55.5t66.5 43.5q37 16 97 20q70 -4 114 -20q53 -20 82 -41q34 -25 49 -56q14 -29 15 -59q-4 -57 -15 -105q-10 -45 -40 -102q-28 -52 -62 -104.5t-61 -104.5q-47 -106 -109 -219l-117 -217q-22 -31 -43 -68 q-18 -33 -45 -71q-23 -33 -55.5 -70t-73.5 -66q-43 -31 -96 -51q-51 -20 -129 -32q-12 0 -36.5 1t-39.5 1q-2 0 -76 6q-33 2 -73 10q-27 4 -62 20q-47 25 -86 64q-35 35 -55 70q-57 84 -88 157q-37 88 -59 160q-29 74 -46 160l-34 162l-25.5 77.5t-30.5 89.5q-23 72 -39 170 l-4 19.5z" />
<glyph unicode="w" horiz-adv-x="2705" d="M375 459q-1 10 -1 20q0 25 5 53l12 74l19 76q8 35 12 76q3 29 3 58t-3 58q-8 80 -10 115q-7 41 -7 83q0 14 1 28q2 39 18 112l10 21q2 4 6 11t6 11q4 8 17 21q9 9 24 18q12 8 60 35q34 18 80 19q14 1 27 0q39 0 75 -7q66 -12 92 -22q31 -12 70 -39q31 -23 43 -45 q10 -33 8 -61q0 -10 -2 -31t-2 -31q-12 -193 -16 -270q-6 -135 -7 -273q61 96 129 183q92 115 150 178l72 78q45 53 69.5 79.5t81.5 75.5q33 29 101 70q27 10 49 10q37 0 55 2q12 1 24 1q34 0 68 -7q49 -10 80 -27q33 -29 45 -43q25 -29 33 -43q23 -37 84 -155 q39 -76 72 -160q18 -59 32 -100q12 -33 33 -99q33 162 53 293q21 140 21 261v30v39q0 18 6 37q6 23 14 41q8 20 39 35q68 14 98 14q9 0 25.5 0.5t23.5 0.5q13 0 23 -1q8 -2 22.5 -2t20.5 -2l41 -6q10 -2 37 -11q20 -6 33 -14q65 -46 98 -98q35 -55 47 -111q10 -53 15 -114 q2 -43 10 -115q0 -98 -29 -203q-25 -88 -72 -201l-45 -96q-23 -45 -53 -96q-29 -49 -65 -94q-45 -55 -84 -90q-33 -29 -54 -41q-41 -25 -65 -35q-49 -20 -78 -27q-45 -10 -88 -12q-61 0 -88 6q-41 10 -72 25q-25 12 -53.5 36.5t-38.5 36.5q-92 111 -178 242 q-82 125 -135 248l-125 -164q-65 -80 -142 -160q-55 -47 -90 -86q-41 -45 -88 -82t-106 -65q-53 -25 -146 -35q-76 4 -131 20q-53 16 -102 45q-43 25 -76 58q-29 29 -53 63q-49 63 -68 137q-16 66 -20 140z" />
<glyph unicode="x" horiz-adv-x="2189" d="M311 188q8 37 25 62q20 31 51 57q41 37 66 55l71 54l170 125l166 127l37 34q8 10 35 33l-144 139l-139 142l-55 61l-49 64q-25 35 -35 63q-11 30 -11 58q0 6 1 12q2 18 26 39q16 14 56 28q35 12 71 19q27 4 80 8q20 2 62 2q20 0 61 -4q4 0 57 -12q20 -4 45 -19 q39 -29 62 -53q12 -12 23.5 -27.5t25.5 -29.5l96 -119q53 -63 92 -119q49 33 91 72q8 8 25.5 23.5l30.5 27.5t23 23q41 37 68 69q27 31 74 72q2 2 35 29l14 12q14 12 22 18q23 16 48 25q29 10 63 12q72 -4 119 -16q57 -16 96 -37t66 -51q23 -27 26 -62q-18 -70 -76 -129 q-55 -57 -135 -119q-55 -41 -166 -110q-127 -80 -170 -109l258 -235l259 -236l38 -37q25 -25 35 -36q12 -14 23 -39q7 -16 7 -33q0 -5 -1 -10q-6 -23 -33 -43q-20 -16 -61 -33q-25 -10 -82 -23q-29 -6 -90 -10q-76 0 -131 18q-63 20 -101 46q-47 31 -82 59l-69 59l-138 148 l-137 147q-78 -51 -119 -88l-100 -94q-31 -31 -84 -92q-39 -45 -84 -90l-17 -16.5l-20 -18.5q-18 -18 -45 -35q-29 -18 -55.5 -28.5t-71.5 -14.5q-70 2 -125 18q-47 14 -96 43q-35 23 -59 60q-19 28 -19 65z" />
<glyph unicode="y" horiz-adv-x="1882" d="M334 1149q0 53 10 94q4 18 16 39q12 18 35 35q18 12 56 26q31 10 75 15q25 3 53 3q17 0 35 -1q39 -2 80 -17q31 -10 62 -30q27 -18 39 -39l12 -47.5t14 -48.5l31 -97q27 -59 78 -151q47 -86 104 -148q72 76 187 179l202 176l101 92q51 45 108 90q31 22 80 37q33 10 71 10 q17 0 36 -2q63 -4 108 -18q49 -16 78 -39q33 -27 47 -52q16 -29 16 -55q-2 -12 -18 -36.5t-29 -37.5q-10 -10 -39 -34l-40 -33l-101 -74l-98 -74q-102 -80 -209 -176t-180 -184q-92 -111 -142 -193q-59 -100 -92 -198q-4 -14 -10 -30.5t-16 -33.5q-12 -20 -21 -30 q-12 -16 -29 -27q-18 -18 -38 -27q-31 -10 -54 -16q-33 -8 -61 -10q-9 -1 -21 -1q-7 0 -21.5 0.5t-21.5 0.5q-53 0 -96 12q-41 12 -69 31q-27 16 -39 43q-14 27 -9 49v16q0 91 33 176q33 82 107 185q-57 31 -119 82q-49 41 -92 90q-41 47 -72 96l-57 98q-23 49 -41 94 q-20 49 -29 95q-10 51 -10 96z" />
<glyph unicode="z" horiz-adv-x="2170" d="M332 1163q29 31 71 54q49 25 99 40q39 12 116 29q82 16 125 23q23 2 66 8t63 8q65 9 123 18q203 22 412 31q99 4 193 5q113 0 219 -7q49 -2 139 -18q74 -14 129 -33q4 -2 22.5 -10t28.5 -13q20 -10 49 -26q18 -10 37 -29q16 -16 23 -35q-55 -68 -119 -123 q-76 -66 -143 -116l-156 -113q-66 -45 -150 -115q-125 -90 -170 -125l-166 -127l-149 -118q-68 -57 -125 -127q57 20 127 37q90 20 135 28q86 18 135 27q55 10 138 29q63 14 133 24q68 9 141 12q10 0 19 1q101 0 188 -29q41 -16 63 -39q25 -25 15 -51q-2 -29 -39 -56 q-39 -29 -84 -45q-35 -12 -109 -28q-20 -4 -57 -13.5l-53 -13.5l-147.5 -26.5l-135.5 -24.5q-240 -41 -289 -47q-160 -20 -293 -29q-100 -6 -191 -6q-54 0 -106 2q-57 2 -102 22q-39 16 -74 41q-31 29 -51 54q-20 27 -20 57q20 68 65 123q55 66 113 115q92 80 135 112 l135 111l334 254l336 252q-152 -4 -225 -9q-119 -6 -226 -18q-51 -4 -106 -10l-115 -13q-98 -10 -221 -14q-20 -2 -70 -2q-47 0 -71 2q-29 2 -68 10q-31 6 -55 19q-23 12 -35 26q-8 10 -8 22q0 6 2 13z" />
<glyph unicode="{" horiz-adv-x="1429" d="M186 649q4 29 23 47q20 20 51 35q43 20 76 27q53 12 90 16q31 4 92 8q31 2 90 2q-47 25 -102 62q-53 37 -82 67q-37 41 -53.5 76t-10.5 80q12 72 68 139q53 66 160 119q46 28 104 49q51 18 125 33q63 12 137 18q70 6 140 0q57 -2 129 -20q53 -14 108 -39q51 -20 84 -51 t33 -66q2 -20 -18 -39q-23 -20 -53.5 -30.5t-73.5 -14.5q-53 -4 -78 0l-70 9l-72 6q-47 4 -86 -2q-47 -6 -79 -19q-27 -10 -54 -33q-20 -16 -16 -45q12 -27 35 -45q20 -16 59 -39q45 -25 70 -36q57 -29 67 -35l74 -37q37 -22 68 -43q37 -25 55 -47q23 -27 29 -51 q-4 -27 -27 -48q-29 -25 -55 -40q35 -14 63.5 -37t28.5 -45q-8 -23 -33 -48q-22 -22 -49 -43q-18 -14 -64 -38l-67 -37l-74 -43l-70 -41l-65 -45q-20 -14 -49 -47q47 -14 145 -39q63 -16 162 -13q35 4 84 -2q43 -6 71.5 -20t43.5 -35q15 -22 6 -43q-4 -20 -29 -47 q-23 -27 -51 -43q-39 -23 -72 -35q-31 -10 -94 -18q-131 -12 -260 6q-137 20 -236 53q-74 25 -106 41q-53 27 -86 51q-31 23 -57 62q-18 27 -19 65q0 43 25 86q23 41 67 82q37 35 97 74q61 41 114 67h-55h-49q-51 0 -80 2q-78 6 -82 7q-27 4 -76 16q-35 8 -65 23 q-28 12 -43 30q-17 18 -13 41z" />
<glyph unicode="|" horiz-adv-x="839" d="M309 467q0 150 15 285q2 39 14 127q12 90 16 127q8 41 21 122q6 37 14 125q8 20 16.5 65.5t16.5 67.5q10 31 41 64q27 29 86 51q57 8 102 0q41 -8 76 -28q29 -18 53 -46q20 -25 31 -47q14 -47 20 -100q4 -27 17 -100q12 -88 16 -219q2 -90 -8 -220l-8 -71q-2 -18 -5 -37 t-5 -37q-8 -43 -11 -72q-2 -25 -10 -69l-8 -99q4 -33 0 -47q-4 -12 -8 -49q0 -35 -10 -76l-17 -75l-24 -66q-12 -35 -37 -66q-6 -8 -12.5 -15t-12.5 -15q-20 -27 -29 -33q-8 -8 -43 -25q-18 -8 -59 -16q-59 0 -88 10q-39 14 -57 33q-22 22 -37 43l-27 43q-18 53 -22 90 q-8 45 -15 90q-2 47 -2 285z" />
<glyph unicode="}" horiz-adv-x="1425" d="M299 113q-6 20 14 39q23 20 56 28q45 12 75 15q41 2 78 0q23 -4 72 -9q10 0 33.5 -3t36.5 -5q41 -2 90 4q45 6 77 19q25 10 56 35q22 18 18 43q-12 25 -39 45q-29 23 -59 38l-70 35q-57 29 -67 35l-74 37q-61 35 -72 43q-31 23 -53 47q-23 27 -29 51q4 27 27 47 q20 16 59 39q-8 4 -16 9.5t-18 9.5q-25 12 -33 18q-12 8 -21 21q-8 10 -8 26q8 20 35 47q25 25 51 43q33 25 66 41l65 37l74 43q8 4 33.5 18.5t38.5 22.5q31 20 63 45q18 14 49 49q-18 6 -36.5 10.5l-34.5 8.5l-74 18q-47 8 -78 11q-53 4 -84 2q-37 -6 -84 2q-41 6 -70 20 q-27 14 -45 34.5t-8 43.5q6 23 27 47q20 23 53 43q29 18 72 33q31 10 92 18q63 6 133 6q43 0 129 -8q55 -6 125 -22q68 -16 113 -33q61 -20 102 -41q45 -23 86 -53q33 -25 55 -60q22 -34 19 -67q0 -43 -25 -86q-23 -39 -65 -82q-25 -25 -95 -74q-55 -39 -112 -68h24h31h29 h20q51 0 78 -2q57 -4 82 -8q47 -8 76 -14q39 -10 63 -21q28 -12 43 -30q16 -18 13 -41q0 -27 -23 -49q-20 -20 -51 -35q-43 -20 -76 -27q-57 -12 -88 -16q-59 -8 -94 -11h-90q20 -10 102 -61q47 -29 82 -68q39 -43 53 -73q18 -39 13 -80q-12 -70 -70 -139q-51 -61 -156 -121 q-37 -20 -108 -47q-51 -18 -125 -33q-65 -12 -135 -19q-63 -6 -142 -2q-63 6 -131 23q-59 14 -108 41q-16 8 -45 24q-25 14 -37 27q-15 15 -25 31q-10 19 -8 35z" />
<glyph unicode="~" horiz-adv-x="2107" d="M299 737q0 29 25 54q23 23 63.5 43t83.5 34l92 31l101 25q61 14 102 22q66 12 106 17q53 6 109 6q57 2 123 -15q61 -16 108 -32q16 -6 49 -15.5t48 -13.5q41 -12 106 -16q70 4 121 14q68 14 109 29q78 20 120 28q70 12 131 10q45 0 103 -10q61 -10 92 -22q43 -16 70 -37 q25 -18 34 -49q2 -20 -12 -39q-8 -10 -45 -31q-29 -16 -63 -25q-55 -14 -70 -16q-23 -4 -45.5 -10t-40.5 -10q-35 -8 -84 -23q-127 -27 -211 -41q-111 -20 -217 -22q-76 0 -133 14q-76 18 -117 35l-92 28q-53 18 -104 21q-39 -2 -105 -14q-47 -8 -94 -25q-41 -14 -84 -37 l-72 -41h-18q-2 0 -9.5 1t-11.5 1q-53 4 -92 15q-53 14 -78 28q-41 18 -63 39q-25 20 -35 49z" />
<glyph unicode="&#x85;" horiz-adv-x="2306" d="M266 147q0 16 13 33q12 14 32 29q31 20 43 27l47 22q55 27 103 39q55 14 121 18q41 0 61 -2q27 -2 57 -14q29 -10 43 -20q18 -12 27 -27q10 -10 23 -35q10 -20 12 -33q0 -4 2 -11t3 -13t1 -13q0 -23 2 -34q-4 -14 -8 -47q-2 -18 -31 -43q-59 -33 -106 -41 q-53 -10 -103 -7q-76 4 -127 17q-59 14 -106 37q-51 20 -80 53q-25 28 -29 65zM952 150q0 20 9 34q6 10 26 31q10 10 35 31q10 8 20.5 14l20.5 12q63 33 96 41q59 16 119 17l68 -6q33 -2 63 -13q25 -8 51 -22q18 -10 37 -29q35 -29 53 -65q18 -39 11 -74q2 -29 -23 -58 q-25 -27 -65 -45q-53 -23 -101 -30q-55 -10 -115 -6q-63 -2 -118 12q-45 12 -99 39q-43 23 -67 53q-25 29 -21 64zM1665 147q0 29 29 62q23 25 67 55q37 27 76 39q41 14 105 10q84 0 137 -18q61 -22 104 -49q43 -31 58 -62q16 -37 8 -69q-6 -33 -37 -58q-29 -25 -78 -43 q-51 -20 -104 -28q-66 -10 -117 -11q-53 -2 -107 11q-49 12 -81.5 38.5t-45.5 59.5q-14 38 -14 63z" />
<glyph unicode="&#x2026;" horiz-adv-x="2306" d="M266 147q0 16 13 33q12 14 32 29q31 20 43 27l47 22q55 27 103 39q55 14 121 18q41 0 61 -2q27 -2 57 -14q29 -10 43 -20q18 -12 27 -27q10 -10 23 -35q10 -20 12 -33q0 -4 2 -11t3 -13t1 -13q0 -23 2 -34q-4 -14 -8 -47q-2 -18 -31 -43q-59 -33 -106 -41 q-53 -10 -103 -7q-76 4 -127 17q-59 14 -106 37q-51 20 -80 53q-25 28 -29 65zM952 150q0 20 9 34q6 10 26 31q10 10 35 31q10 8 20.5 14l20.5 12q63 33 96 41q59 16 119 17l68 -6q33 -2 63 -13q25 -8 51 -22q18 -10 37 -29q35 -29 53 -65q18 -39 11 -74q2 -29 -23 -58 q-25 -27 -65 -45q-53 -23 -101 -30q-55 -10 -115 -6q-63 -2 -118 12q-45 12 -99 39q-43 23 -67 53q-25 29 -21 64zM1665 147q0 29 29 62q23 25 67 55q37 27 76 39q41 14 105 10q84 0 137 -18q61 -22 104 -49q43 -31 58 -62q16 -37 8 -69q-6 -33 -37 -58q-29 -25 -78 -43 q-51 -20 -104 -28q-66 -10 -117 -11q-53 -2 -107 11q-49 12 -81.5 38.5t-45.5 59.5q-14 38 -14 63z" />
<glyph horiz-adv-x="794" d="M244 1315q6 22 30.5 37t61.5 24q37 10 76 13q2 0 32.5 3t44.5 3q59 -12 109 -35q35 -16 80 -53q31 -25 61 -60q37 -41 56 -59l53 -62q23 -29 45 -63q20 -33 33 -66q12 -34 12 -67q-4 -20 -20 -39q-16 -16 -50 -33q-23 -10 -67 -22q-33 -8 -80 -9q-74 14 -115 35 q-55 27 -86 53q-25 20 -67 64l-18.5 18.5l-23 22.5l-18.5 18q-20 20 -57 66q-23 27 -49 70q-20 31 -32.5 69.5t-10.5 71.5z" />
<glyph unicode="&#x2018;" horiz-adv-x="794" d="M244 1315q6 22 30.5 37t61.5 24q37 10 76 13q2 0 32.5 3t44.5 3q59 -12 109 -35q35 -16 80 -53q31 -25 61 -60q37 -41 56 -59l53 -62q23 -29 45 -63q20 -33 33 -66q12 -34 12 -67q-4 -20 -20 -39q-16 -16 -50 -33q-23 -10 -67 -22q-33 -8 -80 -9q-74 14 -115 35 q-55 27 -86 53q-25 20 -67 64l-18.5 18.5l-23 22.5l-18.5 18q-20 20 -57 66q-23 27 -49 70q-20 31 -32.5 69.5t-10.5 71.5z" />
<glyph horiz-adv-x="776" d="M238 956q4 37 16 64q18 37 37 63q22 31 49 62l53 59q35 27 60 56q18 20 63 57q29 23 80 47q43 20 109 27q57 0 98 -13q37 -12 67 -35q27 -20 39.5 -44.5t12.5 -51.5q-2 -82 -60 -160q-57 -80 -149 -149l-25.5 -20.5l-25.5 -20.5q-14 -12 -56 -37q-20 -12 -69 -29 q-41 -14 -86 -16q-47 0 -95 14q-43 12 -67 33q-31 23 -41 45q-12 26 -10 49z" />
<glyph unicode="&#x2019;" horiz-adv-x="776" d="M238 956q4 37 16 64q18 37 37 63q22 31 49 62l53 59q35 27 60 56q18 20 63 57q29 23 80 47q43 20 109 27q57 0 98 -13q37 -12 67 -35q27 -20 39.5 -44.5t12.5 -51.5q-2 -82 -60 -160q-57 -80 -149 -149l-25.5 -20.5l-25.5 -20.5q-14 -12 -56 -37q-20 -12 -69 -29 q-41 -14 -86 -16q-47 0 -95 14q-43 12 -67 33q-31 23 -41 45q-12 26 -10 49z" />
<glyph horiz-adv-x="1480" d="M305 1274q6 20 33 35q29 16 63 24q37 10 78 13q29 2 78 6q68 -14 102 -35q45 -29 74 -53q33 -31 55 -58q16 -20 58 -57l51 -66q33 -39 51 -65q23 -31 39.5 -68t22.5 -71q0 -20 -18.5 -39t-49.5 -31q-33 -12 -68 -18q-45 -6 -81 -5q-68 12 -117 37q-41 20 -88 54 q-43 29 -72 61q-33 37 -63 61l-58 66q-28 34 -49 68q-20 31 -33 69q-12 35 -8 72zM864 1323q4 23 29 37q20 10 65 22q27 6 78 11q29 2 78 2q61 -12 109 -37q43 -23 80 -53q39 -31 63 -60q29 -31 59 -59l54 -62q28 -31 49 -61q23 -33 35 -66q12 -34 12 -67q-6 -20 -27 -39 q-25 -20 -49 -31q-39 -16 -69 -20q-40 -6 -80 -6q-65 9 -111 30q-35 16 -80 54q-23 18 -61 61q-29 31 -60 59q-10 12 -19 24.5t-16.5 21l-21.5 24.5q-33 37 -55 70q-29 43 -43.5 71.5t-18.5 73.5z" />
<glyph unicode="&#x201c;" horiz-adv-x="1480" d="M305 1274q6 20 33 35q29 16 63 24q37 10 78 13q29 2 78 6q68 -14 102 -35q45 -29 74 -53q33 -31 55 -58q16 -20 58 -57l51 -66q33 -39 51 -65q23 -31 39.5 -68t22.5 -71q0 -20 -18.5 -39t-49.5 -31q-33 -12 -68 -18q-45 -6 -81 -5q-68 12 -117 37q-41 20 -88 54 q-43 29 -72 61q-33 37 -63 61l-58 66q-28 34 -49 68q-20 31 -33 69q-12 35 -8 72zM864 1323q4 23 29 37q20 10 65 22q27 6 78 11q29 2 78 2q61 -12 109 -37q43 -23 80 -53q39 -31 63 -60q29 -31 59 -59l54 -62q28 -31 49 -61q23 -33 35 -66q12 -34 12 -67q-6 -20 -27 -39 q-25 -20 -49 -31q-39 -16 -69 -20q-40 -6 -80 -6q-65 9 -111 30q-35 16 -80 54q-23 18 -61 61q-29 31 -60 59q-10 12 -19 24.5t-16.5 21l-21.5 24.5q-33 37 -55 70q-29 43 -43.5 71.5t-18.5 73.5z" />
<glyph horiz-adv-x="1425" d="M264 952q0 33 17 66q15 31 36 61q14 20 51.5 61.5t57.5 59.5q20 16 61 57q25 25 66 56q31 23 82 47q47 23 106 31q68 4 101 -7q47 -14 69 -30q27 -20 37 -47t4 -50q-10 -86 -65 -167q-57 -82 -150 -154q-25 -18 -49 -39q-16 -12 -57 -37q-23 -14 -68 -29q-27 -8 -82 -12 q-59 0 -96 10q-41 12 -70 31q-29 20 -41 43q-12 26 -10 49zM836 831q-4 12 8 25l9 10q9 10 15 15q35 31 47 47l37 49q14 25 70 98q49 66 70 101l38 41q35 35 48 43q23 14 61 32q29 12 84 17q53 0 96 -13q47 -14 72 -32q31 -23 41 -45q12 -27 10 -50q0 -45 -14 -82 q-15 -40 -43 -79q-29 -43 -68 -78q-45 -41 -86 -72l-55 -39q-6 -6 -59 -37q-29 -16 -70 -30q-49 -16 -84 -19q-41 0 -84 6q-29 4 -74 21q-35 12 -53 31q-20 20 -16 40z" />
<glyph unicode="&#x201d;" horiz-adv-x="1425" d="M264 952q0 33 17 66q15 31 36 61q14 20 51.5 61.5t57.5 59.5q20 16 61 57q25 25 66 56q31 23 82 47q47 23 106 31q68 4 101 -7q47 -14 69 -30q27 -20 37 -47t4 -50q-10 -86 -65 -167q-57 -82 -150 -154q-25 -18 -49 -39q-16 -12 -57 -37q-23 -14 -68 -29q-27 -8 -82 -12 q-59 0 -96 10q-41 12 -70 31q-29 20 -41 43q-12 26 -10 49zM836 831q-4 12 8 25l9 10q9 10 15 15q35 31 47 47l37 49q14 25 70 98q49 66 70 101l38 41q35 35 48 43q23 14 61 32q29 12 84 17q53 0 96 -13q47 -14 72 -32q31 -23 41 -45q12 -27 10 -50q0 -45 -14 -82 q-15 -40 -43 -79q-29 -43 -68 -78q-45 -41 -86 -72l-55 -39q-6 -6 -59 -37q-29 -16 -70 -30q-49 -16 -84 -19q-41 0 -84 6q-29 4 -74 21q-35 12 -53 31q-20 20 -16 40z" />
<glyph horiz-adv-x="1247" d="M295 727q-4 61 39 115q43 55 121 98q84 47 184 70q106 25 229 18q98 0 174 -20.5t142 -53.5q4 -4 23.5 -16l29.5 -18q27 -20 43 -39q20 -25 29 -43q10 -25 8 -43q-4 -72 -45 -136q-45 -66 -129 -120q-51 -35 -90 -52q-66 -27 -113 -38q-63 -16 -127 -25q-59 -8 -135 -8 q-113 2 -193 35q-78 31 -123 75q-46 46 -61 99q-16 53 -6 102z" />
<glyph unicode="&#x2022;" horiz-adv-x="1247" d="M295 727q-4 61 39 115q43 55 121 98q84 47 184 70q106 25 229 18q98 0 174 -20.5t142 -53.5q4 -4 23.5 -16l29.5 -18q27 -20 43 -39q20 -25 29 -43q10 -25 8 -43q-4 -72 -45 -136q-45 -66 -129 -120q-51 -35 -90 -52q-66 -27 -113 -38q-63 -16 -127 -25q-59 -8 -135 -8 q-113 2 -193 35q-78 31 -123 75q-46 46 -61 99q-16 53 -6 102z" />
<glyph horiz-adv-x="1445" d="M299 705q14 25 47 43q25 14 70 28q29 8 88 17q66 8 98 10q66 4 98 4q35 0 93 4q37 -2 110 -2q18 0 55 -1t58 -1q61 0 94 -2l98 -6q66 -8 97 -15q53 -10 81 -22q39 -16 58 -35q23 -23 24 -47q-10 -23 -30 -41q-8 -8 -56 -31q-23 -10 -71 -22q-27 -6 -80 -11l-340 -6 q-225 -4 -340 -2q-55 4 -96 15q-51 14 -74 30q-37 18 -59 41q-25 25 -23 52z" />
<glyph unicode="&#x2013;" horiz-adv-x="1445" d="M299 705q14 25 47 43q25 14 70 28q29 8 88 17q66 8 98 10q66 4 98 4q35 0 93 4q37 -2 110 -2q18 0 55 -1t58 -1q61 0 94 -2l98 -6q66 -8 97 -15q53 -10 81 -22q39 -16 58 -35q23 -23 24 -47q-10 -23 -30 -41q-8 -8 -56 -31q-23 -10 -71 -22q-27 -6 -80 -11l-340 -6 q-225 -4 -340 -2q-55 4 -96 15q-51 14 -74 30q-37 18 -59 41q-25 25 -23 52z" />
<glyph horiz-adv-x="2230" d="M317 702q33 39 89 60q49 18 133 29q98 12 149 14q78 4 146 6h235h238h233q78 0 234 -4q27 0 80 -3t65 -3q72 -2 149 -17q72 -12 121 -36.5t62 -65.5q-4 -25 -25 -43q-20 -16 -57 -31q-25 -10 -78 -20q-27 -6 -84 -10l-156 -7l-155 -6q-119 -6 -367 -14q-6 0 -362 -6 q-123 0 -185 4q-90 6 -180 18q-76 12 -117 21q-47 10 -94 28q-37 14 -61 39q-21 20 -13 47z" />
<glyph unicode="&#x2014;" horiz-adv-x="2230" d="M317 702q33 39 89 60q49 18 133 29q98 12 149 14q78 4 146 6h235h238h233q78 0 234 -4q27 0 80 -3t65 -3q72 -2 149 -17q72 -12 121 -36.5t62 -65.5q-4 -25 -25 -43q-20 -16 -57 -31q-25 -10 -78 -20q-27 -6 -84 -10l-156 -7l-155 -6q-119 -6 -367 -14q-6 0 -362 -6 q-123 0 -185 4q-90 6 -180 18q-76 12 -117 21q-47 10 -94 28q-37 14 -61 39q-21 20 -13 47z" />
<glyph horiz-adv-x="2490" d="M360 1300q6 12 23 25q20 12 41 18q33 8 51 11q37 4 53 4q139 4 209 8q6 0 86 4t121 8q27 2 82 4t84 4l166 7q57 0 90 -11q43 -14 66 -32q23 18 57 28q37 10 74 11q59 0 110 -23q45 -20 70 -51q55 -68 84 -115q27 -45 59 -119l58 82q27 41 65 78q14 14 39 43t37 41 q18 18 43 31q23 10 63 14q43 0 74 -8q27 -8 57 -23q27 -14 48 -30q14 -12 34 -33q29 -31 54 -74q18 -33 22 -76l-6 -67q-4 -20 -8 -35l-6 -37q0 -10 4 -35l6 -37q-4 -25 -4 -38v-37q0 -10 -4 -35q-2 -16 -17 -37q-2 -16 -18 -33q-4 -4 -10.5 -9l-13.5 -10t-11 -9 q-23 -16 -45 -25q-18 -6 -59 -14q-33 -4 -62 0q-20 2 -49 14q-23 10 -35 24.5t-14 28.5q-10 29 -6 58q4 41 8 57q6 35 6 65q0 20 4 66l-61 -72q-2 -2 -66 -71q-29 -31 -78 -70q-41 -33 -100 -57q-59 0 -94 20.5t-47 48.5q-12 20 -33 66l-29 63v-12v-35q0 -23 2 -35 q-2 -18 0 -32q2 -10 -2 -33q0 -25 -10 -39q-14 -23 -33 -35q-27 -18 -53 -26q-37 -10 -76 -9q-43 0 -69 9q-31 8 -50 22q-27 20 -34 31q-10 14 -17 35q-4 49 -4 75q0 53 4 78q6 83 19 166q10 74 45 166q-88 -16 -137 -21q-76 -6 -138 -4q-37 -135 -51 -202 q-22 -101 -37 -203q0 -12 -2 -19l-4 -8t-2 -8q-16 -29 -18 -33q-6 -14 -19 -22q-18 -18 -43 -35q-27 -18 -69 -18q-41 0 -78 6q-39 6 -66 18q-29 12 -47 31q-16 16 -16 37q0 43 2 65q4 47 10 68q8 23 20 67l4.5 21.5t4.5 26t4 22.5q8 61 10 92q3 46 -6 92h-117q-18 0 -56 -1 t-59 -1q-23 2 -41 15q-12 8 -20 22q-12 12 -18.5 28.5t-4.5 28.5z" />
<glyph unicode="&#x2122;" horiz-adv-x="2490" d="M360 1300q6 12 23 25q20 12 41 18q33 8 51 11q37 4 53 4q139 4 209 8q6 0 86 4t121 8q27 2 82 4t84 4l166 7q57 0 90 -11q43 -14 66 -32q23 18 57 28q37 10 74 11q59 0 110 -23q45 -20 70 -51q55 -68 84 -115q27 -45 59 -119l58 82q27 41 65 78q14 14 39 43t37 41 q18 18 43 31q23 10 63 14q43 0 74 -8q27 -8 57 -23q27 -14 48 -30q14 -12 34 -33q29 -31 54 -74q18 -33 22 -76l-6 -67q-4 -20 -8 -35l-6 -37q0 -10 4 -35l6 -37q-4 -25 -4 -38v-37q0 -10 -4 -35q-2 -16 -17 -37q-2 -16 -18 -33q-4 -4 -10.5 -9l-13.5 -10t-11 -9 q-23 -16 -45 -25q-18 -6 -59 -14q-33 -4 -62 0q-20 2 -49 14q-23 10 -35 24.5t-14 28.5q-10 29 -6 58q4 41 8 57q6 35 6 65q0 20 4 66l-61 -72q-2 -2 -66 -71q-29 -31 -78 -70q-41 -33 -100 -57q-59 0 -94 20.5t-47 48.5q-12 20 -33 66l-29 63v-12v-35q0 -23 2 -35 q-2 -18 0 -32q2 -10 -2 -33q0 -25 -10 -39q-14 -23 -33 -35q-27 -18 -53 -26q-37 -10 -76 -9q-43 0 -69 9q-31 8 -50 22q-27 20 -34 31q-10 14 -17 35q-4 49 -4 75q0 53 4 78q6 83 19 166q10 74 45 166q-88 -16 -137 -21q-76 -6 -138 -4q-37 -135 -51 -202 q-22 -101 -37 -203q0 -12 -2 -19l-4 -8t-2 -8q-16 -29 -18 -33q-6 -14 -19 -22q-18 -18 -43 -35q-27 -18 -69 -18q-41 0 -78 6q-39 6 -66 18q-29 12 -47 31q-16 16 -16 37q0 43 2 65q4 47 10 68q8 23 20 67l4.5 21.5t4.5 26t4 22.5q8 61 10 92q3 46 -6 92h-117q-18 0 -56 -1 t-59 -1q-23 2 -41 15q-12 8 -20 22q-12 12 -18.5 28.5t-4.5 28.5z" />
<glyph unicode="&#xa2;" horiz-adv-x="1677" d="M164 709q2 37 22 75q23 47 45 76q23 31 66 70q51 47 80 67q29 23 98 64q39 23 115 53q55 23 135 43q70 18 152 25q2 10 3 22.5t3 22.5l6 45q10 35 14 45q12 29 29 45l16 20q14 14 23 21q14 10 28 16q12 4 39 8q55 0 82 -2q29 -2 74 -14q39 -10 61 -25q25 -15 37 -36 q12 -18 19 -37q4 -10 8 -39q4 -25 4 -39q0 -27 2 -41q125 -20 201 -49q88 -33 157 -82q66 -39 113 -92q43 -49 43 -107q2 -18 -10 -41q-12 -22 -37 -37t-61 -24q-43 -10 -84 -8q-57 0 -117 16q-55 15 -86 43q-39 51 -47 59q-2 2 -51 56q-4 -61 -5 -90q0 -31 -4 -93 q-3 -52 -12 -104q-6 -39 -14 -102q70 27 119 39q74 18 139 20q35 2 76 -10q35 -10 51 -27q18 -18 24 -39q6 -18 2 -39q-12 -39 -57 -71q-43 -31 -104 -56q-66 -27 -133.5 -43t-143.5 -30q-4 -20 -4 -29q0 -4 -1 -14.5t-1 -14.5q-9 -40 -25 -80q-16 -43 -43 -77 q-6 -14 -24 -35q-16 -20 -35 -33q-29 -20 -47 -29q-31 -14 -66 -16q-43 0 -65 2q-25 2 -62 14q-18 6 -47 23q-18 10 -28 31q-16 37 -17 65q0 25 -4 70q-4 37 -4 53q0 39 -2 57q-145 20 -266 68q-125 49 -207 104q-86 57 -133 125q-45 66 -39 142zM647 674q0 -23 15 -43 q10 -14 36.5 -37t51.5 -35l61 -31l18 185l21 184l-72 -51q-41 -31 -63 -53q-31 -31 -47 -58q-17 -28 -21 -61z" />
<glyph unicode="&#xa3;" horiz-adv-x="2453" d="M207 809q23 39 76 59q55 23 124.5 31t145.5 12q66 2 137 7q6 37 19 77q4 16 16 44t14 34l35 78l37 76q45 39 107 59q66 23 137 37q29 6 153 20l72.5 7.5t79.5 9.5q170 16 334 18q197 4 338 -4q68 -4 102 -12q49 -12 86 -31q45 -23 61 -41q23 -25 25 -51q4 -20 -8 -37 q-12 -18 -37 -31q-31 -14 -57 -22q-23 -6 -70 -10q-80 -6 -162 -6q-109 0 -164 2h-102q-35 0 -104 -5q-41 -2 -105 -14q-61 -12 -92 -22q-49 -18 -74 -35q-35 -25 -49 -49q-12 -18 -20 -45q-8 -31 -19 -47h96q51 0 101 -7q66 -8 96 -14q46 -9 80 -25q35 -16 53 -36 q20 -23 17 -52q0 -23 -13 -36q-14 -18 -39 -33q-23 -14 -61 -25q-23 -6 -74 -10q-18 0 -50 -2t-57.5 -3t-48.5 -1q-106 0 -159 -2q-6 -29 -15 -97q-8 -61 -10 -94q-4 -39 6 -94q8 -43 35 -92q168 31 258 55l248 66q141 39 252 59q152 29 270 31q45 2 101 -4q61 -8 92 -17 q53 -14 78 -28q33 -18 47 -41q2 -2 2 -8q0 -2 4 -7q-57 -49 -137 -86q-72 -33 -177 -65q-102 -33 -194 -55q-43 -10 -193 -56l-202 -49q-123 -31 -207 -47q-135 -29 -213 -39q-109 -16 -219 -18q-96 4 -142 12q-72 12 -114 39q-29 16 -39 26q-2 2 -27 33q-16 20 -22 33 q-8 16 -21 35q-31 70 -49 145q-18 70 -14 148q0 51 10 108l12 53.5t10 53.5h-92h-92q-63 4 -92 12q-47 14 -70 33q-31 20 -47 43q-20 26 -14 49z" />
<glyph unicode="&#xa5;" horiz-adv-x="1986" d="M303 274q6 25 33 41q31 20 57 27q41 10 78 16q29 4 86 8.5t88 4.5q14 0 41 2t39 2q20 35 23 39q12 18 22 39q-39 2 -115 2q-39 0 -112 4q-49 0 -92 12q-35 10 -70 31q-31 18 -47.5 40.5t-16.5 47.5q2 23 27 41t62 31q25 8 81 20q16 4 47 8t35 4q-98 131 -155 279l-19 67 q-12 45 -14 67.5t-2 68.5q0 31 10 67q4 18 17 39q12 18 34 35q20 14 54 26q31 10 75 15q33 4 93 0q37 -2 77 -17q37 -12 62 -30q27 -18 37 -39l28 -96l31 -97l35 -75q18 -39 41 -76q14 -25 47 -74q25 -37 59 -72q78 78 119 115l125 115q82 66 127 108l119 109q14 10 53 49 q25 25 57.5 45t81.5 33q53 14 103 8q63 -4 108 -18q49 -16 78 -39q33 -27 47 -52q16 -29 17 -55q-6 -18 -18.5 -36.5t-31.5 -37.5q-23 -23 -36 -34l-41 -33l-101 -74q-57 -41 -98 -74q-68 -51 -131.5 -104t-118.5 -107q59 -4 113 -12q59 -10 100 -24.5t68 -40.5 q25 -25 16 -58q0 -25 -23 -47q-22 -22 -61 -37q-45 -18 -86 -22q-49 -6 -96 -6q-86 0 -250 -4l-33 -41l-29 -43h97h90l98 -7q51 -4 94 -12q49 -10 76 -22q31 -14 49 -35q16 -20 11 -49q-8 -29 -31 -47.5t-68 -34.5q-29 -10 -90 -23q-33 -6 -94 -10q-57 -2 -170 -2 q-27 0 -83 -1t-85 -1q-10 -29 -31 -51q-18 -20 -59 -45q-29 -16 -82 -31q-43 -12 -107 -8q-57 0 -100 12q-39 10 -70 35q-25 20 -38 47q-10 20 -7 51q-37 0 -55 2q-37 4 -53 4q-57 4 -96 15q-33 10 -76 32q-35 18 -51 41q-21 26 -23 49z" />
<glyph unicode="&#xa9;" horiz-adv-x="2783" d="M244 494q0 68 30 139q33 76 84 135q57 66 134 125q76 57 178 113q94 55 202 100q98 41 240 78q117 31 266 51q131 18 281 14q139 0 268 -18.5t246 -52.5q109 -33 211 -82q96 -47 168 -103q154 -109 219 -241q63 -131 43 -267q-10 -61 -43 -108q-41 -59 -94 -101 q-70 -55 -137 -90q-80 -41 -168 -73q-180 -66 -396 -101q-205 -33 -432 -32q-240 -4 -452.5 32.5t-405.5 102.5q-88 29 -176 71q-78 37 -143 90q-57 47 -92 103t-31 115zM713 485q-4 -37 20 -69q23 -31 68 -60q33 -20 100 -47q55 -22 117 -37q126 -34 264 -49 q147 -16 286.5 -16t260.5 14q129 15 246 49q61 16 108 37q45 18 84 49q37 27 57 58q18 27 23 63q12 92 -16 187q-27 92 -113 174q-39 43 -96 75q-68 39 -135 62q-66 23 -162 39q-70 12 -180 12q-100 0 -195 -12q-96 -12 -182 -37q-92 -27 -160 -57q-86 -39 -133 -72 q-127 -76 -195 -170q-63 -91 -67 -193zM815 553q0 41 27 80q20 33 67 72q45 39 95 67q61 37 110 59q53 25 125 52q68 25 141 43q98 25 152 30q88 10 162 11q41 0 118 -9q61 -6 113 -24q49 -14 82 -41q33 -25 29 -57q0 -25 -22.5 -47.5t-53.5 -38.5q-29 -16 -80 -27 q-47 -10 -90 -10q-41 4 -64 8q-20 4 -65 8q-66 -2 -119 -24l-102 -43l-45 -25l-41 -27q-18 -12 -35 -28q-10 -10 -19 -31q-2 -18 9 -29q14 -14 37 -20q27 -8 53 -10q20 -2 57 -3q12 2 38 2.5t38 2.5q41 4 76 12q41 8 73 10q12 0 37 2t37 2q51 0 90 -8q35 -8 74 -27 q31 -14 47 -39q14 -20 12 -45q-2 -20 -18 -39q-12 -14 -41 -32q-25 -14 -59 -25q-41 -12 -72 -16q-86 -15 -172 -25q-96 -10 -176 -10q-133 0 -244 20q-121 23 -209 64q-90 41 -133 96q-45 58 -39 119z" />
<glyph unicode="&#xad;" d="M283 705q29 39 86 59q59 23 131 31q74 10 149 12q25 0 74 1t72 3h92q57 0 88 -2q16 0 47 -1t45 -1h92q61 0 180 -4q123 -4 183 -8q57 -8 86 -15q49 -10 78 -22q39 -16 57 -35q23 -23 20 -45q-6 -18 -32 -39q-23 -16 -58 -33q-25 -10 -78 -22q-29 -6 -86 -11 q-213 -8 -479 -8q-119 0 -239.5 1t-241.5 1q-47 2 -98 17q-53 14 -80 28q-4 2 -35 21q-16 10 -29 22q-18 18 -20 23q-6 15 -4 27z" />
<glyph unicode="&#xae;" horiz-adv-x="2920" d="M258 608q4 76 39 142q41 76 98 133q68 68 150 123q90 61 190 108q100 51 219 94q123 45 250 74q141 33 273 47q156 16 282 14q156 0 273 -16q141 -20 249 -51q119 -35 219.5 -80t176.5 -102q78 -53 137 -117q57 -59 92 -127q33 -61 45 -133t4 -137q-6 -61 -47 -125 q-35 -53 -106 -115q-51 -43 -154 -102q-88 -49 -186 -86q25 -16 35 -31q12 -18 6 -39q-2 -18 -25 -35q-27 -18 -51 -27q-39 -12 -68 -16q-37 -6 -71 -6q-45 0 -140 4q-71 3 -129 25q-141 -25 -256 -35q-132 -12 -264 -12q-123 0 -248 12q-135 12 -241 33 q-117 22 -221.5 55.5t-190.5 79.5q-102 49 -158 94q-68 55 -108.5 110.5t-59.5 118.5q-20 68 -14 125zM725 604q-2 -43 10 -92q14 -51 43 -92t84 -80q57 -41 131 -64q8 31 13 60q4 41 8 59q20 66 22 123q4 53 -2 94q-8 61 -10 92t-2 93q0 51 8 92q2 6 5 17.5t3 15.5 q4 20 15 32q-78 -37 -131 -73q-61 -41 -103 -86q-47 -49 -67 -93q-23 -47 -27 -98zM1247 1036q111 12 223 13q37 0 111 1t113 1q86 -4 129 -4q65 0 129 -7q43 -4 125 -16q68 -10 116 -27q61 -20 93 -41q41 -27 61 -57q23 -31 31 -63q10 -35 6 -66q-2 -27 -19 -51 q-10 -16 -43 -49q-25 -27 -59 -47l-68 -43q-74 -39 -165 -78q-80 -35 -193 -58q39 -29 121 -82l125 -79q74 18 155 53q68 29 127 67q49 33 89 82q31 39 34 93q3 46 0 92q-4 53 -16 92q-18 53 -39 90q-25 43 -68 86q-41 41 -100 74q-68 37 -137 59q-78 25 -164 37 q-106 14 -180 12q-139 2 -279 -22q-135 -25 -258 -62zM1413 274q-2 -18 0 -32q4 -20 2 -31q16 -2 53 -2h54h65q23 0 68 4q-8 4 -107 63q-61 37 -127 58q-4 -16 -4 -23q0 -12 -2 -18zM1421 803q0 -4 3 -12.5t3 -10.5q2 -4 2.5 -11t2.5 -11q-6 -37 0 -74l14 -76q76 2 168 17 q76 12 153 34q63 18 113 62q43 37 43 80q0 14 -25 20q-22 6 -49 6q-68 0 -100.5 -2t-99.5 -2q-98 -6 -199 -6l-29 -10v-4z" />
<glyph unicode="&#xb4;" horiz-adv-x="675" d="M305 1497q2 10 2 27q0 8 4 24q16 43 51 82q33 35 80 76l45 35q20 16 56 33q25 12 65.5 22t79.5 10q27 0 72 -8q23 -4 55 -20q25 -12 37 -30.5t12 -35t-8 -26.5q-6 -8 -10 -27q-10 -18 -58 -78q-35 -45 -79 -76q-55 -37 -117 -57q-72 -23 -160 -23q-27 0 -51 7 q-18 4 -41 18q-14 8 -24.5 22.5t-10.5 24.5z" />
<glyph unicode="&#x2000;" horiz-adv-x="901" />
<glyph unicode="&#x2001;" horiz-adv-x="1806" />
<glyph unicode="&#x2002;" horiz-adv-x="901" />
<glyph unicode="&#x2003;" horiz-adv-x="1806" />
<glyph unicode="&#x2004;" horiz-adv-x="600" />
<glyph unicode="&#x2005;" horiz-adv-x="450" />
<glyph unicode="&#x2006;" horiz-adv-x="299" />
<glyph unicode="&#x2007;" horiz-adv-x="299" />
<glyph unicode="&#x2008;" horiz-adv-x="223" />
<glyph unicode="&#x2009;" horiz-adv-x="360" />
<glyph unicode="&#x200a;" horiz-adv-x="98" />
<glyph unicode="&#x2010;" d="M283 705q29 39 86 59q59 23 131 31q74 10 149 12q25 0 74 1t72 3h92q57 0 88 -2q16 0 47 -1t45 -1h92q61 0 180 -4q123 -4 183 -8q57 -8 86 -15q49 -10 78 -22q39 -16 57 -35q23 -23 20 -45q-6 -18 -32 -39q-23 -16 -58 -33q-25 -10 -78 -22q-29 -6 -86 -11 q-213 -8 -479 -8q-119 0 -239.5 1t-241.5 1q-47 2 -98 17q-53 14 -80 28q-4 2 -35 21q-16 10 -29 22q-18 18 -20 23q-6 15 -4 27z" />
<glyph unicode="&#x2011;" d="M283 705q29 39 86 59q59 23 131 31q74 10 149 12q25 0 74 1t72 3h92q57 0 88 -2q16 0 47 -1t45 -1h92q61 0 180 -4q123 -4 183 -8q57 -8 86 -15q49 -10 78 -22q39 -16 57 -35q23 -23 20 -45q-6 -18 -32 -39q-23 -16 -58 -33q-25 -10 -78 -22q-29 -6 -86 -11 q-213 -8 -479 -8q-119 0 -239.5 1t-241.5 1q-47 2 -98 17q-53 14 -80 28q-4 2 -35 21q-16 10 -29 22q-18 18 -20 23q-6 15 -4 27z" />
<glyph unicode="&#x2012;" d="M283 705q29 39 86 59q59 23 131 31q74 10 149 12q25 0 74 1t72 3h92q57 0 88 -2q16 0 47 -1t45 -1h92q61 0 180 -4q123 -4 183 -8q57 -8 86 -15q49 -10 78 -22q39 -16 57 -35q23 -23 20 -45q-6 -18 -32 -39q-23 -16 -58 -33q-25 -10 -78 -22q-29 -6 -86 -11 q-213 -8 -479 -8q-119 0 -239.5 1t-241.5 1q-47 2 -98 17q-53 14 -80 28q-4 2 -35 21q-16 10 -29 22q-18 18 -20 23q-6 15 -4 27z" />
<glyph unicode="&#x202f;" horiz-adv-x="360" />
<glyph unicode="&#x205f;" horiz-adv-x="450" />
<glyph unicode="&#x20ac;" horiz-adv-x="2385" d="M176 510q2 29 43 51q33 18 90 33q53 12 113 18q35 4 110 9q0 6 2.5 16t4.5 16q4 23 2 35h-43h-41q-59 0 -95 10q-45 12 -71 29q-29 16 -45 41q-16 23 -10 47q10 27 32 43q25 18 58 31q29 10 75 20q33 6 88 15q31 4 89 8q45 4 84 6q59 82 149 164q88 78 215 145 q78 41 131 60q72 25 150 43q72 16 166 26q86 9 172 6q70 0 159 -14q72 -12 146 -31q53 -14 131 -45q53 -23 114 -55q20 -10 103 -61q43 -27 84 -68q39 -39 57 -74q22 -40 25 -80q2 -25 -10 -51q-10 -18 -44 -45q-20 -14 -73 -31q-43 -12 -101 -6q-35 -2 -75 4q-49 8 -70 15 q-41 12 -59 22q-25 14 -41 33q-49 41 -66 63q-25 33 -57 64q-27 29 -84 51q-49 18 -125 23q-68 0 -117 -14.5t-94 -37.5q-41 -20 -76 -49q-23 -18 -57 -53h20q46 3 99 0q74 -4 104 -8q51 -6 96 -19q49 -12 78 -28q33 -18 51.5 -39t14.5 -53q3 -28 -25 -50q-31 -25 -70 -34 q-43 -12 -96 -19q-57 -6 -100 -4h-160h-158q-2 -8 -10 -35q-4 -14 -8 -35q14 -2 43 -2h43q61 0 96 -2q96 -6 101 -6q43 -6 98 -16q35 -6 78 -27q29 -12 51 -39q18 -23 12 -53q0 -20 -14 -37q-12 -14 -43 -28q-35 -14 -64 -23q-25 -6 -71 -10q-68 -8 -158 -8h-158l17 -33 q10 -18 28.5 -34.5t44.5 -25.5q37 -12 64 -12q39 0 121 4q78 4 119 8q47 4 116 21q55 12 105 31l73 30q49 20 78 29q37 14 84 18l88 7q63 4 92 -7q39 -12 60 -30q23 -20 27 -45t-9 -45q2 -8 -2 -21l-6 -18q-20 -29 -61 -58q-39 -27 -90 -49q-53 -23 -107 -41 q-74 -25 -111 -35q-147 -39 -233 -55q-133 -25 -248 -26q-80 0 -155 6q-70 6 -148 22q-71 15 -135 37q-49 16 -115 51q-108 58 -178 129q-70 70 -104 150q-27 2 -78 2t-76 2q-59 0 -98 10q-46 12 -80 31q-39 20 -53 41q-21 29 -19 49z" />
<glyph unicode="&#xe000;" horiz-adv-x="1370" d="M0 1370h1370v-1370h-1370v1370z" />
<glyph unicode="&#xfb01;" horiz-adv-x="2633" d="M2040 385q8 125 14 193l19 192q14 113 26 191q4 20 25 190l21 68q8 29 38 63q25 31 27 33q15 15 36.5 30.5t49.5 24.5q35 12 64 16q19 1 34 2q25 0 48 -4q47 -6 71 -16q41 -14 60 -27q23 -14 43 -34q50 -64 50 -130q0 -10 -1 -20q-2 -37 -10 -110q-8 -70 -17 -109 q-2 -18 -7 -56t-9 -59q-6 -41 -15 -112q-2 -24 -2 -52q0 -24 2 -71q4 -82 4 -119q0 -76 3 -115q1 -15 0 -29q0 -42 -7 -83q-4 -45 -22 -78q-33 -55 -49 -78q-10 -16 -33 -35q-29 -25 -47 -35q-27 -14 -64 -24q-35 -10 -75 -12q-41 0 -60 4q-33 6 -51 14q-29 10 -43 20 q-12 8 -33 25q-29 33 -39 55q-4 8 -11 28.5l-11 31.5q-18 59 -25 112q-5 47 -5 84q0 16 1 31zM307 231q0 27 6 52q8 31 11 51l18 98q10 55 10 100q0 16 2 46t3 54.5t1 47.5q0 72 7 145q6 80 14 144q6 71 24 141q6 12 6.5 24.5t6.5 24.5q12 27 35 45q14 12 59 37q34 18 74 31 q43 14 86 22l182 25q68 8 186 20q88 12 150 17l147 12l142 6q31 1 58 2l83 -4q68 -6 123 -24.5t96 -44.5l43 -25q18 -10 37 -29q20 -20 27 -30q10 -16 10 -33q0 -18 -21 -31q-18 -10 -51 -20q-31 -8 -70 -13q-49 -4 -65 -4q-74 0 -217 -4q-76 -2 -217 -10l-99 -12 q-49 -6 -92 -19q-53 -14 -80 -29q-35 -18 -57 -43q-27 -41 -39 -71q-14 -35 -14 -72q52 6 104 6q37 0 106.5 4t102.5 4q12 0 35 0.5t35 0.5l35 -1q20 0 40.5 -1t43.5 -1q31 0 84 -4l79 -12q40 -6 74 -18q70 -25 94 -66q20 -32 20 -66q0 -8 -1 -16q0 -12 -12 -29 q-14 -16 -31 -26t-49 -21q-18 -6 -60 -10q-86 -4 -131 -4h-131q-39 -2 -121 -2q-41 0 -123 -4t-120 -10q-63 -10 -111 -27q-20 -66 -27 -143l-12 -146q0 -90 -33 -174q-12 -25 -26 -39q-18 -16 -45 -33q-27 -14 -62 -20q-26 -4 -48 -4q-16 0 -32 2q-88 6 -141 29 q-59 25 -94 57q-37 33 -51 72q-17 42 -17 75z" />
<glyph unicode="&#xfb02;" horiz-adv-x="3477" d="M2052 340q0 55 13 111l24 112l31 117l25 117q4 70 4 100.5t-4 99.5q-1 13 -1 26q0 31 5 71q2 16 7 49t7 49q4 29 20 57q20 35 49 55.5t83 41.5q43 16 110 22q23 2 47 2q41 0 74 -6q47 -8 84 -29q33 -18 55 -47q22 -28 31 -55q10 -31 10 -59q0 -37 -4 -54 q-12 -84 -37 -168l-51 -170l-45 -170q-18 -74 -29 -170q-1 -19 -1 -36q0 -28 3 -52q6 -47 19 -88q156 10 291 39q68 14 280 66l125 30q57 14 133 21q20 2 42 2q29 0 65 -4q45 -6 90 -23q37 -14 57 -41q9 -13 10 -27q0 -13 -8 -28q-23 -45 -74 -78q-52 -34 -122 -61 q-74 -29 -150 -49l-153 -43q-106 -25 -162 -35l-170 -29q-61 -8 -172 -16q-45 -3 -88.5 -3t-87.5 3q-35 2 -95 10q-68 8 -92 14q-47 10 -82 25q-45 18 -65 35q-41 41 -60 86q-16 39 -26 94q-10 25 -11 43q0 6 -2 20.5t-2 22.5zM307 231q0 27 6 52q8 31 11 51l18 98 q10 55 10 100q0 16 2 46t3 54.5t1 47.5q0 72 7 145q6 80 14 144q6 71 24 141q6 12 6.5 24.5t6.5 24.5q12 27 35 45q14 12 59 37q34 18 74 31q43 14 86 22l182 25q68 8 186 20q88 12 150 17l147 12l142 6q31 1 58 2l83 -4q68 -6 123 -24.5t96 -44.5l43 -25q18 -10 37 -29 q20 -20 27 -30q10 -16 10 -33q0 -18 -21 -31q-18 -10 -51 -20q-31 -8 -70 -13q-49 -4 -65 -4q-74 0 -217 -4q-76 -2 -217 -10l-99 -12q-49 -6 -92 -19q-53 -14 -80 -29q-35 -18 -57 -43q-27 -41 -39 -71q-14 -35 -14 -72q52 6 104 6q37 0 106.5 4t102.5 4q12 0 35 0.5 t35 0.5l35 -1q20 0 40.5 -1t43.5 -1q31 0 84 -4l79 -12q40 -6 74 -18q70 -25 94 -66q20 -32 20 -66q0 -8 -1 -16q0 -12 -12 -29q-14 -16 -31 -26t-49 -21q-18 -6 -60 -10q-86 -4 -131 -4h-131q-39 -2 -121 -2q-41 0 -123 -4t-120 -10q-63 -10 -111 -27q-20 -66 -27 -143 l-12 -146q0 -90 -33 -174q-12 -25 -26 -39q-18 -16 -45 -33q-27 -14 -62 -20q-26 -4 -48 -4q-16 0 -32 2q-88 6 -141 29q-59 25 -94 57q-37 33 -51 72q-17 42 -17 75z" />
<glyph unicode="&#xfb03;" horiz-adv-x="4370" d="M3776 385q8 125 14 193l19 192q14 113 26 191q4 20 25 190l21 68q8 29 38 63q25 31 27 33q15 15 36.5 30.5t49.5 24.5q35 12 64 16q19 1 34 2q25 0 48 -4q47 -6 71 -16q41 -14 60 -27q23 -14 43 -34q50 -64 50 -130q0 -10 -1 -20q-2 -37 -10 -110q-8 -70 -17 -109 q-2 -18 -7 -56t-9 -59q-6 -41 -15 -112q-2 -24 -2 -52q0 -24 2 -71q4 -82 4 -119q0 -76 3 -115q1 -15 0 -29q0 -42 -7 -83q-4 -45 -22 -78q-33 -55 -49 -78q-10 -16 -33 -35q-29 -25 -47 -35q-27 -14 -64 -24q-35 -10 -75 -12q-41 0 -60 4q-33 6 -51 14q-29 10 -43 20 q-12 8 -33 25q-29 33 -39 55q-4 8 -11 28.5l-11 31.5q-18 59 -25 112q-5 47 -5 84q0 16 1 31zM2044 231q0 27 6 52q8 31 11 51l18 98q10 55 10 100q0 16 2 46t3 54.5t1 47.5q0 72 7 145q6 80 14 144q6 71 24 141q6 12 6.5 24.5t6.5 24.5q12 27 35 45q14 12 59 37 q34 18 74 31q43 14 86 22l182 25q68 8 186 20q88 12 150 17l147 12l142 6q31 1 58 2l83 -4q68 -6 123 -24.5t96 -44.5l43 -25q18 -10 37 -29q20 -20 27 -30q10 -16 10 -33q0 -18 -21 -31q-18 -10 -51 -20q-31 -8 -70 -13q-49 -4 -65 -4q-74 0 -217 -4q-76 -2 -217 -10 l-99 -12q-49 -6 -92 -19q-53 -14 -80 -29q-35 -18 -57 -43q-27 -41 -39 -71q-14 -35 -14 -72q52 6 104 6q37 0 106.5 4t102.5 4q12 0 35 0.5t35 0.5l35 -1q20 0 40.5 -1t43.5 -1q31 0 84 -4l79 -12q40 -6 74 -18q70 -25 94 -66q20 -32 20 -66q0 -8 -1 -16q0 -12 -12 -29 q-14 -16 -31 -26t-49 -21q-18 -6 -60 -10q-86 -4 -131 -4h-131q-39 -2 -121 -2q-41 0 -123 -4t-120 -10q-63 -10 -111 -27q-20 -66 -27 -143l-12 -146q0 -90 -33 -174q-12 -25 -26 -39q-18 -16 -45 -33q-27 -14 -62 -20q-26 -4 -48 -4q-16 0 -32 2q-88 6 -141 29 q-59 25 -94 57q-37 33 -51 72q-17 42 -17 75zM307 231q0 27 6 52q8 31 11 51l18 98q10 55 10 100q0 16 2 46t3 54.5t1 47.5q0 72 7 145q6 80 14 144q6 71 24 141q6 12 6.5 24.5t6.5 24.5q12 27 35 45q14 12 59 37q34 18 74 31q43 14 86 22l182 25q68 8 186 20q88 12 150 17 l147 12l142 6q31 1 58 2l83 -4q68 -6 123 -24.5t96 -44.5l43 -25q18 -10 37 -29q20 -20 27 -30q10 -16 10 -33q0 -18 -21 -31q-18 -10 -51 -20q-31 -8 -70 -13q-49 -4 -65 -4q-74 0 -217 -4q-76 -2 -217 -10l-99 -12q-49 -6 -92 -19q-53 -14 -80 -29q-35 -18 -57 -43 q-27 -41 -39 -71q-14 -35 -14 -72q52 6 104 6q37 0 106.5 4t102.5 4q12 0 35 0.5t35 0.5l35 -1q20 0 40.5 -1t43.5 -1q31 0 84 -4l79 -12q40 -6 74 -18q70 -25 94 -66q20 -32 20 -66q0 -8 -1 -16q0 -12 -12 -29q-14 -16 -31 -26t-49 -21q-18 -6 -60 -10q-86 -4 -131 -4h-131 q-39 -2 -121 -2q-41 0 -123 -4t-120 -10q-63 -10 -111 -27q-20 -66 -27 -143l-12 -146q0 -90 -33 -174q-12 -25 -26 -39q-18 -16 -45 -33q-27 -14 -62 -20q-26 -4 -48 -4q-16 0 -32 2q-88 6 -141 29q-59 25 -94 57q-37 33 -51 72q-17 42 -17 75z" />
<glyph unicode="&#xfb04;" horiz-adv-x="5214" d="M3788 340q0 55 13 111l24 112l31 117l25 117q4 70 4 100.5t-4 99.5q-1 13 -1 26q0 31 5 71q2 16 7 49t7 49q4 29 20 57q20 35 49 55.5t83 41.5q43 16 110 22q23 2 47 2q41 0 74 -6q47 -8 84 -29q33 -18 55 -47q22 -28 31 -55q10 -31 10 -59q0 -37 -4 -54 q-12 -84 -37 -168l-51 -170l-45 -170q-18 -74 -29 -170q-1 -19 -1 -36q0 -28 3 -52q6 -47 19 -88q156 10 291 39q68 14 280 66l125 30q57 14 133 21q20 2 42 2q29 0 65 -4q45 -6 90 -23q37 -14 57 -41q9 -13 10 -27q0 -13 -8 -28q-23 -45 -74 -78q-52 -34 -122 -61 q-74 -29 -150 -49l-153 -43q-106 -25 -162 -35l-170 -29q-61 -8 -172 -16q-45 -3 -88.5 -3t-87.5 3q-35 2 -95 10q-68 8 -92 14q-47 10 -82 25q-45 18 -65 35q-41 41 -60 86q-16 39 -26 94q-10 25 -11 43q0 6 -2 20.5t-2 22.5zM2044 231q0 27 6 52q8 31 11 51l18 98 q10 55 10 100q0 16 2 46t3 54.5t1 47.5q0 72 7 145q6 80 14 144q6 71 24 141q6 12 6.5 24.5t6.5 24.5q12 27 35 45q14 12 59 37q34 18 74 31q43 14 86 22l182 25q68 8 186 20q88 12 150 17l147 12l142 6q31 1 58 2l83 -4q68 -6 123 -24.5t96 -44.5l43 -25q18 -10 37 -29 q20 -20 27 -30q10 -16 10 -33q0 -18 -21 -31q-18 -10 -51 -20q-31 -8 -70 -13q-49 -4 -65 -4q-74 0 -217 -4q-76 -2 -217 -10l-99 -12q-49 -6 -92 -19q-53 -14 -80 -29q-35 -18 -57 -43q-27 -41 -39 -71q-14 -35 -14 -72q52 6 104 6q37 0 106.5 4t102.5 4q12 0 35 0.5 t35 0.5l35 -1q20 0 40.5 -1t43.5 -1q31 0 84 -4l79 -12q40 -6 74 -18q70 -25 94 -66q20 -32 20 -66q0 -8 -1 -16q0 -12 -12 -29q-14 -16 -31 -26t-49 -21q-18 -6 -60 -10q-86 -4 -131 -4h-131q-39 -2 -121 -2q-41 0 -123 -4t-120 -10q-63 -10 -111 -27q-20 -66 -27 -143 l-12 -146q0 -90 -33 -174q-12 -25 -26 -39q-18 -16 -45 -33q-27 -14 -62 -20q-26 -4 -48 -4q-16 0 -32 2q-88 6 -141 29q-59 25 -94 57q-37 33 -51 72q-17 42 -17 75zM307 231q0 27 6 52q8 31 11 51l18 98q10 55 10 100q0 16 2 46t3 54.5t1 47.5q0 72 7 145q6 80 14 144 q6 71 24 141q6 12 6.5 24.5t6.5 24.5q12 27 35 45q14 12 59 37q34 18 74 31q43 14 86 22l182 25q68 8 186 20q88 12 150 17l147 12l142 6q31 1 58 2l83 -4q68 -6 123 -24.5t96 -44.5l43 -25q18 -10 37 -29q20 -20 27 -30q10 -16 10 -33q0 -18 -21 -31q-18 -10 -51 -20 q-31 -8 -70 -13q-49 -4 -65 -4q-74 0 -217 -4q-76 -2 -217 -10l-99 -12q-49 -6 -92 -19q-53 -14 -80 -29q-35 -18 -57 -43q-27 -41 -39 -71q-14 -35 -14 -72q52 6 104 6q37 0 106.5 4t102.5 4q12 0 35 0.5t35 0.5l35 -1q20 0 40.5 -1t43.5 -1q31 0 84 -4l79 -12 q40 -6 74 -18q70 -25 94 -66q20 -32 20 -66q0 -8 -1 -16q0 -12 -12 -29q-14 -16 -31 -26t-49 -21q-18 -6 -60 -10q-86 -4 -131 -4h-131q-39 -2 -121 -2q-41 0 -123 -4t-120 -10q-63 -10 -111 -27q-20 -66 -27 -143l-12 -146q0 -90 -33 -174q-12 -25 -26 -39q-18 -16 -45 -33 q-27 -14 -62 -20q-26 -4 -48 -4q-16 0 -32 2q-88 6 -141 29q-59 25 -94 57q-37 33 -51 72q-17 42 -17 75z" />
</font>
</defs>
</svg>
