<?xml version="1.0" standalone="no"?>
<!DOCTYPE svg PUBLIC "-//W3C//DTD SVG 1.1//EN" "http://www.w3.org/Graphics/SVG/1.1/DTD/svg11.dtd" >
<svg xmlns="http://www.w3.org/2000/svg">
<metadata>
This is a custom SVG webfont generated by Font Squirrel.
Copyright   : Copyright c Iconian FontsShyFonts Type Foundry 2000
</metadata>
<defs>
<font id="webfont4ErGN6Bs" horiz-adv-x="1716" >
<font-face units-per-em="2048" ascent="1638" descent="-410" />
<missing-glyph horiz-adv-x="1329" />
<glyph unicode=" "  horiz-adv-x="1329" />
<glyph unicode="&#x09;" horiz-adv-x="1329" />
<glyph unicode="&#xa0;" horiz-adv-x="1329" />
<glyph unicode="!" horiz-adv-x="862" d="M180 170q6 35 41 57q31 20 88 41q37 14 113 25q61 8 115 6q23 0 67 -4q23 -2 64 -10q12 -2 55 -19q25 -9 43 -24q27 -25 31 -60t-11 -65q-14 -33 -49 -56q-45 -29 -88 -45q-47 -16 -110 -26q-57 -8 -115 -6q-70 4 -115 20t-80 45q-29 25 -43 57q-14 37 -6 64zM469 506 q0 39 8 57q16 41 58 123q14 31 67 123q23 29 43 65l33 66q8 18 22 66q6 20 23 65q23 57 47 98q25 39 78 97q25 23 72 51q37 23 86 39q41 14 94 20q49 6 96 0q37 -8 53 -14q12 -6 37 -25q14 -12 25 -28l18 -31q8 -37 8 -59q0 -35 -8 -62q-25 -57 -55 -106q-45 -70 -72 -105 l-82 -104l-84 -105q-55 -55 -88 -98q-18 -25 -88 -98q-45 -47 -108.5 -92.5t-153.5 -75.5q-63 4 -90 24q-31 25 -35 54q-4 18 -4 55z" />
<glyph unicode="&#x22;" horiz-adv-x="1316" d="M596 1016q2 35 20 88q16 41 41 76q18 27 60 75q2 2 41 35l43 35q16 12 53 31q23 12 68 22q4 0 18 3l23 5q29 4 43 5q41 2 67 -7q31 -10 45 -24q16 -16 25 -33q6 -12 10 -33q3 -58 -6 -104q-10 -51 -27 -92q-18 -31 -35 -78q-12 -37 -41 -82q-27 -43 -67 -76 q-43 -34 -123 -55q-18 -6 -39 -6h-39q-39 2 -74 16q-27 10 -49 33q-20 20 -28 39q-14 37 -17 39q-16 43 -12 88zM1174 946q4 43 16 74l14 39q2 4 6 10t7 10q0 2 3 10.5t5 12.5l30 88q16 45 43 90q14 23 37 39q25 18 54 33q23 10 71 22q33 8 82 4q61 -10 92 -26 q39 -20 54 -41q16 -20 22 -51q6 -25 2 -60q-4 -37 -8 -57l-8 -28.5t-6 -27.5q-16 -37 -37 -77q-25 -45 -51.5 -80t-79.5 -72q-47 -33 -123 -57q-8 0 -21 -4q-6 -2 -18 -2l-35 -4h-8q-45 0 -62 6q-25 10 -38 20q-14 12 -25 29l-12 31q-8 32 -6 69z" />
<glyph unicode="#" horiz-adv-x="1904" d="M422 711q8 33 49 53q39 20 98 33q53 12 119 18q31 4 113 8q16 33 22 49.5t23 49.5q-20 -2 -68 -2h-65q-41 -2 -78 12q-27 10 -55 29q-18 16 -28.5 38.5t3.5 44.5q20 29 68 48q49 20 102 28q74 12 115 17q16 2 54 5t56 5q14 25 41 53q18 23 64 51q35 23 86 39 q45 14 112 15q37 0 68 -7q27 -6 53 -20q20 -12 31 -29q10 -18 4 -37l-25 -61q25 0 51.5 -1t53.5 -1q18 0 51 -1t51 -1q14 23 33 47q25 33 43 49q25 23 66 39q43 18 94 21q43 -2 84 -12.5t71 -24.5q39 -18 51.5 -32.5t16.5 -43.5l-4 -19l-4 -18l-2 -14q45 -2 96 -13 q47 -8 88 -24.5t60 -34.5q23 -23 16 -49q-3 -18 -25 -37q-20 -16 -49 -29q-25 -10 -67 -20q-33 -8 -72 -8h-113l-35 -101q29 -4 86 -8q46 -3 86 -12q41 -10 66 -25q25 -16 18 -41q-3 -12 -12 -24q-8 -10 -24 -21q-4 -2 -14.5 -10t-16.5 -12q-8 -6 -17.5 -10.5t-17.5 -10.5 l-82 -28q-37 -10 -90 -15l-39 -2h-35h-6q-2 -4 -10 -22l-6 -11.5l-6 -11.5t-7.5 -12t-7.5 -12q-6 -12 -16 -23q-16 -16 -41 -29q-31 -14 -55 -22q-55 -16 -66 -19q-47 -8 -65 -10q-61 0 -101 17q-35 14 -51 40q-12 20 -12 53t8 56q-72 0 -107 2h-106l-23 -59q-2 -10 -14 -23 q-14 -14 -25 -20q-18 -10 -34 -17l-37 -12q-37 -14 -88 -24.5t-92 -10.5q-51 6 -86 27q-29 16 -41 43q-14 29 -15 51v53h-78q-49 0 -73 4q-35 0 -70 11q-37 10 -53 20q-23 12 -35 31q-10 14 -6 37zM1266 823h106q72 0 109 2q8 33 14 49.5t14 49.5h-206z" />
<glyph unicode="$" horiz-adv-x="1708" d="M278.5 522.5q-2.5 14.5 0.5 32.5q0 18 14 31q12 10 41 20q33 12 55 15q20 2 60 2q61 -4 94 -9q31 -4 88 -16q31 -8 92 -16q45 -6 88 -19q45 -6 135 -14t141 -8q6 0 20.5 1t22.5 1q16 0 46 4q20 2 38 10q16 6 23 18q8 23 -8 46q-12 18 -47 34q-37 18 -72 27q-49 12 -82 16 l-209 31l-105 16.5t-106 14.5q-63 14 -80 20q-45 18 -63 33q-29 20 -37 41q-10 25 4 49.5t51 46.5q33 20 82 39q49 20 97 31q52 12 98 24q108 25 215 43q94 16 219 27q45 70 66 107q35 63 65 106q18 23 47 47q31 27 62 45q35 20 82 33q45 12 100 12q14 0 51 -4q18 -2 51 -6 q16 -2 45 -10q14 -4 35 -17q41 -16 57 -41q16 -27 5 -53q-9 -28 -25 -55q-16 -29 -41 -53q-59 -63 -80 -105q72 -6 154 -26q18 -4 133 -43l55 -25q18 -8 47 -29q20 -14 31 -34q10 -18 4 -39q-6 -23 -29 -33q-31 -14 -57 -21q-39 -8 -67 -10q-25 -2 -66 2q-33 2 -96 2 q-49 0 -92 6q-88 6 -93 7q-49 6 -96 4q-6 0 -17.5 1t-15.5 1q-8 0 -32 4l-29 -13q6 -12 25 -22q25 -12 38 -16l21.5 -7.5t23.5 -7.5q25 -6 41 -14l142 -43q72 -25 133 -51q6 -4 51 -31q29 -18 41 -33q14 -16 21 -39q6 -22 0 -43q-20 -33 -39 -51q-16 -16 -62 -45 q-27 -16 -78 -39q-57 -25 -88 -35q-78 -25 -200 -53q-104 -25 -211 -37q-6 -16 -15 -49q-2 -8 -5 -23.5t-5 -23.5q-8 -33 -10 -49q-2 -23 -17 -49l-16 -33q-2 -6 -8 -16.5t-10 -16.5q-9 -15 -25 -31q-20 -20 -35 -30q-23 -20 -57 -33q-39 -14 -76 -23q-41 -10 -82 -12 q-29 -2 -82 -2q-20 0 -57 4q-23 2 -53 10q-18 4 -39 19q-20 12 -27 24q0 8 4 25q4 20 8 27q10 39 29 67q22 34 37 68q29 45 41 67l35 70q-82 6 -174 22q-76 14 -154 41t-127 58q-55 34 -92 74q-14 16 -16.5 30.5z" />
<glyph unicode="%" horiz-adv-x="2392" d="M311 49q6 12 27 37q12 16 37 33q2 2 18.5 14l26.5 19l47 32l434 297l436 295q-82 -29 -184 -45q-109 -16 -197 -14q-61 0 -116 6q-59 6 -105 20q-57 18 -86 35q-39 23 -61 45q-53 53 -56 107q-4 61 23 114.5t78 112.5q45 53 131 105q37 23 88 45q53 23 102 36 q57 16 113 25q58 9 117 12q145 12 249.5 -12.5t166 -73.5t74 -112.5t-26.5 -124.5q-16 -45 -23 -56q-15 -28 -37 -55l361 244q141 96 368 237q20 12 41 27q14 8 47 25q20 10 52 20q18 6 61 10q55 -4 100 -12q43 -8 80 -29q35 -20 49 -41q14 -25 2 -53q-31 -47 -69 -84 q-16 -14 -99 -78q-53 -41 -108 -75q-76 -49 -111 -74l-276 -178l-279 -178l-473 -306l-463 -305q-49 -31 -100 -73l-92 -74q-6 -6 -31 -19q-12 -6 -41 -14q-16 -4 -45 -8q-16 -2 -47 -2q-55 2 -94 14q-35 10 -70 33q-27 18 -37 44.5t-2 51.5zM961 989q0 -9 6 -18 q6 -8 20 -13q18 -4 37 -2q45 0 76 13q33 14 51 28q25 20 35 39q16 29 20 37l13 33q4 10 8 35q-6 10 -33 20q-25 10 -59 6q-20 0 -43 -6q-18 -6 -37 -16q-14 -10 -27 -21q-14 -14 -18 -20q-20 -27 -25 -47q-6 -25 -20 -47q-4 -13 -4 -21zM1413 225q2 35 29 78q6 49 35 88 q37 51 79 86q49 40 117 74q61 31 148 57q70 20 168 35q90 12 182 6q55 0 110 -6q53 -6 101 -18q43 -12 82 -33q35 -18 53 -43q43 -45 43 -103q0 -53 -25 -108q-27 -59 -84 -117q-61 -61 -147 -108q-84 -49 -205 -84q-125 -37 -241 -39q-84 -8 -166 2q-72 8 -127 31 q-51 20 -90 55q-33 29 -50 69q-16 37 -12 78zM1878 262q0 -23 27 -35q29 -12 75 -10q25 -2 52 8q20 8 34 23q6 16 15 26q6 8 10 25l12 18l4 19h2q8 14 11 29q4 16 0 28q-2 12 -21 23q-16 10 -49 10t-57 -6q-20 -6 -43 -17q-12 -6 -31 -24q-12 -12 -16 -27q-25 -43 -25 -90z " />
<glyph unicode="&#x26;" horiz-adv-x="2043" d="M356.5 389q-10.5 51 8.5 100q8 41 51 89q39 41 102 79q59 35 139 68q55 23 164 49q-41 27 -84 59.5t-67 63.5q-27 33 -37 72q-8 37 14 80q18 43 47 71q35 35 84 66q45 29 107 57q68 33 125 51q125 43 278 70q145 25 291 25q125 0 217 -9q90 -8 201 -28q53 -10 90 -20.5 t82 -28.5q35 -14 57.5 -37t20.5 -47q-8 -25 -39 -49.5t-70 -47.5q-16 -10 -78 -37q-43 -18 -96 -18q-78 0 -135 8q-86 12 -131 17l-71 4t-71 6q-94 8 -141 8q-49 0 -92 -12q-10 -2 -20.5 -6.5t-20.5 -6.5q-23 -6 -29 -18q-8 -25 -8 -33q0 -18 6 -35q6 -14 23 -30 q14 -14 45 -25q23 -8 59 -14l68 -12q25 -4 70 -9q12 -2 36.5 -5t34.5 -3l139 -12q94 -8 144 -10q16 20 43 34q33 18 61 29q23 8 76 16q35 6 78 3q63 0 112.5 -12.5t77.5 -35.5q27 -20 37 -53q8 -25 -8 -57q-16 -51 -53 -127q-29 -59 -68 -125l-76 -125l-77 -127l-54 -63 q-31 -37 -61 -66q-31 -27 -80 -59q-45 -29 -102 -54q-45 -16 -125 -34q-43 -10 -133.5 -22.5t-135.5 -14.5l-137 -6q-96 -2 -196 10q-119 14 -181 30q-86 23 -157 52q-63 27 -131 65q-63 35 -109 74q-37 33 -76 86q-28 41 -38.5 92zM909.5 428.5q10.5 -22.5 30.5 -41.5 q16 -14 57 -33q29 -12 70 -26q74 -25 172 -37q92 -12 193 -12l38 2l39 2h29l82 149l80 150q-29 4 -90 8q-16 2 -48 3t-49 1q-33 -2 -106 -2q-39 0 -117 -4q-82 -4 -119 -8q-59 -6 -108 -19q-55 -14 -90 -33q-39 -20 -62 -53q-12 -24 -1.5 -46.5z" />
<glyph unicode="'" horiz-adv-x="706" d="M565 924q-4 43 0 63q10 47 15 64q12 41 16 59q16 41 39 74q33 49 53 73l37 37l12 11.5t15.5 12.5t13.5 11q14 12 51 33q29 16 64 24q45 10 88 11q41 -2 71 -17q27 -12 47 -32q14 -14 25 -39l14 -41q16 -45 17 -86q0 -51 -15 -88q-12 -27 -41 -80q-16 -31 -61 -76 q-8 -8 -17.5 -18.5t-19.5 -20.5q-2 -2 -18.5 -16.5t-26.5 -22.5q-20 -16 -55 -33q-23 -10 -72 -22q-14 -4 -39 -8q-14 -2 -41 -2q-59 8 -98 28q-31 16 -53 45q-17 23 -21 56z" />
<glyph unicode="(" horiz-adv-x="1599" d="M330 401q-18 96 18 197q39 117 119 223q80 109 201 215q125 109 284 203q172 100 369 168q109 35 197 53q100 20 208 15q61 -2 108.5 -18.5t74.5 -39.5q25 -23 35 -51q8 -27 -5 -59q-8 -14 -28 -25q-23 -12 -43 -16l-49 -13l-50 -12q-82 -16 -172 -47q-102 -35 -157 -59 q-88 -41 -140 -70q-65 -37 -116 -80q-55 -43 -97 -90q-47 -55 -73 -94q-33 -49 -53 -96q-4 -8 -19.5 -43l-23.5 -54q-10 -29 -21 -76q-10 -45 -10 -77q0 -43 8 -76q8 -29 37 -70q29 -31 72 -59.5t90 -50.5q33 -16 106 -45q37 -14 115 -39q61 -20 115 -31l112 -29 q31 -6 41 -20q12 -14 6 -33q-10 -23 -45 -51q-29 -23 -76 -43q-53 -23 -98 -33q-49 -10 -110 -14q-104 -8 -215 8t-185 45q-70 20 -149 61q-76 39 -123 72q-66 47 -99 80q-57 57 -79 88q-62 84 -80 186z" />
<glyph unicode=")" horiz-adv-x="1595" d="M348 37q2 12 19 29q14 12 41 22q10 2 30.5 7t30.5 7q39 8 63 11q111 20 185 47q94 33 157 65q74 37 135.5 80t110.5 86q127 106 189 195q74 104 108 205q33 90 6 167q-27 82 -120 146q-80 57 -207 102q-133 47 -262 70q-12 4 -23.5 6t-24.5 4q-20 4 -43 17q-20 10 -30 20 q-12 12 -6 27q10 29 49 53q31 20 86 41q53 20 108 29q59 10 113 12q135 12 260 -4q117 -14 215 -54q100 -39 168 -86q71 -49 117 -104q100 -109 131 -240t-17 -260q-23 -63 -71 -135q-51 -76 -107 -133q-39 -41 -137 -127q-72 -63 -156 -125l-168 -113q-76 -51 -202 -108 q-111 -51 -232 -80q-125 -31 -266 -25q-49 2 -100 17q-43 12 -82 31q-37 18 -55.5 42.5t-12.5 55.5z" />
<glyph unicode="*" horiz-adv-x="1497" d="M403 733q25 31 68 55q33 18 96 41q86 31 111 37q70 18 110 33l-81 35q-55 23 -76 37q-41 27 -58 45q-20 23 -20 51q15 22 43 43q23 18 63 35q45 18 82 26q47 10 88 11q35 0 64 -6q18 -4 51 -17q16 -6 45 -22q8 -4 17.5 -11.5t21.5 -13.5l6 12q20 41 35 62q18 27 59 57.5 t93 46.5q61 18 118 17q43 0 74 -9q41 -10 60 -20q27 -14 39 -30.5t8 -39.5q-8 -29 -17 -43q-4 -6 -11 -20.5l-11 -22.5q82 29 127 41q63 16 141 21q27 -2 76 -15q31 -8 61 -26q23 -14 37 -35q12 -20 10 -41q0 -4 -10 -23q-4 -8 -18 -22q-8 -8 -29 -21q-12 -6 -41 -14 q-72 -18 -176 -47l-174 -51l123 -45l123 -45q39 -12 45 -37t-11 -47q-10 -18 -32 -41q-20 -20 -51 -39t-74 -31q-39 -10 -86 -14q-68 0 -113 14q-33 10 -90 35q0 -12 -12 -29q-8 -20 -43 -43q-23 -14 -80 -35q-49 -16 -97 -24q-35 -6 -102 -10q-61 2 -90 20q-31 18 -41 45 q-8 20 -4 55q2 29 12 54q-16 -4 -53 -16.5t-55 -16.5l-56 -12q-37 -4 -55 -2q-45 -2 -92 8q-14 2 -78 24q-27 10 -53 33q-21 16 -17 43z" />
<glyph unicode="+" horiz-adv-x="1429" d="M332 705q20 25 59 43q41 20 80 30q33 8 98 17q4 0 43 5t60 7q16 0 51 2t51.5 2t49 1t46.5 3l7 21q14 37 36 69q25 39 66 70q43 35 100 55q55 20 144 21q43 0 75 -9q43 -10 62 -22q27 -16 37 -33q12 -18 6 -39q-12 -39 -19 -69q-6 -37 -20 -70h20q4 0 12.5 -1t10.5 -1 q14 0 45 -1t47 -1q49 0 96 -6q55 -8 88 -15q39 -8 72 -24.5t43 -34.5q12 -23 4 -47q-8 -20 -33 -39q-29 -23 -57 -35q-35 -16 -76 -24q-47 -10 -84 -11q-92 0 -139 -2t-139 -2q-14 -33 -23 -59q-9 -31 -24 -62q-12 -25 -45 -45q-25 -16 -78 -34q-47 -20 -96 -29 q-57 -10 -103 -10q-57 6 -80 18q-31 16 -47 35q-16 20 -22 43q-4 16 -4 47q0 18 4 51q2 14 5 25.5l5 19.5h-119q-80 0 -121 2q-51 0 -90 13q-41 12 -61 32q-29 18 -41 43q-14 27 -2 50z" />
<glyph unicode="," horiz-adv-x="763" d="M104 -109q-4 18 2 35q10 33 33 62q23 27 56 57q35 31 69 57l76 54l84 49q43 28 92 49t105 37q55 14 120 18q47 -2 93 -16q39 -12 53 -39q8 -18 8 -47q0 -25 -8 -47q-14 -35 -49 -70q-39 -41 -76 -65q-57 -41 -96 -62l-107 -55q-45 -20 -59 -29q-35 -18 -66 -29 q-45 -16 -69 -22q-33 -8 -80 -8q-10 2 -29 2q-20 0 -31 2q-45 4 -63 10q-23 8 -39.5 24.5t-18.5 32.5z" />
<glyph unicode="-" d="M475 678q-4 12 2 27q39 37 103 59q63 20 141 31q74 9 153 12q25 0 74 1t72 3h90q59 0 90 -2q16 0 45 -1t45 -1h92q61 0 180 -4t179 -8q57 -8 84 -15q49 -12 71 -22q35 -16 48 -35q14 -20 6 -45q-10 -16 -43 -39q-25 -16 -68 -33q-27 -10 -84 -22q-29 -6 -86 -11 q-215 -8 -483 -8q-119 0 -240 1t-241 1q-104 8 -164 45q-4 2 -14.5 10.5t-14.5 10.5q-14 8 -25 22q-10 13 -12 23z" />
<glyph unicode="." horiz-adv-x="811" d="M236 92q-6 35 12 70q16 33 51 59.5t90 48.5q47 18 115 33q61 12 127 12q68 4 117 -8q63 -14 90 -31q35 -20 51 -49q14 -27 2 -59q-12 -39 -47 -70q-39 -37 -90 -61q-57 -31 -121 -47q-71 -18 -141 -19q-80 -4 -134 15q-61 20 -86 43q-30 26 -36 63z" />
<glyph unicode="/" horiz-adv-x="1480" d="M119 72q12 35 26 57q12 18 45 55t54 56l59 53l143 115l146 116l160 140q78 70 163 139l310 237l325 232l80 51q33 20 92 47q63 29 107 37q53 12 121 8q33 -4 53 -8q18 -4 47 -16q18 -8 30.5 -20.5t6.5 -29.5q-2 -10 -16 -34q-12 -20 -25 -33q-6 -4 -16.5 -16.5 t-14.5 -16.5q-8 -8 -16 -15t-17 -16q-41 -33 -77 -67q-37 -34 -80 -68l-287 -246l-293 -243l-309 -240l-328 -237q-47 -33 -71 -48q-27 -16 -88 -45q-31 -14 -101 -30q-57 -14 -110 -9q-70 6 -99 33q-30 27 -20 62z" />
<glyph unicode="0" horiz-adv-x="1972" d="M395 440q-23 111 21 219q43 115 131 228q88 115 219 217q66 53 137 98q76 49 172 90q90 39 201 68q98 25 225 29q186 0 326 -35q141 -35 227 -90q98 -61 143.5 -133t65.5 -160q18 -82 6 -168q-12 -84 -47 -164q-41 -106 -129 -219q-84 -109 -231 -207q-70 -51 -156 -92 q-100 -49 -190 -76q-98 -29 -216 -49q-104 -18 -225 -14q-123 0 -213 20q-96 23 -168 57q-74 37 -125 82q-53 47 -84 92q-70 101 -90 207zM911 455q-4 -39 4 -64q10 -35 33 -57q27 -27 70 -41q53 -18 119 -21q55 -2 125 13q53 10 110 34q43 18 92 50q35 23 72 55 q78 88 115 156q39 72 67 145q4 18 10.5 36.5t10.5 39.5q10 39 14 84q4 49 -4 82q-10 43 -39 71q-33 33 -86 53.5t-145 26.5q-76 -4 -127 -20q-47 -16 -97 -47q-29 -18 -75 -62q-25 -23 -58 -59q-41 -51 -65 -92q-31 -51 -49 -88q-25 -49 -37 -84l-12.5 -28.5t-10.5 -25 t-10 -28.5q-4 -10 -9 -33t-7 -29q-7 -22 -11 -67z" />
<glyph unicode="1" horiz-adv-x="903" d="M385 90q-4 25 0 51q2 18 14 52q4 12 15 51q18 51 63 157l72 156l78 164q45 96 69 162q8 29 15 45q4 10 14 47q6 20 2 45q-4 29 -14 43l-26.5 13l-31.5 16q-37 20 -51 32q-23 18 -31 39t2 43q12 31 43 62q29 29 78 55q39 20 103 41q49 16 123 22q4 0 57 -12q27 -6 55 -14 q74 -23 121 -51q43 -27 84 -70q33 -35 45 -80q12 -43 0 -86q-6 -12 -6 -24q0 -10 -6 -23q-25 -80 -70 -176l-82 -176l-84 -178q-61 -127 -80 -177q-8 -29 -14 -43t-14 -43q-10 -37 -13 -40q-4 -10 -9 -20.5t-9 -20.5q-6 -27 -29 -52q-25 -29 -51 -47q-8 -8 -33 -24 q-12 -8 -41 -21q-12 -4 -49 -14q-14 -4 -51 -8q-51 -4 -76 -2q-37 3 -67 12q-37 10 -56 20q-29 14 -41 27q-14 20 -18 47z" />
<glyph unicode="2" horiz-adv-x="2043" d="M504 104.5q-6 30.5 6 61.5q12 39 41 78q28 37 67 73q37 35 89 72l96 68l248 161l249 160l101 70q49 37 92 74q49 43 78 75q29 35 49 78q6 14 4 25q-4 14 -14 22q-16 12 -30.5 16.5t-49.5 4.5q-43 0 -125 -8q-61 -6 -123 -19q-23 -4 -113 -22q-57 -12 -100 -37l-18 -19 l-17 -16l-16 -16q-12 -16 -45 -39q-18 -12 -67.5 -28.5t-78.5 -20.5q-43 -6 -84 -7q-37 0 -55 2q-23 2 -49 11q-29 8 -39 16q-14 12 -20 27q-20 23 -17 51q4 31 17 53q27 49 77 84q55 37 129 68q63 27 158 53q96 27 166 43q170 35 358 51q201 16 357 14q43 0 108 -12 q45 -8 86 -29q37 -18 64 -38q20 -14 45 -50q35 -47 45 -104q10 -55 -6 -115q-12 -35 -35 -69q-18 -31 -53 -68q-37 -39 -70 -65q-4 -4 -34.5 -28t-47.5 -36l-209 -129l-211 -129l-98 -63q-55 -35 -92 -64q-74 -57 -82 -66q-43 -39 -66 -69q197 14 396 37q215 25 395 35 q43 2 90 -13q43 -14 66 -33q25 -18 38 -38q16 -23 3 -50q-68 -34 -148 -55q-84 -23 -164 -37q-115 -20 -174 -28l-172 -25q-211 -27 -389 -41q-195 -16 -385 -12q-66 0 -115 16.5t-73 40.5q-27 27 -33 57.5z" />
<glyph unicode="3" horiz-adv-x="2002" d="M545 1034q-4 14 2 25q27 39 80 69q41 25 118 58q65 28 136 49l139 45l147 37q90 23 152 35q82 16 154 24q88 10 159 10q104 0 201 -22q88 -20 160 -59q31 -16 59 -39q27 -20 45.5 -45t24.5 -50q6 -20 -2 -53q-14 -37 -35 -59q-33 -39 -55 -58q-31 -28 -68 -55 l-40.5 -27.5l-35.5 -23.5q115 -6 207 -39q88 -31 137 -78q47 -45 58 -106q10 -59 -27 -117q-23 -59 -74 -115q-55 -59 -123 -106q-72 -51 -163 -98q-94 -49 -189 -84q-95 -40 -203 -74q-92 -29 -221 -53q-131 -25 -231 -33q-117 -10 -234 -6q-76 4 -127 20q-57 18 -88 47 q-40 28 -55 62q-14 33 -2 71q6 20 18 35q14 16 52 27q12 4 71 8l74 4l121 6q82 4 123 8q106 12 223 35q88 18 211 58q53 16 96 36q51 25 84 43q25 14 64 50q27 23 36 55q8 12 9 20q0 16 -4 23q-10 14 -21 18q-20 8 -39 9q-147 0 -317 -17q-166 -16 -314 -51 q-23 -4 -59.5 -14.5t-44.5 -12.5q-37 -8 -109 -20q-58 3 -98 18.5t-68 36.5q-41 25 -53 43q-18 25 -12 53q10 23 33 43q27 23 55 39q14 8 74 31q35 14 78 27l91 27.5t105 29.5l199 55q45 16 84 33q55 23 76 37q37 25 59 43q23 20 33 47l12 18q10 10 14 17l-14 6 q-113 -10 -199 -35l-190 -53l-164 -47q-86 -25 -168 -43q-20 0 -49 4q-14 2 -43 10q-25 6 -39 15l-33 16q-4 2 -13 8t-13 8q-8 6 -23 21q-12 12 -14 20z" />
<glyph unicode="4" horiz-adv-x="1851" d="M307 657q3 25 12 50q25 59 74 118q43 51 107 115q66 66 131 117t151 108q40 28 86 56q31 18 97 51l90 45q51 23 108 31q57 2 107 -11q43 -10 78 -30q18 -10 32 -23q18 -14 25 -22q12 -16 14 -27q4 -14 -2 -29q-16 -27 -39 -49q-16 -16 -53 -49l-61 -47l-62 -45 q-43 -31 -137 -109q-70 -55 -121 -110q78 -8 238 -17q154 -8 235 -14q31 55 41 82q8 23 17.5 45t15.5 39q8 20 14 40.5t13 41.5q10 37 28.5 84t38.5 90q12 25 60 90q16 23 41 39q35 23 63 33q49 16 78 20q47 6 86 4q59 -4 102 -18q45 -16 70 -35q27 -20 39 -49q12 -28 6 -55 l-33 -107l-43 -104q-14 -35 -39 -109q-4 -12 -41 -106q-6 -15 -6 -31t-6 -31q41 -10 59 -20q25 -12 43 -31q16 -16 22.5 -34.5t-3.5 -41.5q-23 -39 -70 -72q-49 -33 -127 -49q-14 -18 -18 -28q-6 -14 -15 -29q-8 -20 -20 -66l-18 -63q-6 -35 -19 -64l-24 -61 q-14 -31 -37 -59q-25 -31 -62 -54q-43 -27 -90 -43q-49 -16 -117 -20q-40 -3 -80 0q-47 4 -71 10q-34 9 -55 25q-23 16 -29 34q-10 16 -14 39q-2 14 2 43l12 43l12 43q14 25 23 48q12 33 20 47q18 27 27 47q8 23 22 47q0 12 6.5 24.5t6.5 24.5q-45 4 -68 4h-70 q-129 0 -256 6q-145 6 -245 23q-37 4 -111 16q-43 8 -109 23q-45 10 -92 30q-49 20 -71 41q-21 20 -19 45z" />
<glyph unicode="5" horiz-adv-x="2027" d="M440 563q-10 41 6 74q14 43 51.5 125t59.5 125l66 123q8 18 65 120q25 49 84 95q61 45 152 73q109 33 188 45q100 16 199 25q133 14 241 16q121 4 238 0l133 -6q68 -4 117 -24q49 -16 69 -54q18 -33 2 -67q-8 -27 -24 -41q-23 -18 -64 -31q-39 -8 -81 -8q-53 0 -82 -2 q-27 0 -80.5 -2t-80 -2t-80.5 -2t-81 -2q-37 -2 -77 -6t-83 -9q-82 -6 -157 -24l-72 -133l-70 -131q49 25 164 65q63 23 180 49q96 23 193 31q115 10 192 8q45 0 136 -8q53 -4 127 -20q55 -12 108 -35q57 -25 84 -47q31 -23 55 -58q20 -29 27 -63q6 -37 4 -68 q-2 -23 -18 -67q-25 -70 -88 -129q-68 -63 -150 -117q-80 -51 -192 -105q-127 -59 -213 -94q-78 -31 -230 -78q-131 -41 -246 -65q-117 -27 -256 -39q-129 -12 -258 -6q-70 4 -118 20q-53 18 -80 45q-31 29 -41 60q-8 29 -2 65q6 33 45 60q41 29 106 35q37 4 115 8 q74 4 113 2h110q37 0 111 8q70 10 108 22q35 10 101 35q33 12 94 41l90 41l84 45q25 12 80 49q43 29 65 52q33 33 45 55l7 18q2 4 2 14.5t-2 14.5q-4 6 -15 10q-18 6 -24 6q-39 -2 -104.5 -14t-98.5 -22l-94 -31l-95 -31l-186 -70l-100 -37.5l-84 -29.5q-25 -10 -60 -21 q-45 -12 -67 -16q-43 -8 -70 -10q-45 -4 -67 -4q-82 4 -125 24q-45 23 -70 58q-23 34 -31 67z" />
<glyph unicode="6" horiz-adv-x="1882" d="M340 391q-2 43 12 88q23 61 56 115q37 59 77 113q57 74 90 110l101 111l104 104q52 52 111 105q39 35 129 100q76 55 154 94q47 20 122 39q53 12 134 16q43 6 79 0q35 -6 59.5 -18t37 -30.5t10.5 -37.5q2 -12 2 -32q0 -8 -4 -33q-59 -57 -131 -113l-137 -110l-105 -86 q-43 -37 -94 -90q111 29 250 41q137 12 254 10q70 0 137 -6q61 -6 129 -23q84 -20 111 -33q49 -22 86 -49q68 -51 79 -119q12 -63 -16 -131q-25 -59 -57 -100q-43 -53 -92 -96q-51 -45 -119 -88q-63 -41 -144 -82q-82 -43 -163 -74q-80 -31 -185 -57q-95 -25 -196 -37 q-109 -12 -203 -10q-98 0 -172 14q-98 18 -148 37q-68 25 -123 55.5t-92 67.5q-43 37 -71 73q-33 43 -50 78q-20 43 -22 84zM883 334q-10 -25 8 -39q18 -16 51 -25q35 -10 76 -12q57 -4 78 -4q66 0 98 2q31 2 96 14q61 12 94 23q47 16 84 33q74 37 121 84q43 43 64 96 q8 16 8 39q0 16 -14 39q-8 12 -41 26q-29 12 -72 11q-74 0 -152 -17q-74 -15 -141 -37q-76 -20 -135 -45q-53 -23 -109 -63q-18 -14 -36 -31q-25 -20 -35 -31q-12 -12 -29 -32q-10 -15 -14 -31z" />
<glyph unicode="7" horiz-adv-x="1849" d="M547 1108q18 41 63 78q43 35 113 67q57 27 143 52q74 20 158 36q143 27 332 37q169 9 332 6q80 -2 221 -10q111 -6 211 -24q49 -10 90 -25q49 -18 74 -35q33 -25 47 -45q16 -27 8 -53q-31 -43 -78 -98.5t-92 -96.5l-103 -94l-100 -96l-258 -232l-264 -229 q-43 -43 -51 -53l-43 -55l-41 -58q-12 -18 -41 -55l-47 -55q-25 -29 -60 -54q-14 -8 -47 -16q-31 -8 -53 -10q-6 0 -17.5 -2t-20.5 -3t-17 -1q-10 0 -27.5 -1t-26.5 -1q-78 -4 -125 10q-51 14 -84 39q-34 25 -43 55q-8 31 7 64q14 35 32 61q29 41 45.5 61.5t55.5 59.5l20 20 t18.5 17.5t20.5 21.5l379 344l375 344q4 4 10 12.5t10 12.5l25 24q-18 0 -57 1t-58 4q-37 2 -115 2q-80 0 -120.5 -2.5t-118.5 -14.5q-61 -10 -114.5 -24.5t-102.5 -40.5q-39 -20 -90 -37q-57 -18 -107 -21q-51 -2 -113 4q-49 6 -94 23q-47 12 -61 35q-16 24 0 51z" />
<glyph unicode="8" horiz-adv-x="1916" d="M334 281q-8 35 4 77q10 49 51 95q37 39 109 84q70 43 147 71q90 33 172 54q-68 16 -135 47q-57 27 -98 63q-39 37 -52 78q-12 39 15 88q18 45 57 86q35 37 90 80q52 40 117 74q53 29 135 63q86 37 150 59q70 25 164 46q90 20 170 28q96 10 174 10q158 0 284 -36 q133 -39 215 -91q37 -18 82 -57q41 -33 60 -63q20 -33 30 -72q8 -37 -4 -76q-10 -51 -47 -94q-43 -51 -104 -88q-65 -40 -148 -74q-70 -29 -176 -53q68 -22 123 -49q51 -27 88 -66q37 -41 45 -78q10 -43 -10 -86q-18 -41 -55 -82q-33 -37 -86 -75q-59 -45 -109 -72 q-51 -29 -129 -63q-59 -27 -141 -54q-74 -25 -158 -43q-53 -12 -164 -24q-96 -10 -166 -8q-154 0 -291 28q-131 27 -229 80q-47 25 -88 57q-35 29 -61 66q-21 29 -31 70zM911 340q-10 -27 9 -41q18 -16 51 -25q35 -10 76 -12q57 -4 81 -4q39 -2 97 4q61 8 96 17q41 10 78 32 q33 20 39 45q8 20 -4 43q-10 18 -37 35q-25 15 -62 25q-41 10 -82 10q-58 0 -110 -12.5t-105 -30.5q-20 -8 -41 -18q-16 -8 -36 -21q-25 -16 -31 -22q-13 -13 -19 -25zM1182 938q6 -18 28 -35q22 -15 56 -24q31 -8 80 -9q61 0 110 15q70 20 100 35q43 22 80 49t45 57 q6 14 -2 37q-6 16 -24 33q-14 12 -47 22q-31 10 -70 10q-61 0 -117 -14q-68 -18 -106 -35q-57 -25 -84 -47q-37 -31 -47 -53q-8 -21 -2 -41z" />
<glyph unicode="9" horiz-adv-x="1873" d="M389 778q4 37 19 70q37 76 94 139q68 74 151 133q90 61 215 119q123 57 262 92q84 25 205 41q119 16 211 14q92 0 176 -12q76 -12 154 -35q76 -23 129 -51q55 -29 100 -67q80 -68 113 -156q31 -84 4 -176q-25 -65 -68 -129q-39 -57 -96 -129q-43 -53 -114 -125l-125 -123 q-66 -51 -127 -115q-47 -47 -138 -114q-78 -59 -165 -103q-88 -45 -215 -69q-47 -4 -78 2t-58 20q-20 12 -30.5 32.5t2.5 41.5l6 12q4 16 6 16l6 13l6 12q16 31 39 57q33 37 53 56q47 43 62 55l63 53l140 115l135 117q-72 -27 -140 -43q-98 -25 -149 -33q-102 -16 -154 -21 q-77 -6 -153 -6q-47 0 -137 8q-76 6 -127 21q-72 18 -109 35q-55 25 -86 47q-33 25 -53 57q-23 37 -27 62q-6 30 -2 67zM911 807q-3 -18 7 -37q8 -16 30.5 -28.5t65.5 -12.5q53 0 114 10q57 10 109 25q70 20 102 33q49 18 91 39l83 43q43 23 76 47t58 51q23 27 32 55 q4 20 -14 32.5t-47 18.5q-20 4 -62 9q-23 2 -65 2q-94 6 -201 -15q-100 -18 -176 -55q-74 -35 -129 -84q-51 -45 -63 -96q-7 -12 -11 -37z" />
<glyph unicode=":" horiz-adv-x="786" d="M221 113q-6 33 8 69q10 33 47 58q33 23 93 43q47 16 114 26q41 6 119 6q66 4 115 -2q53 -6 94 -26q39 -18 53 -43q14 -23 -8 -58q-20 -41 -49 -69q-39 -39 -82 -66q-29 -18 -55 -28q-41 -16 -64 -23q-45 -12 -69 -16q-37 -6 -74 -7q-74 0 -131 21q-51 18 -78 47t-33 68z M500 684q0 20 2 31q4 16 8 28q14 27 41 60q29 35 70 57q40 25 98 43q59 18 119 19q10 0 29.5 -1t29.5 -3q8 0 53 -13q25 -6 45 -16q18 -9 31 -25q12 -12 18.5 -24.5t6.5 -28.5q0 -18 -2 -29q0 -4 -2.5 -14t-4.5 -14q-8 -35 -24 -62q-18 -29 -60 -59q-29 -23 -92 -43 q-53 -18 -126.5 -14t-121.5 16q-59 16 -83 39q-16 12 -25 26q-10 21 -10 27z" />
<glyph unicode=";" horiz-adv-x="849" d="M139 -84q-2 16 4 37q6 18 33 53q20 25 51 53q31 27 64 52l71 49l87 51q61 33 96 47q70 29 108 39q68 18 121 20q35 0 51 -2q29 -4 45 -8q25 -6 37.5 -14t20.5 -23q10 -23 0 -49q-2 -8 -8.5 -25.5t-8.5 -25.5q-16 -33 -53 -70q-43 -43 -78 -67q-39 -27 -96 -62l-102 -59 q-16 -6 -30.5 -14.5t-31.5 -16.5q-20 -10 -65 -26q-43 -16 -72 -21q-41 -6 -76 -4q-8 2 -28 2q-8 0 -14.5 1t-12.5 1q-35 6 -59 19q-23 12 -37.5 28.5t-16.5 34.5zM559 698q2 16 8 33q14 37 43 66q35 35 80 57q53 27 111 41q61 14 131 12q72 -4 121 -20.5t82 -46.5 q33 -29 41 -62q10 -35 -2 -65q-12 -61 -107 -107q-57 -25 -113 -35q-74 -14 -127 -12q-39 0 -108 8q-57 6 -98 25q-28 18 -43 37q-16 18 -18.5 34.5t-0.5 34.5z" />
<glyph unicode="&#x3c;" horiz-adv-x="1435" d="M299 676q14 27 51 49q51 33 76 43q49 23 90 35l92 33l213 61l211 61l117 37l119 33q78 20 118 27q72 10 119 8q41 -2 78 -12q29 -6 59 -27q23 -14 37 -35q12 -18 7 -41q-8 -27 -25 -43q-25 -25 -68 -33l-297 -90l-295 -94l246 -67l248 -70q29 -6 45 -18.5t19 -24.5 q4 -20 2 -31q-3 -15 -13 -31q-8 -20 -32 -40q-20 -16 -56 -35q-37 -18 -71 -27q-27 -6 -82 -10q-94 0 -164 14q-66 14 -144 35l-151 47l-156 47q-74 29 -117 41t-120 41q-49 18 -101 51q-43 27 -55 66z" />
<glyph unicode="=" horiz-adv-x="1759" d="M434 539q2 18 25 34q20 14 53 25q53 16 68 18q49 8 71 13q53 8 164 16q55 4 164 4h84q27 0 84 -4q29 -2 88 -2q16 0 45 -1t43 -1h98q16 2 47 2q33 0 52 2q12 0 41.5 -1t46.5 -1q51 0 96 -6q55 -8 88 -14q43 -10 68 -23q29 -16 36 -35q10 -23 -8 -49q-12 -18 -53 -43 q-23 -14 -80 -35q-29 -10 -94 -22q-55 -10 -96 -10q-154 -6 -455 -7q-252 0 -451 9q-53 4 -92 14q-51 14 -71 27q-31 18 -47 40q-19 25 -15 50zM553 807q-8 25 6 47q10 18 41 35q23 12 62 26q23 8 71 21q25 6 74 14q68 14 156 21q100 8 155 10h80q55 0 80 -2q106 -4 162 -4 h51q8 0 24.5 -1t24.5 -1q18 2 55 2q35 0 52 -2q41 0 135 -8q63 -6 125 -23q53 -14 90 -45q33 -27 26 -63q4 -27 -22 -46q-35 -27 -64 -34q-41 -12 -88 -19q-55 -6 -92 -4h-1028q-43 0 -84 10q-39 10 -61 27q-25 19 -31 39z" />
<glyph unicode="&#x3e;" horiz-adv-x="1435" d="M438 397q6 23 29 45q14 14 70 33l301 98l303 101l-248 78l-250 75q-20 4 -41 21q-16 12 -18 24q-4 20 -2 31q4 18 10 29q10 23 29 39q23 20 53.5 34.5t71 24.5t79.5 12q76 -4 127 -14q109 -23 115 -24q18 -4 54 -14.5t55 -14.5l108 -31l234 -78q135 -47 217 -86 q16 -10 34.5 -20t32.5 -21q15 -12 25 -24t6 -29q-20 -33 -53 -53q-35 -23 -82 -45q-49 -23 -101 -41q-53 -18 -100 -37q-31 -10 -199 -61l-202 -64q-10 -2 -52.5 -14.5t-64.5 -20.5q-78 -25 -121 -35q-58 -15 -117 -24q-68 -10 -120 -8q-86 6 -134 39q-49 34 -49 75z" />
<glyph unicode="?" horiz-adv-x="1882" d="M530 985q-10 25 2 45q23 49 68 86q47 39 115 74q66 35 143 61q59 20 162 47q170 47 348 68q188 23 354 16q66 0 133 -6q84 -8 131.5 -14t118.5 -27q47 -12 103 -39q90 -45 121 -110q33 -68 10 -135q-31 -51 -88 -95q-53 -41 -133 -77q-82 -39 -164 -68q-70 -25 -185 -57 l-188 -52q-12 -2 -180 -51q41 -2 117 -2q18 0 57 -1t59 -1l109 -8q70 -4 106 -8q2 -8 6.5 -18.5l8.5 -20.5q6 -18 0 -39q-10 -23 -29 -39q-29 -25 -47 -35q-43 -25 -62 -30l-36.5 -12.5t-32.5 -10.5q-53 -4 -78 -4q-49 0 -73.5 -2t-75.5 -2h-72q-123 -2 -256 10 q-117 12 -238 35q-66 16 -98 26q-37 12 -84 39q-35 20 -53 47q-16 27 -2 60q12 33 47 57q45 33 80 49q51 25 102 41q37 12 107 33l276 72q143 39 279 67l46.5 11.5t43.5 11.5q53 14 88 27q61 23 78 30q35 18 53 43q0 27 -33 39t-72 19q-57 8 -92 8q-37 0 -90 4 q-100 4 -192 -8q-113 -14 -193 -35q-47 -16 -104 -53l-88 -58q-53 -37 -109 -55q-68 -22 -141 -25q-53 0 -86 9q-35 8 -64 26q-23 14 -33 37zM547 170q6 37 47 70q47 37 104 57q68 23 136 35q78 12 145 10q45 2 100 -4q66 -8 95 -14q33 -6 79 -27q35 -14 58 -37 q25 -25 28 -43q6 -25 -10 -53q-12 -33 -47 -68q-29 -29 -86 -59q-51 -27 -119 -43q-72 -16 -139 -14q-92 4 -158 14q-80 14 -131 35q-59 25 -88 61q-26 37 -14 80z" />
<glyph unicode="@" horiz-adv-x="2816" d="M399 524.5q2 59.5 25 124.5q25 76 78 150q51 74 131 143q76 68 184 131q111 66 234 115q119 49 270 90q139 39 293 63q160 27 305 35q178 10 301 8q119 0 229 -12q133 -14 213 -35q94 -25 183 -59q76 -31 141 -80q61 -41 104 -94q41 -49 59.5 -106.5t16.5 -112.5 q-4 -66 -22 -117q-18 -57 -45 -100q-33 -53 -76 -99q-45 -49 -107 -94q-49 -37 -143 -84q-76 -43 -170 -74q-98 -33 -195 -53q-90 -18 -206 -33q-104 -12 -207 -12q-137 -2 -336 17q-150 14 -311 47q-45 10 -136 34q-74 20 -120 45q-55 29 -82 62q-31 37 -19 80q10 39 43 71 q31 31 86 64q43 25 117 53q43 16 133 41q141 35 299 51q154 14 303 13q-6 31 -39 57q-35 29 -94 37l-98 12q-66 8 -101 10q-29 8 -41 15q-12 8 -20 22q-6 12 -6 27q0 16 4 27q8 27 43 51q37 27 78 43q43 18 98 26q49 8 109 9q104 0 153 -7q76 -10 140 -24q55 -14 114 -41 q53 -25 84 -60q35 -33 53 -67q16 -33 23 -72q6 -37 0 -78t-21 -77q-20 -53 -69 -127q-37 -57 -119 -121q101 12 172 43q72 31 121 73q53 45 78 89q29 49 41 90q43 78 22 153q-22 77 -98 135q-74 55 -205 91q-125 33 -297 26q-96 0 -194 -6q-131 -8 -197 -16 q-106 -12 -193 -33q-80 -18 -178 -53q-100 -43 -176 -90q-74 -45 -127 -97q-55 -53 -84 -100q-29 -51 -49 -102q-35 -59 -35 -117t31 -111q35 -59 88 -98q57 -43 145 -74q92 -33 193 -47q102 -14 235 -8q43 4 76 -2q31 -4 62 -21q23 -12 32 -30q8 -18 -6 -39 q-10 -29 -41 -52q-34 -25 -80 -43q-53 -20 -98 -28q-61 -10 -108 -10q-133 0 -246 14q-127 16 -223 39q-100 23 -191 65q-86 41 -149 88q-63 45 -106.5 100.5t-61.5 114.5q-19 62 -17 121.5zM1413 526q8 -12 27 -20q25 -12 39 -17q29 -8 45 -12q14 -4 47 -8q68 -12 100 -16 q74 -8 113 -9q55 20 106 62q41 33 74 72q-16 2 -53 6t-58 6q-74 -4 -114 -4q-43 0 -121 -4q-55 -2 -113 -17q-55 -12 -92 -39z" />
<glyph unicode="A" horiz-adv-x="2203" d="M258 213q18 63 68 121q57 68 110 119q23 23 139 125l138 124q96 117 176 203l180 199q20 18 47 39.5t55 46.5q59 53 117 88q61 39 144 70q84 33 184 41q82 0 170 -21q78 -18 139 -47q65 -28 105 -68q37 -37 63 -84q16 -37 27 -84q14 -61 20 -81q37 -163 68 -326 q33 -178 53 -330q10 -31 10 -57q0 -33 6 -60l2 -23q0 -17 -4 -34q-6 -33 -22 -59l-2 -6q-10 -16 -33 -37q-20 -18 -53 -31q-37 -14 -68 -23q-37 -10 -76 -12q-23 -2 -65 -2q-25 0 -66 4q-20 2 -57 10q-18 4 -47 21q-16 16 -23 31q-8 18 -10 32q-6 31 -6 33q0 23 -2 35 q0 23 -4 63q-4 45 -8 64q-39 8 -66 10q-32 3 -48 3q-11 0 -22 -1q-96 0 -188 -6q-123 -8 -186 -14q-55 -8 -90 -10l-93 -13q-31 -4 -88 -16q-53 -12 -82 -23q-39 -18 -57 -41q-14 -18 -31 -45l-28 -51q-20 -33 -41 -49q-12 -8 -41 -21q-22 -9 -49 -12q-2 0 -22.5 -3 t-31.5 -3q-6 0 -18.5 -0.5t-18.5 -0.5q-10 0 -18 1q-70 6 -121 29q-45 20 -84 51q-31 31 -43 63q-10 27 -10 50q0 9 2 18zM1169 586l2 4q33 -2 105 -2q70 0 104 -2h60q35 0 55.5 2t56.5 10q31 6 47 16q18 10 23 27q9 36 9 74q0 11 -1 22q-2 41 -16 92q-12 46 -31 93 q-4 10 -31 90q-55 -33 -127 -92q-37 -31 -106 -97q-39 -41 -84 -100q-39 -51 -57 -102l-7 -19z" />
<glyph unicode="B" horiz-adv-x="2230" d="M375 285q0 49 18 127q18 59 45 114q23 47 62 115q10 14 75 119q31 51 64 121q16 37 23 69q8 49 16 70q8 23 20 67q10 39 29 68q16 29 59 59q40 28 93 50q45 18 112 39q63 18 119 30q145 29 256 39q115 10 258 14q17 0 36 1q96 0 228 -13q117 -10 236 -45q41 -10 100 -33 q45 -18 82 -45q34 -25 49 -55q10 -19 10 -39q0 -12 -4 -24q-16 -63 -69 -117q-59 -59 -142 -107q106 -25 177 -69q74 -47 114 -99q39 -49 53 -108q4 -19 5 -39q0 -38 -15 -80q-16 -39 -57 -80q-39 -39 -96 -74q-61 -37 -123 -65q-55 -25 -142 -57q-72 -27 -151 -50 q-90 -25 -156 -41q-172 -43 -268 -61q-170 -31 -277 -47q-96 -14 -256 -33q-85 -10 -174 -10q-39 0 -79 2q-76 4 -117 16q-49 14 -84 39q-35 23 -62 53q-23 25 -39 56q-28 57 -28 123zM965 332q20 -16 39 -21q25 -6 63 -6q129 0 246 20.5t233 59.5q61 16 105 35q61 27 96 45 q47 27 74 51q29 25 45 59q3 9 3 19q0 21 -14 41q-18 27 -53 47l-6 6q-166 0 -276 -12q-138 -15 -271 -55q-68 -18 -114 -43q-49 -25 -88 -58q-43 -35 -62 -61q-25 -33 -33 -66q-7 -12 -7 -25q1 -21 20 -36zM1178 872q162 20 317 66q12 4 31.5 9t40.5 11q41 14 69 27 q39 18 60 33q25 18 33 37q2 7 1 12q0 12 -10 20q-23 16 -45 23q-35 8 -65 10q-11 1 -24 1q-8 0 -23 -0.5t-23 -0.5q-57 0 -88 -2q-33 -2 -90 -14q-39 -8 -76 -29q-33 -18 -45 -41q-20 -37 -29 -55l-22 -53q-2 -6 -8 -27q-2 -4 -2 -13.5t-2 -13.5z" />
<glyph unicode="C" horiz-adv-x="2111" d="M383 522v15q0 55 20 110q22 61 62 123q39 61 96 121q51 55 127 117q63 53 156 110q70 47 172 101q92 47 205 86q125 43 229 61q116 21 224 21q13 0 26 -1q92 0 172 -12q82 -12 151 -31q74 -18 131 -45q63 -29 113 -57q55 -35 92 -65q35 -29 66 -74q29 -41 37 -80 q5 -25 5 -45t-5 -39q-3 -28 -31 -49q-29 -23 -70 -37q-49 -16 -90 -23q-34 -4 -61 -4l-37 2q-39 0 -76 7q-29 4 -67 16q-35 10 -52 22q-25 18 -34 33q-18 43 -37 68q-14 20 -35 65q-23 31 -49.5 49.5t-89.5 22.5q-92 0 -160 -16q-72 -16 -141 -47q-66 -29 -119 -66 q-61 -43 -90 -70q-90 -70 -156 -157.5t-90 -163.5q-12 -39 -13 -75q0 -21 5 -40q12 -55 65 -100q25 -27 60 -45q45 -23 84 -33q59 -16 100 -21q55 -6 115 -6q98 0 200 23q100 23 189 51q14 6 55 21.5t64 23.5q41 14 131 31q8 1 15 0q36 0 67 -12q37 -14 45 -35 q20 -18 20 -41q0 -27 -10 -45q-16 -35 -45 -60q-35 -31 -70 -55q-39 -27 -90 -49l-102 -43q-106 -41 -224 -68q-111 -25 -241 -28q-42 -2 -81 -2q-90 0 -167 10q-119 16 -219 43q-94 27 -185 67q-78 37 -147 86q-68 51 -113 103q-51 59 -73 110q-27 62 -29 121z" />
<glyph unicode="D" horiz-adv-x="2187" d="M352 229l17 47q6 27 18 48q10 23 27 47q10 16 22 49q16 37 23 55q4 8 8 26.5t8 28.5q20 57 29 86l28 84q6 14 14.5 39t18.5 49q8 23 16.5 43.5l18.5 42.5q51 96 59 115q43 88 60 119q33 55 80 113q43 53 116 106q84 14 175 25q57 6 172 14q68 6 198 14q68 4 199 9 q32 1 63 1q112 0 224 -16q132 -18 239 -55q106 -37 188.5 -90t127.5 -117q47 -68 59 -133q3 -18 3 -37q0 -50 -23 -106q-23 -82 -80 -158q-59 -78 -145.5 -151.5t-196.5 -141.5q-115 -70 -236 -129q-102 -53 -258 -113q-127 -47 -291 -88q-135 -33 -309 -53 q-88 -10 -185 -10q-61 0 -130 4q-96 4 -160 22q-68 20 -117 53t-70 72q-14 27 -14 56q0 15 4 30zM987 393q0 -41 4 -61q111 10 182.5 28.5t163.5 53.5q98 39 152 65q113 57 135 72l127 78q59 39 115 84q43 37 90 86q37 39 57 92q2 10 10 41q4 14 9 43q1 6 0 11q0 13 -4 30 q-6 20 -25 37q-25 18 -57 26q-29 8 -72 15q-29 4 -82 8q-29 2 -84 2h-100q-68 0 -101 -2q-70 -4 -98 -4q-16 0 -49 -1t-49 -1q-25 -8 -35 -15q-8 -6 -23 -20q-10 -10 -16 -23l-12 -18q-16 -33 -22.5 -49.5t-22.5 -48.5q-57 -106 -82 -170q-45 -115 -64 -172q-6 -14 -12 -31 t-10 -31l-17 -63q-8 -42 -8 -62z" />
<glyph unicode="E" horiz-adv-x="2105" d="M385 262q0 41 6 84q4 23 17 84q4 20 22 84l53 139q18 51 56 138q41 94 65 139q41 76 86 137q43 59 115 131q59 59 151 125q152 27 283 35q193 12 289 14q145 8 319 8q158 0 312 -6q53 0 118 -14q49 -10 90 -35q31 -18 50 -51q8 -14 7.5 -29.5t-7.5 -32.5q-4 -25 -15 -41 q-10 -14 -43 -36q-10 -10 -26 -17q-10 -4 -35 -12q-14 -4 -39 -8q-14 -2 -41 -2q-227 10 -451 12q-62 1 -132 1q-107 0 -324 -3q-33 -33 -60 -66q-29 -37 -41 -67q-3 -3 0 -6q4 -4 0 -9q35 0 109 4.5t108 4.5l218 6q8 0 90 3t123 3q23 0 70 0.5t71 0.5q40 0 72 -1q11 1 22 0 q50 0 105 -10q63 -12 100 -33q43 -23 57 -51q7 -15 8 -30q0 -17 -10 -36q-10 -31 -47 -53q-41 -25 -88 -35q-68 -16 -111 -20l-110 -11q-100 -6 -316 -14q-213 -8 -315 -16q-72 -6 -139 -25q-74 -20 -125 -43q-57 -25 -94 -59.5t-43 -69.5q-8 -20 -13 -45q-2 -14 2 -43 q4 -25 9 -41q2 -8 7 -22.5l7 -20.5q150 10 278 39l271 63q92 25 284 62q137 27 293 33q22 1 37 1q38 0 62 -7q45 -14 61 -31q20 -20 24.5 -47t-14.5 -49q-25 -37 -45 -56q-35 -31 -71 -49q-78 -35 -158 -59q-92 -27 -174 -47q-119 -29 -180 -41l-181 -37q-88 -14 -178 -31 l-180 -29q-86 -12 -182 -18q-88 -6 -181 -6l-69 6l-68 12q-41 8 -61 15q-25 8 -47 24q-25 12 -41 29q-14 14 -26.5 32.5t-20.5 34.5q-8 18 -17 35q-8 35 -8 82z" />
<glyph unicode="F" horiz-adv-x="1818" d="M403 201q0 51 2.5 75.5t2.5 73.5l24 160q12 78 41 162q94 256 330 510q39 39 106.5 77.5t151.5 59.5l201 24q63 8 202 17q94 10 217 14l108.5 4t108.5 2q86 -4 152 -14q82 -14 129 -35q57 -27 84 -57q17 -21 17 -45q0 -15 -7 -31q-2 -20 -26.5 -38.5t-59.5 -31.5 q-29 -10 -76 -20q-59 -12 -77 -14q-82 -10 -185 -15q-87 -3 -128 -3q-28 0 -52 1q-45 2 -133 2t-131 2h-29q-18 0 -28 -2q-25 -16 -45.5 -36.5t-30.5 -38.5q-12 -20 -21 -41q-6 -12 -18 -43l-8 -23l174 6q29 0 87 3t89 5l170 7q81 3 121 2h49q78 0 115 -7q59 -10 100 -24 q43 -15 74 -37q31 -23 41 -51q2 -4 3 -9.5t3 -9.5q2 -8 0 -18q-8 -23 -39 -43q-27 -18 -66 -33q-43 -16 -84 -24q-27 -4 -90 -15q-129 -23 -254 -31q-84 -6 -256 -14q-72 -6 -215 -14q-113 -6 -213 -27q-10 -33 -16 -57q-10 -45 -17 -60l-18 -79q-4 -20 -10 -40l-12 -40 q-16 -45 -43 -94q-29 -53 -72 -95q-10 -12 -43 -37q-27 -20 -60 -34q-34 -15 -73 -25q-23 -5 -51 -5q-14 0 -31 1q-53 4 -96 18q-39 14 -62 39q-14 29 -22 72q-5 25 -5 74z" />
<glyph unicode="G" horiz-adv-x="2293" d="M414 598q4 66 26 127q23 59 64 113q57 74 98 112q43 41 129 105q41 31 156 98q84 51 172 90q74 33 198 74q98 33 218 51q127 20 231 21q201 0 367 -33q182 -35 315 -84l59 -27q33 -12 57.5 -28.5t41 -35t12.5 -40.5q-8 -18 -32.5 -32.5l-51.5 -29.5q-8 -4 -64 -24 q-31 -10 -71 -15q-82 4 -133 17l-121 28l-55.5 12.5t-57.5 14.5q-61 14 -121 16q-20 1 -40 1q-61 0 -123 -7q-76 -8 -160 -28q-88 -20 -150 -45q-59 -23 -125 -64q-119 -70 -188 -147q-68 -76 -96 -164q-12 -35 -19 -70q-6 -37 -6 -72q0 -31 10 -67q8 -31 35 -64 q20 -35 53 -59q41 -31 88 -47q68 -25 115 -31q61 -9 111 -9q13 0 24 1q59 0 107 8q74 12 104 23q41 12 92 35q31 14 78 43q76 49 115 96q47 57 63 104q10 20 11 33q0 20 2 33q-51 -4 -137 -16.5t-138 -16.5q-94 -12 -139 -16t-137 -4q-63 0 -109 14q-51 16 -73 39 q-23 18 -31 51q-6 27 4 57l16 29q8 12 33 27q53 20 119 32q113 23 127 25l129 18q20 2 62 7.5t65 9.5l262 33q132 15 264 18q109 0 176.5 -24.5t100 -67.5t32.5 -90t-22 -97q-6 -25 -23 -51l-28 -49q-57 -104 -174 -199q-131 -106 -277 -182q-76 -39 -164 -76 q-84 -35 -186 -63q-100 -29 -201 -43q-111 -16 -209 -16q-13 0 -26 -1q-110 0 -217 21q-104 20 -199 59q-92 37 -158 86q-68 49 -114 103q-59 55 -93 108q-43 68 -57 117q-17 56 -17 109q1 8 1 16z" />
<glyph unicode="H" horiz-adv-x="2148" d="M373 207q4 49 8 74q8 45 16 71q14 57 45 146q23 63 56 143l22 53.5l18.5 45t24.5 53.5q41 88 64 149q18 33 26 57l21 56l24 55l25 55q33 49 41 60q16 20 57 57q29 27 76 51q45 25 113 31q23 2 44.5 2t43.5 -2q41 -2 78 -12q33 -8 65 -27q29 -14 45 -33q41 -37 55 -86 q4 -15 5 -31q0 -32 -17 -65q-16 -41 -39 -74l-49 -73l-51 -76q-25 -33 -39 -76q197 0 293 2q40 1 85 1q69 0 208 -3q4 6 8 18q0 2 4 8.5t4 10.5q14 41 21 92l16 90q8 61 14 90q12 57 22.5 88t26.5 56q20 31 50 53q27 27 71 41q47 15 92 15q7 0 15 -1q74 -6 117 -22 q53 -20 83.5 -45t53.5 -58q22 -31 37 -61q23 -70 28 -131l2 -28q0 -54 -18 -109q-6 -29 -19 -54q-4 -8 -11 -27.5t-11 -27.5l-41 -113l-31 -118q-16 -66 -22 -119q-10 -72 -21 -113q-8 -33 -41 -113l-43 -61q-23 -29 -61 -57q-41 -33 -82 -56q-51 -27 -113 -32 q-22 -3 -46 -4q-15 0 -32 2q-35 2 -65 12q-29 8 -53 22q-23 12 -35 31q-12 12 -25 37q-10 18 -12 39q-4 29 -4 41v41q6 27 16 63q6 20 10 64q7 28 7 57q0 38 -11 76h-90q-14 0 -44.5 1t-47.5 1q-63 -6 -125 -6q-18 0 -39.5 -1t-47 -3t-40.5 -2q-18 0 -51 -1t-49 -1 q-33 0 -103 -4q-4 -94 -8 -142q-6 -76 -26 -141q-18 -49 -31 -70q-27 -43 -59 -67q-6 -8 -35 -29q-14 -10 -47 -27q-16 -8 -58 -16q-17 -3 -36 -3q-12 0 -27 1q-84 6 -131 25q-63 23 -94 49q-72 57 -76 135z" />
<glyph unicode="I" horiz-adv-x="2054" d="M414 135q0 18 2 29q4 16 22 29q8 6 43 18q25 8 58 12l57 6q86 0 129 2l133 7q2 2 4 5t2 5q2 6 0 10l70 168q41 100 76 170l80 174q43 90 73 174l25 74q9 35 9 61q0 7 -1 13l-33 -5q-10 -2 -35 -2l-34 -4l-35 -2h-15h-141q-57 0 -133 15q-31 3 -55 12q-33 12 -41 18 q-18 14 -22.5 26.5t5.5 33.5q39 37 95 59q47 20 125 41q68 18 141.5 30.5l138.5 24.5q164 23 303 35q132 11 252 11q26 0 51 -1q72 0 154 -10q139 -18 145 -18q16 -2 66 -17q39 -10 61 -20q33 -14 47 -25q23 -16 31 -32q-25 -41 -69 -68q-51 -33 -121 -47q-53 -6 -160 -14 q-53 -4 -160 -17q-14 -27 -28.5 -65.5t-28.5 -65.5l-33 -70q-10 -23 -22 -67q-25 -70 -29 -82l-25 -82q-16 -53 -26 -80l-29 -80q-9 -37 -25 -73q-16 -41 -28 -76q-12 -37 -19 -74q-3 -17 -3 -33q0 -21 5 -39l31 -2l31 2h57h60q37 4 59 4q39 0 57 3q18 1 38 0q30 0 87 -3 q57 -2 115 -16q29 -16 41 -31q10 -12 14 -32q4 -18 -2 -33q-8 -20 -14 -31q-16 -27 -51 -49q-39 -27 -97 -29q-272 -25 -530 -30q-92 -2 -187 -3q-161 0 -339 7q-47 2 -131 10q-72 6 -121 20q-55 15 -99 37q-37 18 -59 56q-12 12 -12 26z" />
<glyph unicode="J" horiz-adv-x="2078" d="M341 657q0 10 5 23q2 20 27 39q18 14 59 29q23 8 76 16q32 5 58 5l22 -1q68 0 110 -8q45 -8 86 -29q45 -23 64 -41q27 -27 39 -51q29 -82 47 -121q35 -76 51 -119q9 -22 25 -43q16 -23 40.5 -41t61.5 -30q43 -14 86 -15q45 6 74 21q27 12 49 33q18 16 35 38q10 14 30 39 q43 70 64 119q29 70 41 105q35 104 41 125q16 57 30.5 124.5t16.5 124.5q1 10 1 22q0 48 -11 101l-8 8q-6 6 -13 9q-96 0 -141 2q-47 2 -133 14q-63 12 -88 43q-14 18 -14 36q0 14 8 28q10 29 34 47q31 25 68 41q35 16 90 26t98 10q91 1 172 2q127 0 238 -4q225 -6 401 -20 q92 -12 146 -45q59 -37 80 -78q8 -14 8 -31q0 -3 0.5 -10t0.5 -11q0 -6 -1 -11q-10 -23 -41 -35q-25 -10 -68 -17q-27 -4 -79 -4q-14 0 -38 -1t-34 -1h-41q-29 0 -43 -2q-25 -4 -39 -8q-18 -6 -25 -18q-2 -4 -2 -23q0 -14 -2 -22q0 -15 1 -31q0 -106 -19 -213 q-20 -115 -76 -246q-16 -43 -55 -123q-33 -70 -72 -125q-45 -63 -102 -119q-61 -58 -148 -110q-57 -31 -100 -45q-57 -18 -115 -31q-61 -12 -122.5 -18t-123.5 -6q-117 0 -204 20q-94 23 -164 55.5t-127 77.5q-74 57 -101 84q-90 94 -145 194.5t-82 206.5q-7 35 -7 39z" />
<glyph unicode="K" horiz-adv-x="2066" d="M385 170q4 31 16 76q0 4 7.5 32.5l11.5 43.5q8 23 12 51q0 4 12 51q12 39 15 51q4 29 14 53q12 33 16 50q6 20 21 51q10 27 22 53l25 51q20 45 30.5 90t28.5 92q4 10 13.5 41t15.5 48q16 47 37 90q27 43 45 75q20 37 57 78q35 39 88.5 70t137.5 47q43 3 65 3l27 -1 q51 -4 84 -14q39 -12 59 -29q23 -18 27 -43q0 -47 -10 -102l-17 -101l219 94l222 95l59 18t53 16q43 14 119 29q41 8 123 17q31 3 61 3l62 -3q53 0 94 -13q45 -14 67 -30q27 -20 35 -43q5 -12 5 -24.5t-5 -25.5q-6 -25 -26 -45q-29 -29 -49 -41q-31 -18 -68 -37 q-25 -12 -74 -32l-190 -62l-191 -63l-69 -25l-68 -26q-37 -16 -59 -31q-25 -15 -37 -37q0 -29 14 -55q14 -25 37 -51q22 -25 49 -50q37 -33 51 -47q47 -41 156 -127q55 -43 154 -129l47 -51q23 -25 39 -55q18 -33 20 -60q4 -35 -10 -61q-9 -18 -31 -37q-14 -12 -47 -31 q-27 -14 -63.5 -24t-73.5 -10q-25 -3 -55 -4q-18 0 -37 1q-43 3 -80 13q-45 12 -68 22q-37 18 -51 31l-82 80l-80 78l-180 159l-182 158q-10 -29 -23 -86q-6 -29 -22 -86l-12.5 -42.5t-10.5 -45.5l-24 -84q-16 -41 -41 -76q-31 -43 -74 -73q-57 -29 -86 -37q-43 -12 -86 -19 q-57 -8 -84 -8q-55 0 -82 2q-51 10 -74 27q-20 14 -35 41q-14 25 -14 47q0 8 -1 25.5t-1 23.5z" />
<glyph unicode="L" horiz-adv-x="2023" d="M408 336q0 8 -1 16q0 65 21 142q2 23 16 49q10 20 15 51q29 92 73 186q47 100 99 187q29 49 78 112q45 59 100 111l51 51q37 37 60 53q27 20 77 45q37 18 103 29q26 3 46 3q27 0 48 -5q47 -10 66 -25q27 -20 35 -40.5t-3 -47.5q-20 -76 -39 -125q-8 -23 -25.5 -65.5 t-23.5 -58.5q-29 -74 -47 -111t-47 -111q-16 -37 -45 -110q-14 -37 -39 -111q-12 -49 -20 -76q-10 -35 -15 -75q-1 -9 -1 -19q0 -28 7 -55q10 -39 41 -68q113 6 232 19l233 24l221 25q72 8 220 16q74 0 124 -14q66 -18 99 -35q31 -14 39 -18q12 -8 28 -25q13 -13 13 -36 q0 -12 -6 -23q-8 -16 -33 -29q-16 -8 -54 -20q-80 -25 -155 -43q-78 -18 -164 -31l-164 -25l-166 -24q-150 -18 -331 -33q-118 -9 -251 -9q-38 0 -77 1q-88 4 -148 20q-70 20 -114 45q-47 27 -82 62q-31 31 -51 71q-39 70 -43 150z" />
<glyph unicode="M" horiz-adv-x="2961" d="M416 256q0 104 20 201q16 82 62 202q31 92 80 185q47 90 112 182q33 43 84 98q55 59 103 97l61 45q16 12 68 43q33 20 81 37q39 14 99 20q21 2 41 2q51 0 100 -10q55 -10 105 -39q39 -23 69 -59q27 -33 39 -66l31 -158q16 -84 37 -155q4 -23 14 -39q16 -25 23 -37 l233 170l238 170q14 8 114 72q70 43 119 69q72 37 137 60q70 23 160 32q115 -6 186 -26q80 -23 129.5 -60t75.5 -82q29 -47 37 -94q6 -33 6 -64q0 -18 -2 -36q-6 -57 -20 -98q-8 -37 -21 -64q-4 -8 -12 -25.5l-16 -35.5q-6 -12 -16.5 -36t-14.5 -30q-6 -12 -14.5 -35.5 t-10.5 -27.5q-14 -33 -20 -74q-8 -49 -8 -76q0 -47 2 -72l4 -73q4 -45 4 -136q0 -78 -17 -137q-20 -20 -53 -37q-27 -14 -69 -26q-27 -8 -84 -17q-59 -8 -84 -10q-35 -2 -105 -2q-57 0 -100 8q-29 12 -35 19q-8 8 -21 24q-6 8 -14 25q-2 4 -5 13t-5 13q-23 76 -29 144 q-2 27 -2 56q0 40 4 91q6 63 23 150q12 57 39 151q10 29 22 82q4 18 9.5 38t9.5 42q-160 -106 -316 -242q-137 -119 -256 -253q-35 -31 -65 -66q-14 -16 -22.5 -24.5t-18.5 -19.5t-23 -24q-20 -16 -37 -28q-33 -25 -43 -29q-12 -6 -55 -20q-31 -10 -61 -11q-26 -1 -45 -1 q-40 0 -72 5q-55 9 -98 25q-37 12 -74 39q-31 23 -47 47q-27 43 -43 94q-10 33 -23 99l-12 100q-8 66 -14 100l-4 -12q-10 -20 -19 -45q-6 -22 -18 -43l-15 -43l-12 -43q-6 -12 -20 -57q-6 -18 -11 -58q-4 -33 -2 -49q2 -23 0 -47q3 -25 0 -49q-4 -33 -8 -49q-4 -31 -20 -56 q-20 -31 -52 -53q-33 -25 -84 -37q-39 -10 -81 -10q-17 0 -33 2q-33 2 -84 10q-40 6 -74 19q-41 14 -59 26q-25 16 -41 35q-29 41 -39 78q-6 21 -7 45q1 21 5 41z" />
<glyph unicode="N" horiz-adv-x="2238" d="M395 229q-1 22 -1 41q0 30 3 58q6 53 19 100q18 76 26 100l25 70q18 51 29 70q33 92 96 194q57 94 133 195l70 82q45 57 71 86q39 41 90 78q49 35 129 63q88 -6 146 -27q74 -27 106 -49q53 -37 76 -65q41 -49 57 -76q2 -4 20.5 -31.5t27.5 -44.5q18 -35 47 -74l55 -110 l55 -111q25 -49 66 -110q31 -47 82 -105q6 10 14 31q2 4 5 14t5 15q29 86 37 129q18 92 23 127q10 49 20 127q8 61 31 127q20 49 35 73q27 43 63 74q8 10 37 31q27 18 53 26l64 15q27 5 49 5l18 -1q89 -6 148 -31q55 -25 86 -59q29 -35 35 -80q2 -11 1 -23q0 -27 -10 -59 l-24 -100l-31 -99l-31 -96l-32 -98q-8 -25 -24.5 -69t-18.5 -52q-33 -94 -41 -121q-20 -63 -39 -115q-10 -31 -51 -114q-18 -33 -52 -70q-25 -27 -75 -64q-43 -29 -106.5 -57.5t-135.5 -34.5q-71 0 -129 13q-70 14 -105 28q-53 23 -86 43q-25 16 -69 54q-34 28 -62 55 q-18 18 -55 51l-151 205l-152 203q-25 -25 -43 -58q-18 -35 -27 -57l-26 -94q-16 -61 -23 -92q-6 -35 -18 -89q-6 -29 -23 -90q-10 -27 -24 -59q-12 -35 -39 -61q-29 -29 -72 -48q-47 -20 -117 -20q-59 4 -98 14q-53 14 -78 29q-2 2 -39 45q-18 20 -24 47q-17 43 -21 96z " />
<glyph unicode="O" horiz-adv-x="2129" d="M426 487q-2 20 -2 40q0 101 41 202q45 117 137 225q92 106 252 209q82 53 170 92q68 31 205 70q115 33 223 47q112 15 201 15q15 0 30 -1q19 1 38 1q93 0 177 -13q101 -15 185 -43q94 -31 149 -65q74 -45 107 -86q37 -41 65 -97q23 -45 33 -102q5 -28 5 -59q0 -24 -3 -48 q-6 -45 -22 -106q-16 -47 -58 -127q-33 -63 -84 -127q-51 -66 -110 -121q-63 -59 -144 -119q-82 -61 -168 -108q-98 -55 -206 -96q-100 -39 -236 -66q-117 -23 -231 -23q-13 0 -27 1q-133 0 -233 20q-98 20 -185 64q-80 41 -137 88q-49 41 -90 104q-72 106 -82 229zM967 459 q2 -14 10 -58q6 -27 27 -55q16 -23 53 -39q33 -14 94 -18q86 0 164 22q74 22 135 56q59 33 106 73q41 35 78 76q84 86 131 170q55 98 80 172q6 16 15 53q6 27 6 60q0 25 -11 55q-8 27 -34 49q-27 25 -66 35t-106 14q-119 -4 -195 -22q-80 -20 -151 -58q-61 -33 -113 -79 q-53 -51 -84 -95q-41 -61 -57 -96q-4 -8 -18.5 -40t-20.5 -48q-20 -55 -33 -115q-11 -51 -11 -93q0 -10 1 -19z" />
<glyph unicode="P" horiz-adv-x="1865" d="M391 106q-1 12 -1 23q0 17 3 31q16 31 33 76q14 37 37 75q43 80 61 131q16 43 45 129q15 37 25 74q12 49 16 74l13 74q8 43 14 71q6 45 22 140q12 66 46 139l6 8q10 47 55 90q43 41 119 72q74 31 162 49q80 16 182 16l182 6q119 4 182 5q59 0 170 -9q78 -6 158 -22 q76 -16 139 -37q55 -18 115 -55q100 -55 145 -140q24 -45 25 -95q0 -35 -12 -73q-10 -51 -49 -96t-100.5 -88t-141.5 -80q-92 -43 -164 -65q-184 -61 -399 -101q-209 -37 -422 -55q-8 -14 -20.5 -47t-18.5 -70l-12 -69q-2 -16 -5.5 -35t-5.5 -35q-4 -41 -14 -70 q-4 -37 -45 -69q-39 -29 -100 -51q-66 -23 -134 -29q-32 -3 -59 -3q-44 0 -80 7q-55 3 -92 18q-41 16 -57 37q-21 22 -23 49zM1139 885q0 -59 10 -103q102 6 205 25q92 16 196 47l86 25q49 16 82 32q45 20 66 37q25 20 39 47q4 10 3 21q0 13 -5 28q-10 27 -25 48q-2 4 -8 10 t-8 10q-8 10 -25 21q-18 10 -35 16q-12 4 -45 4q-46 3 -72 3q-17 0 -32 -1q-55 -3 -111 -12q-70 -12 -106 -23q-57 -16 -92 -32.5t-68 -45.5q-25 -23 -35 -55q-20 -49 -20 -102z" />
<glyph unicode="Q" horiz-adv-x="2050" d="M393 422q-6 35 -6 70q0 71 25 143q49 127 135 239q94 123 229 230q45 37 154 102q82 49 192 92q98 37 221 64q117 25 244 24q15 0 29 1q99 0 182 -19q94 -20 164 -57q68 -35 117 -84t69 -97q31 -55 41 -106q14 -66 15 -109q0 -61 -9 -110q-8 -53 -28 -113 q-14 -37 -45 -100q-18 -41 -66 -103q-35 -45 -90 -98q-52 -49 -123 -92q31 -31 68 -61l69 -64q25 -20 33 -29q15 -15 25 -30q10 -16 10 -35q0 -20 -8 -37q-10 -16 -39 -39q-27 -20 -59 -35q-31 -14 -76 -24q-53 -12 -82 -15q-14 -2 -43 -2q-8 0 -22.5 -1t-22.5 -1 q-41 49 -88 84q-37 29 -113 74q-37 -23 -88 -45q-37 -16 -104 -35q-49 -14 -115 -20q-57 -6 -119 -7q-117 0 -205 21q-98 23 -166 55q-72 35 -125 78q-55 45 -88 90q-74 95 -92 201zM868 369q4 -29 21 -50q23 -27 51 -38q37 -16 92 -23q7 -1 15 -1q12 0 32 3q23 4 41 12 q12 6 33 19q14 8 27 20q-31 31 -62 54l-65 51q-33 27 -47 55q-11 21 -11 39q0 12 4 25q2 20 25 38q20 16 57 31q43 16 74 21q32 5 60 5q11 0 22 -1q94 0 164 -21q68 -20 131 -53q29 43 53 104q29 70 41 105l31 100q14 45 14 99q0 20 -4 61q-4 33 -16 53q-16 27 -45 41 q-31 16 -84 19q-92 -6 -154 -33q-59 -25 -112.5 -66t-86.5 -77q-25 -29 -71 -76q-72 -88 -121 -176q-57 -102 -82 -177q-4 -16 -16 -53q-6 -18 -11 -55q-2 -14 -2 -27.5t2 -27.5z" />
<glyph unicode="R" horiz-adv-x="2344" d="M399 188q23 88 50 148l65 147q53 102 78 154l72 154q12 52 18 98q5 37 5 70q0 13 -1 26q4 53 14 94q16 61 29 95q16 31 45 63q25 29 78 59q43 25 104 45q55 16 129 21q219 14 388 16q258 4 387 4q80 0 137 -8q47 -6 123 -26q39 -10 104 -39q45 -18 84 -49 q72 -55 102 -121q17 -37 18 -79q0 -30 -9 -61q-8 -29 -35 -61q-29 -37 -60 -59q-41 -31 -81.5 -55.5t-94.5 -51.5q-117 -53 -227 -90q-113 -37 -256 -64q109 -43 225 -96q121 -55 211 -104l84 -49l82 -50q39 -25 72 -53q27 -25 47 -61l-6 -45q-2 -18 -21 -43q-6 -14 -24 -35 q-16 -18 -41 -34.5t-58 -24.5q-35 -10 -71 -13q-31 -3 -65 -3q-21 0 -44 1q-51 2 -94 12q-37 8 -82 27q-35 14 -63 37l-109 88l-113 86q-131 74 -241 127q-102 49 -262 117q-6 -8 -25 -41q-14 -25 -16 -41q-14 -47 -19 -66l-9 -30.5t-9 -34.5q-23 -61 -35 -88 q-23 -51 -53 -88q-23 -23 -58 -47q-39 -27 -67 -39q-41 -16 -78 -23q-28 -4 -51 -4q-17 0 -33 2q-76 4 -121 21q-55 20 -78 43q-31 31 -39 59q-6 19 -5 36q-1 13 3 27zM1212 825q88 8 199 29q94 18 193 43l86 25q31 8 84 28q45 16 69 35q35 25 45 45q7 12 7 23q0 19 -15 34 q-12 14 -35 23q-14 6 -55 6t-124 -1t-124 -1q-80 0 -248 -4l-8 -2q4 -4 4 -6t4 -6q-14 -18 -16 -29q-2 -14 -14 -29q-31 -80 -39 -106q-13 -44 -13 -89q-1 -9 0 -18z" />
<glyph unicode="S" horiz-adv-x="2131" d="M381 250q0 8 10 18q6 6 27 15l35 12q25 4 39 4q66 -4 96 -10q35 -6 94 -15q37 -8 92 -14q66 -8 98 -10q49 -2 162 -2q82 0 180 10q119 12 177 23q80 14 159 41q78 27 125 59q52 37 74 86q12 12 18 25q2 4 15 22l-2 16l-15 7l-157 -5l-158 -6q-51 -2 -154 -2q-27 0 -78 -1 t-75 -1q-45 0 -144 4q-74 3 -141 13q-72 10 -131 24.5t-113 36.5q-51 23 -75.5 53.5t-32.5 61.5q-5 18 -5 38q0 16 3 31q6 33 22 70q20 49 62 100q43 51 98 97q72 57 129 90q70 41 158 80q80 37 172 67q100 33 190 53q111 25 201 35q86 10 205 10q137 0 254 -14 q115 -14 227 -47q98 -29 176 -78q72 -45 96 -110q8 -16 9 -23q0 -4 1 -11t1 -11q0 -16 -21 -31q-18 -12 -47 -19q-18 -4 -59 -8q-33 -4 -60 0q-84 8 -133 15q-82 12 -125 22q-61 15 -129 25q-68 8 -137 12q-113 0 -213 -14q-104 -14 -205 -43q-55 -18 -94 -33 q-43 -18 -84 -41q-35 -20 -61 -47q-23 -25 -33 -51q-6 -12 -4 -27q3 -15 18 -25q18 -12 39 -16q27 -6 55 -4q61 0 127 6q20 2 63.5 5t65.5 5l129 13q43 4 127 4q53 0 152 -9q80 -6 141 -20q49 -12 121 -39q53 -20 92 -53q39 -29 60 -62q18 -27 24 -69q3 -18 3 -37t-3 -37 q-4 -20 -20 -72q-27 -57 -78 -104q-57 -51 -131 -92q-80 -45 -168 -80q-106 -43 -188 -66q-106 -33 -201 -53q-106 -23 -207 -37q-121 -16 -213 -22q-59 -3 -124 -4q-41 0 -87 2q-125 6 -252 28q-115 20 -229 54q-12 31 -29 88q-8 29 -8 61q0 17 2 33z" />
<glyph unicode="T" horiz-adv-x="2183" d="M614 1188q-1 5 0 11q0 20 7 36q12 20 41 37q33 18 65 26q47 12 80 17q31 4 80 8l434 20q426 18 432 19q113 6 332 6t328 -2q43 -6 102 -23q41 -10 82 -36q14 -10 31 -21q20 -16 26 -22q10 -10 19 -27q6 -14 4 -27q0 -23 -27 -43q-20 -16 -61 -32q-37 -16 -82 -25 q-29 -6 -86 -10q-98 -8 -133 -10q-86 -4 -123 -5h-113q-18 0 -55 1t-55 1q-96 -219 -197 -421l-219 -420q-25 -43 -58 -82q-29 -35 -75 -78l-43 -35q-25 -18 -54 -33q-39 -18 -65 -26q-37 -10 -78 -10q-11 -1 -23 -1q-45 0 -100 9q-57 8 -100 30q-45 23 -62 48 q-11 16 -10 34q0 14 6 29q20 55 39 94q23 47 53 94q23 43 52 91l53 90l51 92q25 45 45 90q43 121 63.5 207t20.5 178v25q-86 0 -262 -5q-45 -2 -133 -4t-133 -4q-20 2 -35 11q-8 4 -20.5 16t-16.5 18l-12 19q-11 18 -15 45z" />
<glyph unicode="U" horiz-adv-x="2013" d="M449 410q4 49 18 94q37 106 43 121l51 123l57 122l58 123q10 33 16 58q6 31 4 57q8 25 9 55q0 20 16 58q18 31 59 57q23 14 97 45q86 27 120 33q61 12 127 18q59 -12 99 -33q41 -23 59 -45q20 -27 27 -57q6 -35 4 -63q-4 -45 -10 -64l-21 -61q-27 -78 -57 -142 q-23 -47 -64 -141l-63 -143q-47 -109 -60 -144q-2 -12 -10 -41q-8 -27 -10 -45q-2 -14 -2 -45q0 -23 12 -41q14 -23 37 -33q25 -12 70 -18q53 0 96 12q47 14 82 31q31 14 63 41q18 14 45 45q22 25 37 49l10.5 15.5t11.5 17.5t9 16.5l11 24.5l11 25q4 12 10.5 25l12.5 26 l43 100l41 102l37 99q12 33 41 98q10 23 49 96q18 35 59 95q27 35 51 61q31 34 74 61q49 31 101 45q49 13 105 13h24q55 -2 100 -23q61 -27 78 -37q34 -22 55 -43q19 -19 20 -42q0 -5 -2 -11q-2 -2 -16 -22l-22 -23q-20 -10 -39 -29q-14 -12 -35 -28q-18 -28 -31 -56 q-12 -27 -18 -57q-16 -45 -21 -70l-16 -71q-12 -35 -19 -72q-4 -27 -22 -70q-39 -102 -90 -194q-53 -96 -148 -193q-66 -68 -147 -127q-92 -66 -187 -108q-102 -47 -217 -74q-114 -27 -224 -27q-11 0 -21 1q-17 -1 -34 -1q-76 0 -151 11q-70 10 -161 37q-72 20 -132 55 q-63 37 -98 72q-47 41 -69 79q-27 45 -35 86q-9 41 -9 74q0 9 1 17z" />
<glyph unicode="V" horiz-adv-x="2023" d="M642 1212q0 3 1 5q0 2 2 5t4 5q6 12 19 24q10 10 30 21q25 12 39 18l41 17q39 12 99 22q35 6 104 14q63 0 98 -14q43 -18 62 -37q23 -23 33 -51l18 -49q11 -61 11 -127q0 -17 -1 -35q-2 -70 -16 -151q-16 -106 -23 -160q-18 -156 -18 -162q2 -10 2 -31q0 -12 4 -32 q2 -12 12 -29q9 -15 31 -25q23 10 39 23q10 8 27 24q4 4 11 13.5t11 13.5l25 25l47 61q4 6 47 59l125 156l129 154q51 57 123 118l139 117q33 20 65 47q45 37 68 49q37 23 82 41q33 14 100 25q74 -10 111 -29q33 -16 74 -53q33 -33 51 -59q20 -31 18 -66q-10 -35 -35 -59 q-45 -45 -61 -58l-76 -53l-73 -53q-68 -57 -121 -115l-111 -119q-57 -61 -108 -122q-70 -82 -109 -123q-61 -68 -143 -140l-164 -139q-37 -27 -105 -69q-61 -39 -127 -66q-61 -25 -147 -45q-64 -15 -140 -15q-14 0 -28 1q-61 4 -100 16q-47 16 -68 39q-4 4 -25 53 q-12 28 -12 55q-12 63 -18 119q-4 41 -5 74q0 24 3 47l-6 123q-1 17 -1 36q0 29 3 87q0 139 -23 287q-5 31 -17 91t-19.5 109t-7.5 92z" />
<glyph unicode="W" horiz-adv-x="2572" d="M424 295q0 72 10 123q12 61 31 123l37 123q39 111 96 202q66 109 147 199l86 90q35 39 103 90q59 45 129 78q74 35 174 49q17 1 32 1q59 0 89 -13q43 -18 59 -47q15 -28 13 -62q-2 -33 -21 -63q-20 -43 -49 -88q-37 -55 -64 -88q-12 -18 -26 -33q-16 -16 -29 -35l-70 -90 l-65 -90q-41 -61 -57 -92q-27 -51 -41 -92q-16 -45 -19 -68q-1 -15 -1 -28q0 -21 3 -38q84 66 131 119q41 45 105 125q41 51 90 125q27 41 92 125l47 78q16 29 62 74q18 18 47 34q23 12 61 27q35 12 72 18q27 4 80 5q86 0 141 -19q68 -23 90 -55q14 -18 21 -47q8 -33 8 -47 v-50q0 -16 -4 -49l-17 -102q-12 -70 -20 -105q-12 -68 -12 -131q0 -72 18 -127q37 47 94 146q47 82 72 145q4 12 27.5 64.5t33.5 81.5l56 145q29 70 41 94l27 50.5t24 41.5l41 54q25 31 45 49q18 16 59 35q29 12 84 16q92 -6 154 -33q66 -29 96 -67q33 -39 39 -82 q4 -30 4 -53q0 -17 -2 -33q-12 -41 -21 -62q-20 -51 -26 -61q-23 -47 -43 -94q-16 -35 -35 -95q-8 -29 -14 -43q-4 -8 -8.5 -25.5t-4.5 -19.5l-8 -24t-6 -21q-10 -33 -14 -45q-33 -80 -105 -180q-63 -88 -162 -174q-49 -43 -102 -82q-45 -33 -127 -76q-61 -33 -154 -59 q-84 -25 -180 -31h-25q-81 0 -151 17q-72 16 -131 53t-94 74q-39 43 -60 79q-27 -25 -100 -82q-45 -35 -127 -77q-68 -35 -156 -58q-83 -21 -164 -21q-10 0 -20 1q-82 4 -149 18q-61 14 -119 41q-53 25 -92 58q-35 29 -58 67q-18 58 -18 119z" />
<glyph unicode="X" horiz-adv-x="2115" d="M365 117q0 20 2 30q4 20 4 29q14 37 35 62q27 35 57 61q45 41 69 59l76 58l189 121l188 122l39 29l39 29q-18 39 -41 76l-45 73l-49 74q-14 20 -25.5 40.5l-19.5 35.5q-10 16 -20.5 30.5t-18.5 28.5q-18 31 -31 62q-16 41 -20 63q-2 12 -3 25q0 17 5 41q8 18 34 39 q25 18 62 30q47 16 80 21q59 8 82 10q27 2 80 2q51 0 73 -4q39 -12 49 -23q6 -6 16.5 -14t14.5 -14q45 -45 64 -68q41 -49 55 -71q35 -47 47 -70l49 -74q84 55 129 92q70 55 129 97q63 43 146 86q76 39 176 67q68 -4 108 -16q51 -16 84 -37q37 -23 51 -49q12 -21 12 -42 q0 -8 -1 -16q-34 -74 -105 -141q-70 -66 -162 -131q-94 -66 -194 -125l-201 -121l131 -162l133 -161q10 -12 22.5 -29.5t27.5 -34.5l49 -61q27 -33 43 -64q27 -49 32 -65q-20 -25 -51 -41q-23 -12 -75 -33l-87 -25q-31 -8 -92 -16q-57 0 -100 12q-53 14 -78 29 q-45 25 -63 39l-54 41q-82 74 -147 151q-68 82 -111 146l-147 -129q-43 -41 -156 -127q-66 -45 -76 -51q-33 -23 -86 -52q-51 -27 -98 -41q-63 -18 -119 -18q-37 4 -55 8q-37 8 -53.5 12.5t-44.5 16.5q-22 9 -31 24q-14 14 -16 25q0 2 -3 12.5t-3 16.5z" />
<glyph unicode="Y" horiz-adv-x="1875" d="M580 102q-4 11 -5 24q0 22 15 46q20 55 57 102q33 41 94.5 98.5t112.5 96.5l119 94q-90 12 -152 39q-74 31 -108 62q-49 43 -70 77q-31 53 -39 84q-19 58 -19 116q0 29 5 56q16 90 59 174q10 31 37 58q25 25 72 51q41 25 96 39q47 12 121 16q21 1 36 2q31 0 52 -6 q33 -8 57 -28q25 -23 33 -39q10 -25 10 -43l-18 -125q-2 -20 -8.5 -61.5t-8.5 -61.5q0 -27 2 -41q4 -23 17 -43q14 -20 36.5 -34.5t73.5 -14.5q31 2 62 14q12 4 47 25q20 12 41 28q16 14 39 27l72 61q57 49 73 64q45 33 90 76l84 77q23 16 45 35l22.5 17.5l22.5 17.5 q25 20 50 35q37 20 59 29q47 16 84 20q23 3 45 3t43 -3q72 -8 107 -18q57 -18 84 -35q33 -20 51 -49q13 -19 13 -47q0 -6 -1 -13q-12 -37 -39 -69q-25 -31 -65 -68q-27 -25 -84 -66q-23 -14 -44.5 -30.5l-43.5 -32.5l-213 -141q-111 -72 -205 -144l-203 -182 q-92 -84 -186 -184l-88 -90l-91 -88l-25 -20.5l-26 -20.5q-29 -23 -59 -39q-39 -20 -70 -31q-40 -12 -86 -12q-13 -1 -25 -1q-61 0 -110 13q-63 16 -98 43q-37 27 -49 61z" />
<glyph unicode="Z" horiz-adv-x="2097" d="M430 147q33 70 90 127q53 53 139 119q102 78 160 115l164 113q207 141 391 251l406 248q-33 0 -99 4q-15 1 -33 1q-11 0 -34 -0.5t-35 -0.5h-82q-29 0 -86 -4h-80h-80h-180q-78 0 -174 15q-18 2 -70 10q-29 4 -63 16q-29 10 -41 25t0 37q20 27 53 43q31 14 80 32 q41 14 94 25l94 18q92 16 201 27q101 9 203 12q23 0 43 1t39 1q25 0 82 4h82q9 0 26.5 0.5t27.5 0.5q15 0 28 -1q70 0 143 -6q119 -10 143 -14q84 -16 129 -29q57 -16 103 -43q43 -25 63 -57q15 -24 15 -52q0 -12 -2 -24q-12 -37 -37 -74q-20 -29 -64 -69l-78 -70l-86 -67 q-121 -88 -252 -170l-270 -164l-235 -146q-104 -61 -222 -147q158 6 353 22q152 14 352 41l61 7q14 1 31 0q24 0 76 -2q49 -2 96 -17q39 -10 59.5 -34.5t-0.5 -53.5q-18 -37 -67 -67q-41 -27 -119 -48q-197 -39 -407 -61q-137 -14 -412 -39q-74 -6 -221 -10q-31 -1 -64 -1 q-50 0 -151 3q-65 3 -111 18q-53 18 -86 37q-16 8 -35 21q-12 8 -28 24q-12 12 -19 25q-6 14 -4 28z" />
<glyph unicode="[" horiz-adv-x="1554" d="M389 162q0 37 6 55q16 63 41 150q8 27 21.5 78t19.5 71q37 135 45 158q31 92 58 155l53 123q41 92 59 125q37 68 76 123q41 59 104 119l43 29q18 10 62 18q174 16 371 20q190 4 360 -14q43 -2 88 -16q33 -10 64 -33q25 -18 37 -43t6 -47q-4 -14 -13 -23q-6 -6 -22 -18 q-12 -9 -31 -18q-20 -10 -33 -15l-45.5 -11t-42.5 -11q-47 -12 -90 -7q-86 6 -170 7q-27 0 -84 1t-88 1q-8 -8 -33 -47l-53 -142q-29 -82 -55 -143l-56 -145l-53 -146l-18 -51q-8 -25 -23 -51q-14 -41 -20 -52l-19 -49q-4 -10 -8 -19t-6 -15q-4 -14 -8 -35q43 -2 133 -2h135 q23 2 68 2t67 2q45 0 84 -6q33 -6 72 -21q27 -10 45 -33q14 -18 2 -43q-10 -29 -37 -51q-31 -27 -65.5 -43t-87.5 -33q-49 -14 -103 -18q-143 -12 -207 -16q-139 -8 -207 -9q-94 4 -178 13q-78 8 -157 32q-35 16 -62 41q-18 16 -35 50q-10 20 -10 53z" />
<glyph unicode="\" horiz-adv-x="1490" d="M575 1311q0 14 11 35q6 14 24.5 26t44.5 23q29 10 58 16q31 6 57 6q41 4 76 0q33 -2 63 -12q20 -6 54 -23q25 -12 38 -26l56 -72q43 -55 51 -72q76 -104 137 -200q59 -94 115 -207q8 -20 61 -143l62 -140l59 -116q12 -25 27.5 -54.5l32.5 -62.5q4 -14 8 -26.5t10 -26.5 q12 -37 14 -56q4 -37 2 -55q-4 -33 -14 -57q-18 -34 -68 -62q-51 -29 -124 -35q-76 0 -123 21q-43 18 -80 49q-34 28 -55.5 61.5t-43.5 61.5q-139 213 -266 452q-106 203 -213 463q-4 8 -10 22.5l-11 26t-10 19.5q-10 20 -26 65q-2 8 -5 16.5t-5 16.5q-2 6 -4.5 18.5 t-2.5 14.5v33z" />
<glyph unicode="]" horiz-adv-x="1566" d="M352 135q8 16 39 39q25 18 66 33q37 18 84 24q46 6 92 7l172 -7q57 -2 174 -2l18 23q6 8 15 24l51 142q10 27 30.5 78l24.5 61l56 145l53 146q6 29 18 51q12 25 23 51q6 10 20.5 51t20.5 52q0 6 2 11l5 12t5 11q8 25 8 35q-86 4 -133 4h-133q-10 0 -34.5 -1t-35.5 -1 q-47 0 -69 -2q-31 0 -84 8q-45 6 -70 21q-31 16 -41 33q-12 20 0 43q9 25 37 49q31 27 65 43q53 25 87 33q45 10 100 14q135 16 205 20q4 0 204 7q14 0 44 -2t45 -2q61 -4 88 -9q76 -10 82 -12q53 -12 75 -20q41 -18 61.5 -39t35.5 -49q12 -25 12 -54q0 -28 -6 -55l-80 -301 l-43 -156q-20 -70 -58 -155l-51 -123q-33 -72 -61 -125q-33 -59 -76 -121q-41 -57 -102 -123l-47 -29q-25 -14 -64 -18q-182 -20 -373 -20q-170 0 -360 16q-47 2 -88 16.5t-64 30.5q-25 18 -37 43q-12 22 -8 49z" />
<glyph unicode="^" horiz-adv-x="1425" d="M455 770q27 49 57 80q41 41 82 74q46 37 98 73q86 59 101 70q51 29 106 68q27 18 107 67q47 29 118 60q59 25 142 45q86 -14 131 -37q59 -31 92 -61.5t67 -71.5q4 -4 26 -31l34 -41l49 -76q23 -35 43 -78q16 -33 23 -80q6 -41 -13 -83q-12 -23 -37 -39q-31 -20 -61 -31 q-47 -16 -80 -21q-57 -8 -84 -8q-41 -2 -86 4q-35 6 -67 19q-29 12 -52 30q-18 16 -28 39q-31 66 -39 90.5t-39 90.5l-127 -113l-127 -113q-12 -12 -37 -22q-20 -8 -47 -12q-49 -6 -53 -7h-52q-61 4 -92 11q-41 8 -75 24q-37 12 -60 35q-16 16 -20 45z" />
<glyph unicode="_" horiz-adv-x="2275" d="M289 90q16 27 49 43q31 16 80 29q31 8 96 20q20 4 94 15q90 8 121 10q78 4 113 6q70 4 104 4q16 0 50 1t51 1q57 2 110 0q37 -2 109 -2q82 -4 114 -4h113h129q84 0 127 -2q168 -4 252 -4q10 -2 28.5 -7l34 -9.5l29.5 -8.5q55 -16 86 -32q37 -18 53 -46q14 -25 -8 -57 q-16 -20 -40.5 -30.5t-59.5 -20.5q-45 -12 -72 -14q-2 0 -29.5 -3.5t-42.5 -3.5q-252 -6 -751 -6q-250 0 -750 4q-53 8 -80 15q-43 10 -63 26q-53 31 -47 76z" />
<glyph unicode="`" horiz-adv-x="675" d="M774 1661q4 8 4 12v15v12q0 8 4 12q9 18 31 36.5t49 31.5q35 14 66 20q37 6 73 6q51 0 86 -12q33 -12 58 -31q29 -20 41 -39l16 -21l15 -20q31 -47 38 -88q10 -49 -10 -96q-12 -20 -20 -26q-12 -10 -35 -23q-29 -16 -45 -20q-33 -8 -58 -9q-92 0 -149 25q-61 27 -92 59 q-35 39 -49 78q-19 51 -23 78z" />
<glyph unicode="a" horiz-adv-x="2095" d="M295 129q-2 12 -2 24q0 21 6 42q20 68 47 116q35 66 66 115q18 29 80 113l83 112q145 180 185 223q92 106 215 218l123 96q66 51 149 94q74 39 180 72q102 33 215 35q100 0 181 -23q72 -20 127 -59q49 -35 78 -82q29 -49 40 -90q27 -86 33 -181q3 -51 4 -108 q0 -36 -2 -76q-1 -27 -1 -60q0 -20 0.5 -59t0.5 -59q0 -92 21 -176l12 -28.5t14 -31.5q16 -41 21 -61q5 -24 5 -45q0 -8 -1 -17q-4 -33 -21 -63q-12 -27 -40 -55q-31 -31 -66 -49q-31 -16 -92 -35q-53 -16 -111 -19q-45 -4 -69.5 -4t-65.5 4q-33 4 -57 13q-29 10 -41 22 q-20 14 -29 27q-12 20 -14 30q-4 20 -4 31q0 4 -1 16.5t-1 16.5q8 33 8 72q0 27 8 71h-86h-84q-59 0 -88 2q-22 2 -43 2l-43 -2q-96 0 -143 -2q-98 -4 -146 -8l-82 -92l-82 -94q-10 -10 -43 -39q-20 -18 -55 -39q-27 -16 -72 -27q-46 -11 -73 -10h-13q-72 4 -123 21 q-59 18 -84 45q-18 27 -24 61zM1120 569h244q26 0 80 -0.5t81 -0.5q45 0 83 1q6 86 14 262v62q0 31 -6 61q-8 37 -17 60q-10 27 -34 57q-86 -51 -158 -117q-68 -61 -119 -125q-52 -65 -92 -129l-28.5 -46t-22 -38.5z" />
<glyph unicode="b" horiz-adv-x="2254" d="M403 199q-3 20 -2 39q0 30 7 57q8 37 34 80l54 82q12 20 31.5 59l25.5 51q18 35 47 109q43 123 80 264q31 119 57 260q95 58 221 98q123 39 263 58q123 20 264 26q132 6 264 7q43 0 137 -5q47 -2 137 -10q66 -6 131 -18q57 -10 117 -31q57 -18 96 -43q41 -25 64 -57.5 t29 -65.5q2 -11 2 -22q0 -22 -8 -47q-10 -37 -33 -68q-27 -37 -62 -66q-37 -31 -80 -61q-35 -27 -92 -59q90 -31 143.5 -76t82.5 -98q25 -45 28 -105q0 -6 1 -11q0 -48 -23 -100q-25 -63 -97 -122q-63 -51 -168 -105q-98 -49 -215 -86q-133 -43 -237 -63q-233 -53 -500 -72 q-117 -8 -240.5 -8.5t-256.5 8.5q-45 2 -89 12q-41 8 -75.5 24.5t-57.5 33.5q-27 20 -39 41q-35 45 -41 90zM946 266q40 -2 83 -1.5t89 1.5q90 2 182 13q88 8 181 28q94 20 157 45q71 28 123 68q51 39 70 90q14 23 10 47q-4 27 -22 43q-20 18 -60 31q-27 9 -69 9 q-12 0 -25 -1q-100 -4 -176 -16q-131 -23 -170 -33q-90 -23 -162 -49q-90 -33 -141 -60q-6 -12 -27 -63l-24 -66q-12 -29 -13 -43q0 -21 -6 -43zM1153 836q8 2 57.5 9t75.5 11q47 6 141 23q86 14 138 26q70 16 127 37q61 23 102 49q49 31 68 64q6 12 6 24q0 10 -13 23 q-10 10 -28 16q-12 4 -47 4h-82q-27 -2 -81 -3t-81 -1q-82 -2 -162 -24q-86 -25 -125 -56q-43 -35 -59 -77q-12 -31 -19 -62q-2 -6 -18 -63z" />
<glyph unicode="c" horiz-adv-x="2084" d="M406 399q-4 29 -5 60q0 75 27 153q43 129 152 256q113 133 276 238q63 45 178 106q98 52 215 93q121 41 242 61q125 21 233 21q14 0 27 -1q170 -4 295 -45q133 -45 221 -100q57 -41 82 -63q47 -43 64 -68q23 -35 32 -76q4 -15 4 -31q0 -22 -8 -49q0 -27 -20 -49 q-23 -27 -56 -47q-27 -16 -81 -31q-33 -8 -69 -8q-18 0 -36 2h-20q-69 0 -119 19q-63 23 -86 55q-27 29 -45 63l-37 66q-23 29 -74 51.5t-123 22.5q-80 0 -164 -25q-76 -23 -133 -55q-58 -34 -104 -74q-31 -27 -78 -78q-82 -92 -125 -172q-45 -86 -78 -178q-2 -8 -7 -25.5 t-5 -21.5q-12 -47 -12 -51q-2 -16 -2 -51q0 -25 14 -45q16 -23 45 -37.5t80 -20.5q25 -1 53 -1q75 0 193 11q127 12 237 50q49 22 99 36l102 33q35 10 72 13q27 2 75 2q14 1 27 0q38 0 64 -7q33 -8 51 -30q16 -20 16 -43t-16 -45l-11 -21l-10 -20q-27 -27 -78 -58 q-53 -33 -102 -51q-68 -27 -117 -41q-82 -25 -123 -35q-104 -29 -247 -53q-115 -18 -258 -22q-19 -1 -37 -1q-95 0 -174 15q-109 20 -179 47q-76 29 -141 72q-51 33 -98 88q-84 96 -98 196z" />
<glyph unicode="d" horiz-adv-x="2054" d="M397 203q-6 25 -6 50.5t6 51.5q18 57 54 144l59 145l78 151q45 90 69 152q14 25 27 64l18 63q14 35 23 63q10 35 31 64q14 41 53 78q43 43 94 69q61 33 133 54q66 18 160 22q132 6 264 6t258 -12t240 -37q109 -25 203 -65q88 -43 139 -101q49 -55 67 -118q16 -55 16 -102 q0 -14 -1 -27q-6 -66 -29 -134q-23 -76 -67 -145q-46 -71 -117 -141q-63 -63 -160 -133q-78 -55 -201 -123q-106 -61 -227 -109q-133 -51 -264 -84q-154 -37 -285 -51q-88 -9 -170 -9q-61 0 -121 5q-117 6 -182 37q-80 37 -110 78q-38 41 -52 94zM989 340q88 0 166 14 q92 16 158 39q78 27 139 56q65 31 111 67q66 45 100 76q29 27 74 80q35 41 55 82q33 63 39 82q4 14 8 34l8 35q6 43 6 45q0 29 -2 43q-2 16 -16 41q-8 14 -39 37q-33 16 -72 23q-76 12 -84 12q-57 4 -90 4h-92q-59 0 -88 -2q-22 -2 -44 -2t-44 2q-53 -61 -90 -127 q-41 -72 -66 -129q-31 -70 -53 -131l-49 -129q-20 -59 -33 -127q-7 -38 -7 -71q0 -28 5 -54z" />
<glyph unicode="e" horiz-adv-x="2146" d="M406 324q2 68 22 143q41 119 115 248q86 152 149 250q25 41 82 122l90 123q41 31 119 60q57 20 147 39q100 20 160 26l156 21q176 18 346 24q63 2 131 3q93 0 211 -5q68 -4 98 -12q53 -14 80 -29q31 -16 47 -43q11 -18 11 -35q0 -9 -3 -18q-2 -16 -20 -35 q-20 -20 -43 -30q-35 -14 -63 -23q-25 -6 -74 -10q-166 -6 -168 -6q-29 0 -83 1t-81 1q-80 0 -160 -6q-111 -8 -159 -19l-78 -18q-27 -6 -72 -23q-33 -12 -59 -29q-29 -18 -41 -34q-2 -4 -23 -35q-12 -18 -18 -37l-2 -10q143 8 217 16l219 25q139 12 217 16q108 6 215 6 q63 0 107 -8q59 -10 83 -25q34 -18 50 -43q16 -27 -2 -53q-6 -27 -33 -47q-33 -25 -68 -39q-35 -12 -88 -26q-55 -14 -96 -17l-213 -12q-70 -4 -209 -8q-70 -4 -209 -17q-102 -8 -201 -37q-53 -16 -84 -34q-45 -27 -63 -45q-37 -37 -43 -48q-15 -25 -25 -49q-8 -33 -16 -94 q-3 -19 -3 -36q0 -30 9 -56q125 18 273 53l262 66q127 31 274 57q162 29 281 31q35 0 96 -4q41 -2 86 -16.5t68 -28.5q31 -20 40 -39l3 -13l-3 -6q-66 -49 -155 -86q-68 -27 -195 -65q-101 -31 -209 -56q-82 -18 -204 -53l-215 -49l-218 -45q-123 -25 -221 -35 q-111 -12 -221 -12q-12 0 -34.5 2t-32.5 2q-4 0 -64 12q-25 4 -55 17q-25 9 -43 24q-18 10 -33 29q-12 14 -23 33q-2 2 -12 35q-2 10 -5 17t-5 15q-17 53 -17 119q1 12 1 23z" />
<glyph unicode="f" horiz-adv-x="1736" d="M367 156q-2 14 -3 27q0 23 7 48q16 47 20 52q14 20 25 51l45 98q14 27 41 100l16 51.5l14.5 44t14.5 52.5q27 90 47 145l55 144q31 78 64 141q9 12 12 25q4 16 10 24q16 23 49 45q25 16 68 37q39 18 84 31q53 14 90 22l193 25q74 10 190 20q90 12 154 17l149 12l146 6 q31 1 58 2l83 -4q66 -6 115 -24q53 -20 84 -45l36 -25q10 -8 27 -29q12 -15 18 -30q3 -8 4 -19q0 -6 -2 -14q-6 -20 -28 -31q-20 -10 -58 -20q-33 -8 -71 -13q-49 -4 -70 -4q-70 0 -217 -4q-74 -2 -221 -10l-54 -6t-44 -6q-52 -6 -99 -19q-61 -16 -88 -29q-40 -18 -67 -43 q-35 -35 -60 -71q-23 -33 -35 -72q51 6 107 6q35 0 104.5 4t106.5 4q12 0 35 0.5t34 0.5l35 -1q20 0 40 -1t42 -1q29 0 82 -4q8 0 78 -12q37 -6 68 -18q33 -12 51 -29q16 -12 26 -35q6 -12 7 -41q0 -18 -11 -43q-2 -12 -18 -29q-12 -12 -41 -26q-23 -10 -53 -21 q-18 -6 -64 -10q-90 -4 -133 -4h-131q-39 -2 -121 -2q-43 0 -125 -4t-123 -10q-61 -10 -116 -27q-45 -82 -68 -143l-51 -146q-18 -61 -31 -88q-22 -43 -49 -86q-20 -27 -37 -39q-16 -14 -53 -33q-27 -12 -70 -20q-26 -4 -48 -4q-16 0 -32 2q-88 6 -135 29q-51 25 -78 57 q-24 29 -30 72z" />
<glyph unicode="g" horiz-adv-x="2138" d="M414 424q-6 37 -6 74q0 77 26 155q20 61 68 138q47 74 106 133q63 63 150 127q76 55 186 114q102 55 223 99q129 45 256 71q123 27 271 39q92 8 183 8q45 0 89 -2q68 0 123 -8q66 -10 111 -26q49 -18 73 -43q20 -20 20 -44q0 -9 -3 -18q0 -16 -13 -35q-14 -20 -36 -35 q-25 -16 -58 -24q-20 -5 -46 -5q-13 0 -30 1h-24l-25 2q-40 1 -74 1q-70 0 -131 -5q-119 -10 -204 -29q-113 -25 -191 -53q-96 -37 -160 -78q-74 -41 -131 -92q-59 -51 -98 -101q-41 -49 -70 -104q-18 -35 -47 -104q-10 -27 -20 -70q-7 -28 -7 -59q0 -10 1 -19q4 -43 16 -72 q15 -34 49 -61.5t92 -42.5q61 -16 144 -16q137 0 229 32q90 33 160 88q63 51 100 113q39 66 53 113q8 23 11 28q2 4 4 12.5t4 14.5q-14 -2 -45 -4t-45 -4q-31 -2 -92 -10q-31 -4 -97 -9l-92 -6q-14 -1 -26 -1q-37 0 -72 7q-51 10 -76 27q-29 18 -37 41t6 49q6 23 29 41 q14 12 55 33q37 18 70 28.5t78 20.5l57.5 11l49 9.5l59.5 12.5q55 12 166 33q51 10 168 22q82 8 167 12q57 -2 119 -16q51 -10 94 -35q39 -20 64 -49q23 -25 29 -59q2 -11 1.5 -21t-1.5 -20q-3 -22 -13 -43q-6 -18 -22 -56l-31 -55l-15 -26.5t-16 -26.5q-16 -27 -30 -53 q-59 -90 -158 -179q-90 -82 -240 -159q-78 -45 -143 -70q-100 -39 -168 -57q-90 -25 -180 -37q-92 -12 -187 -12q-20 -1 -39 -1q-103 0 -190 15q-108 18 -197 49q-82 29 -153 74q-66 41 -111 96q-92 98 -110 211z" />
<glyph unicode="h" horiz-adv-x="2162" d="M391 205q0 43 10 90q31 104 86 203l58 104q31 57 47 105l33 98q15 49 24 98q6 43 27 96l15 44t22 53q22 37 49 73q27 35 69 72q6 4 17.5 15.5t23.5 21.5q20 18 52 35q23 12 61 26q29 10 76 15q33 3 59 3q35 0 62 -5q49 -10 82 -29q37 -23 49 -45q16 -29 18 -57 q2 -27 -4 -60q-8 -37 -20 -57q-34 -86 -74 -172q-27 -57 -76 -172q86 -4 127 -4h127q53 0 160 4q39 0 80 2l82 4q4 12 4 16q0 9 6 19q4 12 12 32.5t10 32.5q14 20 17 35l6 17.5t6 15.5q14 37 16 67q3 34 13 68l14 70q14 53 21 69q4 31 22 58q25 37 57 57q43 29 86 41 q40 12 85 12q16 0 34 -2q86 -3 142 -24q57 -23 86 -54q31 -34 36 -73q2 -13 2 -27q0 -27 -8 -51q-12 -41 -22 -80q-12 -40 -31 -80l-11 -40.5t-12 -41.5l-24 -82q-61 -188 -94 -340l-70 -342l-6 -16q-16 -23 -43 -39q-29 -16 -70 -33q-39 -14 -84 -24q-43 -9 -86 -13 q-24 -3 -43 -3q-25 0 -45 5q-41 10 -63 25q-29 18 -41 35q-16 25 -23 43q-8 31 -8 63v60q2 18 10 55l13 55q14 37 20 78q8 53 14 80q-23 0 -65.5 -2t-77.5 -3t-65 -1h-211h-121q-35 0 -117 4l-45 -88q-25 -47 -35 -86q-14 -33 -16 -64q-3 -31 -13 -61q0 -33 -8 -59 q-4 -16 -14 -64q-4 -23 -27 -41q-25 -18 -61 -31q-41 -14 -80 -16q-19 -1 -35 -1q-26 0 -49 3q-98 10 -149 39q-53 31 -78 74q-23 39 -23 92z" />
<glyph unicode="i" horiz-adv-x="897" d="M375 158q-1 15 -1 28q0 40 7 84q8 47 29 115q41 123 67 193q43 119 74 192l76 191l80 190q31 53 38 68q16 29 58 63q29 29 35 33l45 31q25 15 55 24q37 10 70 16q19 1 34 2q25 0 45 -4q45 -8 68 -16q31 -12 51 -27q23 -16 35 -34q18 -34 19 -74q0 -47 -13 -76l-41 -110 l-45 -109q-8 -25 -49 -115q-20 -47 -45 -112q-25 -68 -35 -123q-14 -70 -28 -119l-29 -115q-12 -53 -37 -112q-16 -45 -45 -78q-49 -59 -70 -78q-10 -10 -43 -35q-25 -18 -57 -35q-29 -14 -70 -24q-37 -9 -80 -12q-43 0 -59 4q-33 8 -47 14q-25 10 -37 20q-10 8 -27 25 q-14 23 -22 55q-2 10 -4 34t-2 26z" />
<glyph unicode="j" horiz-adv-x="2091" d="M383 600q2 57 29 125q4 14 14 23q2 2 27 16q12 8 36 14l41 13q23 6 86 14q43 6 89 6q55 -6 81 -23q25 -14 48 -40q14 -16 26 -50q2 -6 6 -16l7.5 -18.5t5.5 -14.5q12 -35 18 -76t18 -75q8 -35 33 -82q23 -41 64 -74q33 -33 92 -53.5t139 -20.5q4 4 12 8q4 2 11 9l4 16 l2 4l28.5 53.5t20.5 53.5q10 39 14 51l17 51q4 12 14 51t14 51q49 129 80 258q29 125 33 259q-82 4 -129 8q-66 6 -125 18q-53 10 -100 35q-41 20 -58 55q-6 15 -6 31q0 18 6 33q2 14 19 26q20 16 35 23q8 4 47 12q28 6 55 6q249 8 418 8q83 0 160 -2q270 -6 567 -28 q41 -4 65 -19q43 -27 45 -28q23 -23 29 -37q7 -16 7 -31q0 -5 -1 -10q-6 -31 -30 -49q-29 -20 -66 -33q-51 -16 -86 -21q-59 -8 -96 -10l-99 -6h-88q-33 -113 -47 -194q-35 -182 -37 -195q-20 -90 -49 -195q-16 -57 -67 -194q-18 -61 -70 -123q-51 -63 -133 -115 q-84 -53 -193 -86q-108 -33 -228 -33q-10 0 -19 1q-13 0 -27 -1q-113 0 -213 23q-115 27 -191 61q-82 37 -147 89q-55 43 -109 102q-51 53 -83 108q-29 49 -52 117q-15 47 -15 101q0 10 1 20z" />
<glyph unicode="k" horiz-adv-x="2187" d="M401 233q2 29 11 62q14 66 26 106l33 109q14 39 43 108q2 4 41 111q2 8 10 24.5t10 24.5q14 37 17 47q4 8 7 17.5t6 15.5t7 16l21 48q20 55 55 112l66 111q41 55 116 123q12 8 37 28q20 16 41 29q27 14 49 23q33 10 64 16q17 2 34 2l33 -2q27 -2 62 -10q37 -8 51 -17 q29 -16 37 -26q25 -31 25 -68t-19 -74q-10 -23 -22 -41q-20 -27 -25 -38q-4 -4 -15.5 -18.5t-15.5 -22.5l-20 -39q-18 -37 -21 -58q135 53 273 117l268 119q23 8 115 47q68 29 121 47q78 27 126 39q74 18 140 20q63 -2 112 -18q41 -12 80 -41q31 -23 47 -55q10 -20 11 -42 q0 -10 -2 -20q-6 -14 -21 -26q-25 -18 -37 -25q-14 -6 -51 -18q-18 -6 -51 -15q-59 -18 -119 -30q-76 -14 -119 -29q-147 -47 -309 -119q-121 -53 -276 -137q49 -39 96 -72q25 -18 50.5 -34.5l49.5 -32.5q59 -47 107 -78l112 -76q53 -35 109 -78q41 -33 90 -84 q39 -41 63 -88q23 -43 23 -98q-14 -23 -43 -45q-27 -20 -66 -39q-43 -20 -86 -29q-46 -9 -98 -12q-57 0 -96 12q-43 12 -72 31q-35 20 -55 39q-33 29 -49 41l-138 131l-139 131q-20 14 -61 47t-66 47q-31 18 -80 39q-39 16 -100 27q-8 -16 -25 -53q-8 -18 -28 -56 q-10 -33 -23 -51q-14 -20 -20 -53q-12 -29 -17 -60q-2 -23 -10 -57q-4 -41 -8 -57q-10 -43 -14 -58q0 -20 -17 -39q-18 -22 -49 -36q-35 -16 -70 -23q-28 -4 -51 -4q-17 0 -33 2q-72 6 -112 20q-43 14 -76 41q-31 25 -45 52q-16 31 -23 59q-3 17 -3 36q0 12 1 25z" />
<glyph unicode="l" horiz-adv-x="1740" d="M399 254q-1 6 0 13q0 10 2 30q4 29 9 43q14 51 43 111q14 31 29.5 59.5l27.5 52.5l61 117l58 117q12 35 28.5 100.5t26.5 99.5q10 43 31 97l39 98q6 18 37 57q25 29 65 56q33 20 92 41q43 14 119 22q25 2 48 2q40 0 71 -6q43 -8 76 -29q31 -18 43 -47q10 -25 14 -55 q2 -25 -4 -59q-4 -20 -21 -54q-35 -88 -82 -168l-98 -170l-92 -170q-59 -121 -78 -170q-12 -37 -20 -88q-8 -57 -9 -88q162 10 306 39l297 66l67.5 15t65.5 15q59 14 139 21q20 2 41 2q27 0 63 -4q49 -6 86 -23q33 -14 45 -41q4 -7 4 -15q0 -17 -16 -40q-35 -43 -96 -78 q-59 -33 -139 -61q-74 -27 -164 -49l-164 -43q-115 -25 -174 -35q-127 -23 -176 -29q-59 -8 -178 -16q-45 -3 -88 -3t-86 3q-31 2 -92.5 10t-88.5 14q-40 9 -73 25q-41 18 -58 35q-31 43 -37 86q-2 18 -2 39q0 20 2 55z" />
<glyph unicode="m" horiz-adv-x="2609" d="M416 293q3 43 12 86q12 57 21 86q39 135 104 272q68 141 160 273q29 51 73 106q47 57 95 105q37 33 59.5 49t75.5 45q39 20 90 37q49 16 106 18q22 1 38 1q32 0 57 -5q39 -8 71 -25q27 -14 49 -38q20 -25 29 -43q57 -160 88 -289q33 -143 43 -297l207 203l207 202 q55 41 96 80q49 47 105 86q41 31 125 72q61 31 159 47q78 -6 123 -23q53 -18 88 -45q33 -25 58 -59q23 -31 34 -63q31 -65 31 -136q0 -80 -18 -141q-4 -23 -25 -68l-29 -69q-6 -12 -32 -70q-4 -10 -14.5 -34.5t-14.5 -34.5q-8 -37 -12 -78q-2 -27 -15 -76q-2 -12 -5 -36.5 t-5 -37.5q-8 -43 -14 -71q-6 -27 -25 -70q-20 -49 -35 -74q-16 -27 -39 -49l-51 -49q-27 -18 -71 -43q-37 -20 -95 -27q-20 -2 -40 -2q-28 0 -60 4q-47 6 -86 23q-33 14 -59 37q-23 18 -29 47q-4 29 6 59q6 20 23 62q16 57 39 125q31 90 38 127q20 70 29 131q8 63 12 131 q-55 -49 -116 -115l-111 -117l-117 -116q-66 -63 -127 -113q-68 -55 -147 -105q-98 -61 -172 -96q-59 0 -92 10q-41 12 -66 29q-27 18 -45 39q-14 16 -26 45q-29 61 -41 117q-6 29 -11.5 59.5l-11.5 61.5q0 6 -8 51t-10 69q-6 63 -27 121q-33 -70 -55 -125q-18 -45 -41 -125 q-14 -37 -17 -69q-4 -49 -8 -70l-6 -65q-4 -47 -12 -70l-5 -14.5l-6 -16.5l-12 -30l-18 -31q-8 -12 -27 -29q-14 -12 -43 -22q-25 -8 -53 -13q-37 -4 -57 -4q-39 0 -56 2q-92 6 -143 39q-52 34 -68 74q-12 27 -20 82q-3 24 -4 50q1 17 2 36z" />
<glyph unicode="n" horiz-adv-x="2105" d="M360 156q25 70 72 157q14 23 24.5 43.5t20.5 36.5q22 40 37 80q6 27 12 50.5t11.5 42t13.5 50.5q25 94 33 142q12 45 41 139q18 63 57 139q23 49 53 88q66 80 72 88q14 12 43 41q8 8 26.5 23.5t20.5 17.5q27 23 57 37q37 16 78 23q20 1 36 1q25 0 46 -3q35 -6 64 -19 q37 -16 51 -26q25 -16 37 -33q25 -25 32 -39l25 -41q12 -20 20.5 -40.5t20.5 -41.5l63 -131q25 -55 70 -133q76 -129 197 -256l12 92q4 29 16 90q8 41 15.5 84l15.5 86q12 68 45 170q16 37 21 51q6 18 26 56q10 18 39 55q18 25 55 47q35 23 82 35q53 14 111 14q53 -4 76 -12 q20 -8 49 -29q23 -16 35 -35l24 -36q20 -37 27 -80q3 -17 3 -34q0 -25 -7 -48q-12 -23 -19 -47q-8 -31 -18 -47l-37 -99q-33 -115 -53 -217l-43 -215q-10 -82 -29 -141q-25 -80 -49 -144q-12 -33 -39 -61q-25 -29 -67 -57q-39 -27 -94.5 -45.5t-123.5 -24.5q-61 2 -114 16 q-51 12 -88 33q-41 23 -70 45q-31 25 -57 51q-35 35 -52 54q-27 29 -51 51l-141 192q-51 72 -129 197l-22.5 -79l-18.5 -68l-43 -150q-6 -18 -41 -96q-22 -49 -55 -99q-29 -37 -49 -57q-23 -23 -62 -47q-37 -25 -76 -35q-29 -8 -60 -8q-16 0 -34 2q-51 2 -98 18 q-49 16 -78 35q-31 18 -51 47q-17 23 -17 54z" />
<glyph unicode="o" horiz-adv-x="2211" d="M426 449q-9 40 -9 79q0 73 29 146q45 123 158 244q106 115 285 221q82 53 180 98q101 46 215 80q109 33 236 51q125 19 221 19q13 0 26 -1q117 0 220 -22q100 -23 174 -57q82 -39 133 -82q63 -53 94 -95q80 -102 98 -212q6 -37 6 -74q0 -79 -28 -156q-23 -63 -60 -121 q-35 -55 -96 -118q-51 -53 -129 -115q-55 -43 -156 -107q-72 -45 -184 -96q-104 -47 -213 -80q-121 -37 -235 -53q-112 -17 -218 -17q-16 0 -32 1q-125 0 -219 20q-88 18 -172 59q-82 39 -134 82q-57 47 -92 95q-73 102 -98 211zM952 420q6 -31 27 -60q23 -33 57 -53 q47 -27 88 -37q54 -13 105 -12h18q11 -1 23 0q52 0 108 10q68 12 119 33q68 27 102 47q43 27 76 55q49 47 84 91q33 43 60 88q29 49 43 84l36 84q4 14 9.5 28.5t9.5 28.5t14 57q8 37 8 58q0 29 -6 57q-6 27 -30 51q-20 20 -61.5 41t-86.5 29q-47 9 -89 9q-11 0 -21 -1 q-70 0 -138 -12q-74 -14 -129 -33q-55 -20 -108 -49q-45 -25 -86 -60q-80 -70 -123 -133q-45 -66 -72 -139q-25 -70 -37 -131q-6 -33 -6 -65.5t6 -65.5z" />
<glyph unicode="p" horiz-adv-x="1787" d="M389 133q-4 13 -3 28q0 21 7 44q25 111 72 225q49 117 104 225q14 20 19 35q2 6 7 17.5t7 17.5q14 39 35 117q10 43 22 114q18 72 31 113q15 55 43 111q20 35 63.5 65.5t100.5 52.5q68 27 123 39q88 20 139 27q94 12 141 16q72 6 138 6q25 1 51 1q40 0 125 -3 q89 -3 172 -12t160 -24q76 -14 143 -41q66 -29 106 -64q39 -33 62 -76q20 -39 24 -86q1 -10 1 -20q0 -36 -9 -68q-16 -51 -61 -96q-43 -43 -110.5 -88t-143.5 -80t-164 -67q-166 -63 -385 -121q-200 -52 -412 -86q-14 -78 -30 -156q-15 -77 -43 -154q-4 -29 -25 -55 q-25 -33 -57 -51q-47 -27 -86 -37q-27 -7 -61 -7q-21 0 -48 3q-80 4 -129 22q-57 23 -90 50q-29 26 -39 63zM1096 762q127 18 215 41q70 18 200 59l91 31q45 14 88 35q39 18 71 41q31 22 43 49q2 6 2 12q0 9 -6 17q-12 16 -28 24q-18 9 -43 19q-12 4 -52 14q-123 27 -245 26 q-37 0 -58 -2q-25 -2 -59 -10q-10 -2 -53 -18q-20 -8 -39 -23q-20 -25 -39 -59q-14 -29 -25 -60l-16 -49t-19 -49q-20 -55 -28 -98z" />
<glyph unicode="q" horiz-adv-x="2097" d="M410 414q-4 35 -4 61q0 27 4 51q8 57 26 113q45 131 131 246q92 123 238 235q71 55 166 105q94 49 207 86q117 39 233 59q108 19 220 19h32q123 0 213 -21q102 -23 168 -53q76 -35 127 -80q53 -47 80 -94q66 -96 76 -207q2 -20 1 -42q0 -85 -28 -175 q-43 -114 -129 -227.5t-227 -215.5q10 -27 30 -47q12 -12 49 -41q23 -20 37 -51q12 -27 -8 -55q-10 -16 -43 -37q-25 -16 -63.5 -32.5t-77.5 -24.5q-45 -10 -82 -13l-29 -2l-33 2l-26 2l-25 7l-22 12q-4 8 -33 31q-20 16 -31 32q-78 -35 -184 -57q-96 -20 -203 -20 q-15 0 -31 -1q-93 0 -196 15q-113 16 -197 45q-98 35 -158 72q-70 45 -108 92q-43 45 -70 102q-24 52 -30 109zM930 494q-1 -10 -1 -22q0 -27 5 -56q6 -35 35 -68q27 -31 78 -51q49 -20 137 -27q37 0 69 6q37 6 64 19q-10 8 -25.5 17.5t-31.5 21.5q-35 25 -52 41 q-23 23 -34 47q-12 23 -3 51q4 10 33 39q22 22 56 37q45 20 71 26q53 12 84 13q37 -2 74 -17q41 -14 57 -28l45 -33l47 -35q63 55 99 115q39 68 57 117q20 55 33 114q9 42 9 89q0 14 -1 28q-8 41 -16 59q-10 25 -39 50q-25 23 -64 34q-43 14 -92 15q-18 1 -35 0l-112 -9 q-78 -12 -138 -32q-74 -25 -118 -51q-55 -33 -88 -66q-35 -35 -60 -72q-33 -49 -45 -73q-25 -49 -35 -74q-14 -37 -26 -74q-4 -12 -8.5 -23.5t-7.5 -21.5t-7 -27q-10 -34 -14 -79z" />
<glyph unicode="r" horiz-adv-x="2306" d="M418 217q-1 11 -1 22q0 38 9 74q4 12 13.5 45t15.5 50q10 31 43 96l49 100q33 66 45 98q25 70 35 119q14 63 30 119q6 12 21 57q8 29 18 58q14 45 21 57q18 43 28 57q20 35 31 48q20 25 51 45q33 23 68 38q31 14 88 29q53 14 92 21q88 12 96 12l97 6q66 4 98 8 q20 0 64.5 3t66.5 5q45 2 131 2q109 0 164 -2q102 -4 160 -8q53 -4 151 -20q74 -12 135 -33q63 -25 99 -57q39 -35 55 -72q18 -40 18 -80q0 -49 -10 -82q-12 -34 -43 -67q-37 -41 -71 -66q-57 -41 -93 -59q-94 -49 -106 -56q-96 -49 -248 -102q-133 -47 -278 -74 q57 -45 98 -82l96 -82q51 -41 113 -73q74 -39 143 -58q39 -14 121 -34q61 -15 117 -37q33 -12 47 -21q25 -14 35 -26q14 -16 16 -31q4 -18 -4 -35q-12 -23 -45 -43q-37 -23 -72 -33q-31 -10 -86 -20q-29 -6 -90 -10q-43 -3 -84 -3.5t-80 3.5q-78 6 -145 24q-70 18 -127 43 q-53 23 -105 53l-190 138q-168 115 -195 135q-14 6 -63 35q-23 14 -76 28l-18 -45q-10 -25 -17 -45q-4 -16 -14 -63q-2 -10 -7 -33t-7 -33l-13 -61q0 -2 -4 -27t-8 -37q-2 -14 -18 -47q-10 -20 -39 -45q-23 -20 -64 -33q-35 -11 -76 -11q-9 0 -18 1q-51 4 -88 14 q-45 14 -68 29q-33 20 -47 39q-18 22 -30 43q-28 46 -31 92zM1120 813q96 2 236 21q94 12 225 53q63 18 100 35q47 23 82 45q39 27 62 51q18 20 35 57q2 5 2 10q0 7 -7 13q-10 10 -28 16q-14 4 -43 8q-7 1 -16 1q-5 0 -15.5 -0.5t-15.5 -0.5q-32 2 -63.5 2t-63.5 -2 q-86 -4 -129 -4q-29 0 -59.5 -2l-61.5 -4q-41 -2 -123 -2q-4 0 -29 -6q-8 -2 -18 -12q-2 -2 -5 -4.5t-5 -4.5t-2 -4q-2 -2 -4.5 -7t-4.5 -7q2 -8 -2 -23l-8 -24q-25 -57 -37 -103q-8 -27 -8 -54q0 -24 6 -48z" />
<glyph unicode="s" horiz-adv-x="2138" d="M389 264q0 16 19 35q20 20 43 31q35 16 61 20q19 3 40 4q13 0 30 -2q66 -4 102 -8q41 -4 86 -22l88 -25q23 -6 43.5 -13.5t42.5 -13.5q135 -29 309 -28q102 0 191 8q90 8 184 39q47 18 84 43q33 20 55 47q27 31 35 45q4 8 21 45q14 31 16 59q4 35 -8 56q-20 4 -28.5 6 t-30.5 2q-88 0 -179 -12l-180 -25l-178 -25q-78 -11 -147 -10h-31q-15 -1 -30 0q-67 0 -134 10q-76 12 -137 37q-66 27 -103 56q-43 35 -61 69q-36 62 -36 130q0 14 1 28q10 84 51 162q18 45 60 82q47 43 102 75q61 37 133 66q55 23 150 53q164 55 331 76q180 23 342 22 q123 -4 220 -14q100 -12 198 -41q68 -25 82 -31q41 -18 70 -40q31 -23 41 -46q9 -18 9 -36q0 -10 -3 -19q-2 -27 -33 -47q-27 -16 -69 -27q-57 -12 -91 -14q-25 -2 -47.5 -1.5t-42.5 1.5q-43 2 -121 14l-116 21q-41 10 -113 20q-51 8 -123 9q-14 1 -28 0q-70 0 -140 -13 q-70 -12 -157 -41q-82 -27 -127 -59q-53 -37 -72 -78q-6 -18 2 -45q4 -18 18 -41q4 -4 8.5 -9t8.5 -9t20 -17q2 -2 29 -12q14 -6 41 -6q98 8 143 16q37 6 72 13.5t68 13.5q78 16 172 31q100 14 172 14q68 0 139 -10q61 -8 121 -29q68 -23 102 -41q45 -25 78 -53 q59 -55 78 -125q6 -23 6 -47q0 -43 -21 -90q-39 -98 -137 -187q-102 -94 -250 -164q-68 -37 -159 -69q-96 -35 -181 -53q-106 -25 -192 -35q-82 -10 -197 -10q-156 0 -280 20q-137 23 -248 55q-59 20 -109 39q-37 14 -94 47q-39 23 -65 56q-20 25 -20 53q0 7 1 14z" />
<glyph unicode="t" horiz-adv-x="2088" d="M549 1112q-9 13 -9 28q0 16 11 31q20 31 59 48q66 29 95 34q39 8 110 21q25 4 52.5 8l56.5 8q49 6 137 15q35 2 69.5 6l69.5 8q106 12 305 29q102 8 307 20q18 0 54.5 2t65 3t53.5 1q19 0 56.5 0.5t55.5 0.5q31 0 55 -1q41 -2 138 -14q76 -10 129 -27q66 -20 98 -43 q41 -29 53 -63q-18 -31 -65 -60q-43 -27 -119 -32q-43 -5 -93 -6q-24 0 -52 1q-47 2 -146 3q-39 2 -113 2q-49 0 -112 -15q-4 -10 -12.5 -24.5t-14.5 -30.5l-24 -55q-82 -176 -107 -238q-78 -190 -96 -237q-8 -25 -18.5 -47.5t-16.5 -41.5q-25 -66 -35 -90q-14 -49 -30 -88 q-8 -23 -16.5 -45t-18.5 -43q-4 -8 -33 -61q-16 -29 -51 -62q-33 -29 -82 -51q-53 -25 -121 -26q-86 6 -135 26q-53 23 -78 49q-28 31 -37 68q-5 21 -5 49q0 13 1 29q2 37 12 78q6 27 19 71q23 57 51 107l59 106l66 109q25 43 55 110q29 88 37 148q5 39 5 81q0 32 -3 66 l-96 -6q-63 -4 -96 -10q-10 0 -30 -2t-35 -3t-28 -1q-43 -3 -92 -6q-28 -1 -53 -2l-76 4q-68 6 -114 20q-54 12 -72 41z" />
<glyph unicode="u" horiz-adv-x="2129" d="M459 489q6 72 22 125q12 43 41 125l60 140q27 70 63 139q39 72 82 137q53 78 111 135q45 35 118 58q78 23 154 22q19 1 34 1q23 0 42 -3q39 -6 57 -16q27 -14 39 -31q10 -16 14 -37q5 -25 5 -49q0 -19 -3 -41q-6 -47 -26 -90l-72 -156l-78 -153l-80 -156 q-37 -70 -63 -158l-12 -37q-6 -18 -6 -36q0 -23 2 -35q2 -14 18 -31q10 -16 39 -27q16 -6 57 -14q23 -4 68 -8q25 -2 69 -2q15 -1 30 -1q73 0 134 13q76 16 133 43q68 33 105 62q43 35 78 75q31 37 53 78q20 37 31 76q39 109 59 203q20 96 21 200q0 45 6 84l12 82 q2 25 22 54q20 31 50 49q43 27 80 37t74 9q16 0 32 -1q53 -2 100 -17q33 -10 72 -32q35 -20 51 -43q18 -25 31 -50q23 -57 29 -129q3 -32 3 -65.5t-3 -67.5q-4 -57 -27 -135q-12 -45 -41 -135q-37 -113 -133 -225q-94 -111 -236 -211q-57 -43 -151 -94q-98 -55 -182 -87 q-100 -39 -207 -61q-100 -23 -228 -22q-17 0 -33 -1q-110 0 -216 17q-109 16 -209 57q-94 37 -158 86q-61 47 -92 111q-33 61 -41 117q-6 42 -6 79q0 22 2 43z" />
<glyph unicode="v" horiz-adv-x="1804" d="M621 629q8 104 10 162q-8 117 -10 167q-1 14 -1 29q0 66 11 141q0 10 1 19.5t1 19.5q0 18 16 41q10 23 29 45q27 31 45 43q27 18 65 33q41 16 91 19q22 3 42.5 3t39.5 -3q35 -6 63.5 -18.5t44.5 -29t23 -34.5q10 -47 10 -86q0 -55 -2 -84q-6 -160 -6 -162q0 -18 -0.5 -54 t-0.5 -54q0 -30 1 -54q4 -86 20 -162q25 -106 39 -159q61 61 102 116l86 119l86 119q25 33 45.5 65.5t36.5 55.5q66 90 101 133t112 129q23 18 64 59q33 33 63 56q33 23 78 43q41 16 105 20q66 -4 106 -20q49 -20 72 -41q25 -23 35 -56q4 -12 3 -25q0 -15 -5 -34 q-25 -70 -43 -105q-27 -49 -70 -102l-92 -104q-23 -23 -90 -105q-70 -102 -168 -219l-176 -217q-31 -31 -62 -68q-2 -2 -65 -71q-23 -25 -76 -70q-41 -35 -90 -66q-45 -29 -111 -51q-57 -20 -137 -32q-12 0 -37 1t-39 1q-2 0 -76 6q-25 2 -69 10q-27 4 -58 20q-41 27 -67 64 q-25 35 -37 70q-33 84 -45 157q-10 72 -14 160q-3 40 -3 80t3 80z" />
<glyph unicode="w" horiz-adv-x="2705" d="M483 317q0 71 19 142q9 37 24 73l31 74l41 76q18 31 33 76q12 25 18 57q2 8 6 28.5t7 30.5l12 58q2 10 5 28.5t5 28.5q10 61 27 111q18 55 47 112q12 12 18 21l17 22q6 8 22 21q8 6 33 18q12 8 65 35q37 18 84 19q14 1 28 0q40 0 77 -7q55 -10 83.5 -22t59.5 -39 q25 -23 31 -45q2 -20 -10 -61q-6 -20 -23 -62l-88 -270q-45 -141 -80 -273q88 98 178 183q166 152 197 178l92 78l94 79q51 41 103 76q45 29 121 70q27 10 51 10q37 0 55 2q12 1 24 1q36 0 68 -7q47 -10 72 -27q18 -18 33 -43q16 -29 18 -43q23 -70 43 -155q16 -66 27 -160 q2 -18 5 -51t3 -49l6 -99q76 158 133 293q61 145 99 291q4 14 12 39t14 37l12 20q6 12 15 21q12 12 20 18q4 4 31 17q72 14 100 14q9 0 26 0.5t24 0.5q13 0 22 -1q8 -2 20.5 -2t20.5 -2q14 -2 39 -6q18 -4 37 -11q16 -6 26 -14q37 -31 56 -63q20 -39 26 -72q5 -29 5 -54 q0 -10 -1 -20q-4 -49 -8 -76q-8 -47 -14 -77q-6 -27 -14 -76q-25 -90 -87 -203q-47 -86 -126 -201l-72 -96q-41 -55 -80 -96q-72 -78 -90 -94q-53 -49 -111 -90q-41 -29 -63 -41q-35 -18 -76 -35q-51 -20 -84 -27q-43 -9 -92 -12q-61 0 -86 6q-35 8 -64 25q-18 10 -45 36 q-12 12 -28 37q-61 113 -111 242q-47 123 -68 248l-170 -164q-72 -68 -186 -160q-55 -39 -113 -86q-63 -51 -110 -82q-66 -41 -125 -65q-61 -25 -156 -35q-76 4 -125 20q-47 16 -90 45q-37 25 -59 58q-23 31 -35 63q-31 63 -31 135z" />
<glyph unicode="x" horiz-adv-x="2189" d="M362 188q15 31 44 62q23 25 65 57q25 18 82 55l86 54l205 125l200 127l48 34q4 4 43 33l-103 139q-35 45 -102 142q-6 12 -12.5 22.5t-11.5 17.5t-13 21q-23 37 -33 64q-16 41 -18 63q-1 6 -1 12q0 30 13 58q10 23 35 39q23 14 63 28q39 12 78 19q29 4 82 8q20 2 64 2 q23 0 59 -4q4 0 51 -12q25 -6 43 -19q23 -23 43 -53l37 -57q25 -57 61.5 -119t61.5 -119q39 23 108 72q52 37 99 74q61 45 90 69q57 49 92 72q14 8 43 28.5t45 30.5q27 16 53 25q31 9 68 12q70 -4 115 -16q52 -15 86 -37q35 -23 51 -51q10 -18 10 -42q0 -10 -2 -20 q-27 -49 -66 -88q-45 -45 -96 -82q-74 -53 -117 -78q-16 -10 -60 -35.5l-69 -39.5l-135 -72q-25 -14 -61.5 -32.5t-71.5 -39.5l195 -235l192 -236l29 -37q15 -18 24 -36q6 -12 11 -39q2 -18 -4 -43q-12 -25 -43 -43q-25 -14 -72 -33q-25 -10 -90 -23q-31 -6 -92 -10 q-74 0 -125 18q-53 18 -88 46q-37 29 -66 59q-2 2 -22.5 25.5t-30.5 33.5l-98 148l-97 147q-84 -47 -141 -88l-127 -94q-39 -31 -108 -92q-31 -27 -111 -90l-47 -35q-27 -20 -53 -35q-29 -16 -64 -29q-31 -10 -76 -14q-66 2 -118 18q-47 14 -84 43q-31 25 -43 60 q-6 18 -7 35q0 14 4 30z" />
<glyph unicode="y" horiz-adv-x="1882" d="M635 1053q2 41 16 96q10 41 37 94q12 25 27 39q23 23 45 35t61 26q31 10 78 15q27 3 56 3q18 0 36 -1q35 -2 74 -17q34 -12 55 -30q20 -18 27 -39v-96q0 -31 4 -97q10 -63 35 -151q20 -74 65 -148q86 70 236 179l250 176l127 92l131 90q37 20 94 37q35 10 72 10 q17 0 34 -2q61 -3 105 -18q45 -16 67 -39q25 -25 33 -52q5 -14 5 -27.5t-5 -27.5q-8 -16 -28 -37q-12 -12 -41 -37q-8 -8 -25.5 -20t-21.5 -14l-48 -33l-120 -74l-43.5 -25.5l-37 -21.5l-42.5 -27q-123 -78 -258 -176q-117 -86 -230 -184q-117 -102 -194 -193 q-88 -100 -148 -198q-4 -6 -6 -10.5t-5 -9.5t-7 -11q-10 -18 -23 -33q-8 -10 -28 -30q-10 -10 -39 -27q-23 -18 -45 -27q-35 -12 -60 -16q-41 -8 -63 -10q-10 -1 -22 -1q-7 0 -21 0.5t-21 0.5q-55 0 -92 12q-39 12 -59 31q-23 20 -29 43q-6 25 6 49q20 96 86 192 q59 88 156 185q-53 35 -98 82q-33 35 -66 90q-18 31 -43 96q-18 49 -31 98q-4 12 -14 94q-5 37 -5 70q0 13 1 25z" />
<glyph unicode="z" horiz-adv-x="2170" d="M457 170q33 61 100 123q66 59 145 115q121 84 166 112q115 74 168 111l402 254l405 252q-152 -4 -227 -9q-114 -6 -227 -18q-57 -4 -114.5 -10t-115.5 -13q-100 -10 -225 -14q-23 -2 -70 -2q-49 0 -71 2q-27 2 -66 10q-29 6 -51 19q-20 12 -27 26q-8 18 2 35 q57 47 142 76q92 31 180 47q131 25 198 33l195 24q211 20 422 31q99 4 192 5q113 0 220 -7q53 -2 133 -18q72 -14 118 -33l48 -23q4 -2 41 -26q12 -8 28 -29q12 -14 12 -35q-66 -61 -151 -123l-176 -116l-187 -113q-63 -37 -182 -115l-205 -125l-200 -127l-183 -118 q-84 -57 -159 -127q61 20 137 37q86 18 143 28l142 27q47 8 145 29q68 15 141 24q76 10 146 12q10 0 19 1q100 0 175 -29q39 -16 56 -39q18 -25 -3 -51q-12 -33 -53 -56q-53 -31 -94 -45q-39 -14 -117 -28q-29 -6 -59.5 -13.5t-59.5 -13.5l-296 -51q-252 -41 -302 -47 q-168 -20 -301 -29q-102 -6 -193 -6q-54 0 -106 2q-57 2 -96 22q-35 16 -61 41q-20 23 -37 54q-10 17 -10 36q1 11 4 21z" />
<glyph unicode="{" horiz-adv-x="1429" d="M367 649q10 25 34 47q20 18 62 35q47 20 82 27q61 12 94 16q31 4 96 8q31 2 88 2q-39 23 -84 62q-43 35 -63 67q-25 37 -31 76q-6 41 10 80q33 74 107 139q76 66 192 119q57 29 119 49q57 18 135 33q74 12 140 18q72 6 141 0q55 -2 123 -20q43 -12 98 -39q14 -8 39 -25 q16 -10 28.5 -26.5t16.5 -32.5q4 -20 0 -33q-6 -20 -31 -39q-27 -20 -59.5 -30.5t-77.5 -14.5q-55 -4 -78 0l-69 9l-70 6q-45 4 -86 -2q-47 -6 -84 -19q-35 -12 -63.5 -32.5t-30.5 -45.5q6 -25 26 -45q23 -23 48 -39q18 -12 59 -36q51 -31 57 -35q12 -8 28.5 -17.5 l35.5 -19.5q41 -29 57 -43q25 -23 41 -47q14 -23 14 -51q-10 -27 -38 -48q-35 -25 -68 -40q4 -2 14.5 -8.5t16.5 -8.5q10 -6 24 -20q12 -12 15 -21q4 -14 -2 -24q-16 -27 -43 -48q-28 -22 -62 -43q-29 -18 -74 -38l-80 -37l-37.5 -19.5t-46.5 -23.5l-81 -41 q-16 -8 -43 -24.5t-33 -20.5q-31 -18 -64 -47l66 -21q63 -18 69 -18q49 -8 76 -11q53 -4 80 -2q39 6 86 -2q43 -6 66 -20q27 -16 34 -35q9 -22 -6 -43q-14 -25 -41 -47q-29 -27 -63 -43q-45 -23 -82 -35q-33 -10 -98 -18q-135 -12 -260 6q-131 18 -220 53q-63 23 -96 41 q-47 27 -71.5 51.5t-38.5 61.5q-14 35 -2 65q12 43 49 86t88 82q31 23 119 74q61 35 133 67h-58h-49q-51 0 -78 2q-8 0 -24.5 1.5t-29.5 2.5t-26 3q-31 4 -73 16q-35 10 -58 23q-25 14 -32 30q-10 21 -2 41z" />
<glyph unicode="|" horiz-adv-x="839" d="M348 2q-2 39 4 90l13 90q33 139 73 285q41 147 94 285q25 76 48 127q39 92 51 127l55 122q25 55 49 125q20 35 35 66q15 34 37 67q20 33 57 64t99 51q61 9 104 0q37 -8 68 -28q29 -18 41 -46q14 -27 16 -47q2 -35 -6 -100l-12 -100q-27 -156 -44 -219q-29 -111 -67 -220 q-2 -6 -14.5 -31.5t-16.5 -39.5q-12 -37 -31 -74q-18 -39 -28 -72q-8 -25 -29 -69l-37 -99q-2 -18 -14 -47l-19 -49q-10 -31 -32 -76q-10 -18 -37 -75l-43 -66q-20 -33 -57 -66l-12 -12q-11 -12 -19 -18q-2 -2 -16.5 -14.5t-22.5 -18.5q-10 -8 -49 -25q-20 -8 -62 -16 q-61 0 -86 10q-33 12 -49 33q-16 18 -27 43q-8 23 -14 43z" />
<glyph unicode="}" horiz-adv-x="1425" d="M330 78q-4 18 2 35q0 20 24 39q27 20 62 28q49 12 80 15q41 2 77 0q23 -4 68 -9q12 -2 34.5 -4t35.5 -4q39 -2 90 4q43 6 84 19q33 10 65 35q27 18 29 43q-6 25 -27 45q-18 18 -49 38l-31.5 18.5t-27.5 16.5q-51 31 -58 35q-12 8 -28.5 17.5l-34.5 19.5q-37 25 -59 43 q-25 23 -41 47q-16 27 -15 51q10 25 41 47q20 14 70 39l-31 19q-20 12 -26 18q-8 8 -14.5 20.5t-0.5 26.5q23 31 47 47q51 37 64 43q49 29 76 41l75 37l86 43q10 4 40 18.5t44 22.5q16 8 43 24.5t33 20.5q18 10 62 49l-66 19q-63 18 -70 18q-49 8 -75 11q-53 4 -80 2 q-39 -6 -86 2q-43 6 -66 20q-25 16 -35 35q-10 20 7 43q10 18 40.5 47t61.5 43q33 16 82 33q33 10 94 18q143 12 264 -2q115 -14 221 -55q59 -23 93 -41q43 -25 71 -53q27 -27 39 -60q12 -34 0 -67q-18 -49 -49 -86q-41 -47 -86 -82q-37 -29 -117 -74q-61 -35 -133 -68h57 h50q55 0 116 -6q66 -6 113 -18q51 -12 80 -34.5t12 -57.5q-8 -27 -35 -49q-20 -18 -61 -35q-47 -20 -82 -27q-61 -12 -94 -16q-68 -8 -96 -11h-91q29 -16 86 -61q37 -29 64 -68q25 -37 31 -73q6 -41 -11 -80q-31 -70 -106 -139q-66 -59 -191 -121q-41 -20 -120 -47 q-59 -20 -133 -33q-71 -12 -142 -19q-63 -6 -141 -2q-63 6 -127 23q-51 14 -96 41q-14 8 -39 24q-16 10 -29 27q-10 15 -14 31z" />
<glyph unicode="~" horiz-adv-x="2107" d="M504 737q8 29 39 54q29 23 75 43q53 23 95 34l98 31l109 25q80 18 108 22l109 17q55 6 108 6q61 2 123 -15q59 -16 100 -32l86 -29q39 -12 103 -16q70 4 125 14q78 14 116 29q92 23 130 28q72 12 135 10q43 0 98 -10q57 -10 86 -22q39 -16 59 -37q23 -23 23 -49 q-2 -20 -25 -39q-14 -12 -51 -31q-31 -16 -69 -25q-59 -14 -76 -16q-25 -4 -49.5 -10t-42.5 -10q-45 -8 -93 -23q-160 -31 -219 -41q-117 -20 -225 -22q-78 0 -129 14q-68 18 -107 35l-83 28q-49 18 -99 21q-39 -2 -108 -14q-55 -10 -103 -25q-55 -16 -94 -37 q-10 -4 -40 -18.5t-44 -22.5h-18q-4 0 -10.5 1t-8.5 1q-51 2 -88 15q-45 14 -67 28q-39 18 -55.5 38.5t-20.5 49.5z" />
<glyph unicode="&#x85;" horiz-adv-x="2306" d="M307 147q4 16 23 33q14 14 39 29l51 27l26.5 11l26.5 11q66 27 113 39q61 14 127 18q43 0 61 -2q25 -2 51 -14q29 -12 39 -20q14 -12 21 -27q18 -29 14 -68t-12 -71q-10 -18 -10 -23q-2 -8 -11 -24q-2 -2 -16 -23q-6 -8 -27 -20q-70 -33 -116 -41q-55 -9 -105 -7 q-76 4 -125 17q-57 14 -94 37q-47 23 -66 53q-18 32 -10 65zM993 150q8 25 18.5 35t35.5 30q18 15 43 31q12 8 24 14l23 12q72 31 108 41q61 16 123 17l68 -6q31 -2 59 -13q14 -4 45 -22q20 -12 31 -29q27 -31 33 -65q6 -39 -11 -74q-6 -29 -37 -58q-29 -27 -79 -45 q-63 -23 -109 -30q-57 -8 -115 -6q-65 -3 -116 12q-47 14 -86 39q-39 27 -54 53q-16 31 -4 64zM1702 84q-4 16 0 33q2 6 2 16t2 14q10 33 45 62q39 33 82 55q45 27 88 39q47 14 109 10q84 0 131 -18q53 -20 88 -49q37 -31 43 -62q6 -35 -12.5 -69.5t-51.5 -57.5 q-35 -25 -90 -43q-57 -20 -113 -28q-68 -10 -118 -11q-55 -2 -105 11q-47 12 -69 39q-16 12 -23 28q-4 11 -8 31z" />
<glyph unicode="&#x2026;" horiz-adv-x="2306" d="M307 147q4 16 23 33q14 14 39 29l51 27l26.5 11l26.5 11q66 27 113 39q61 14 127 18q43 0 61 -2q25 -2 51 -14q29 -12 39 -20q14 -12 21 -27q18 -29 14 -68t-12 -71q-10 -18 -10 -23q-2 -8 -11 -24q-2 -2 -16 -23q-6 -8 -27 -20q-70 -33 -116 -41q-55 -9 -105 -7 q-76 4 -125 17q-57 14 -94 37q-47 23 -66 53q-18 32 -10 65zM993 150q8 25 18.5 35t35.5 30q18 15 43 31q12 8 24 14l23 12q72 31 108 41q61 16 123 17l68 -6q31 -2 59 -13q14 -4 45 -22q20 -12 31 -29q27 -31 33 -65q6 -39 -11 -74q-6 -29 -37 -58q-29 -27 -79 -45 q-63 -23 -109 -30q-57 -8 -115 -6q-65 -3 -116 12q-47 14 -86 39q-39 27 -54 53q-16 31 -4 64zM1702 84q-4 16 0 33q2 6 2 16t2 14q10 33 45 62q39 33 82 55q45 27 88 39q47 14 109 10q84 0 131 -18q53 -20 88 -49q37 -31 43 -62q6 -35 -12.5 -69.5t-51.5 -57.5 q-35 -25 -90 -43q-57 -20 -113 -28q-68 -10 -118 -11q-55 -2 -105 11q-47 12 -69 39q-16 12 -23 28q-4 11 -8 31z" />
<glyph horiz-adv-x="794" d="M598 1243q-2 33 10 72q12 23 41 37q31 15 68 24t80 13q6 0 35.5 3t44.5 3q51 -10 96 -35q27 -14 65 -53q23 -25 45 -60q25 -41 37 -59l37 -62q18 -33 31 -63q10 -31 14 -66q2 -29 -8 -67q-10 -23 -31 -39q-23 -16 -57 -33q-25 -10 -74 -22q-35 -8 -82 -9q-66 12 -104 35 q-49 29 -72 53q-20 23 -49 64t-43 59q-14 20 -39 66q-16 31 -31 70q-10 30 -14 69z" />
<glyph unicode="&#x2018;" horiz-adv-x="794" d="M598 1243q-2 33 10 72q12 23 41 37q31 15 68 24t80 13q6 0 35.5 3t44.5 3q51 -10 96 -35q27 -14 65 -53q23 -25 45 -60q25 -41 37 -59l37 -62q18 -33 31 -63q10 -31 14 -66q2 -29 -8 -67q-10 -23 -31 -39q-23 -16 -57 -33q-25 -10 -74 -22q-35 -8 -82 -9q-66 12 -104 35 q-49 29 -72 53q-20 23 -49 64t-43 59q-14 20 -39 66q-16 31 -31 70q-10 30 -14 69z" />
<glyph horiz-adv-x="776" d="M500 907q-6 27 2 49q10 29 34.5 64t53.5 63l65 62l70 59q37 23 76 56q31 27 80 57q39 25 92 47q49 20 119 27q55 0 92 -12.5t59 -35.5q18 -18 24.5 -44.5t-1.5 -51.5q-12 -43 -39 -80q-37 -53 -64 -80q-47 -47 -88 -77q-66 -49 -102 -72l-62 -41q-14 -10 -67 -37 q-31 -14 -78 -29q-49 -14 -90 -16q-47 0 -90 14q-41 14 -60 33q-20 20 -26 45z" />
<glyph unicode="&#x2019;" horiz-adv-x="776" d="M500 907q-6 27 2 49q10 29 34.5 64t53.5 63l65 62l70 59q37 23 76 56q31 27 80 57q39 25 92 47q49 20 119 27q55 0 92 -12.5t59 -35.5q18 -18 24.5 -44.5t-1.5 -51.5q-12 -43 -39 -80q-37 -53 -64 -80q-47 -47 -88 -77q-66 -49 -102 -72l-62 -41q-14 -10 -67 -37 q-31 -14 -78 -29q-49 -14 -90 -16q-47 0 -90 14q-41 14 -60 33q-20 20 -26 45z" />
<glyph horiz-adv-x="1480" d="M645 1202q0 37 14 72q10 18 43 34.5t68 24.5q41 10 82 13q43 3 80 6q61 -12 92 -35q37 -27 57 -53q29 -37 41 -58q18 -33 39 -57q4 -10 35 -66q18 -33 33 -65q14 -31 20 -68q8 -41 2 -71q-6 -18 -28 -39q-22 -18 -56 -31q-33 -12 -75 -18q-45 -6 -82 -5q-63 12 -107 37 q-35 20 -72 54q-39 35 -55 61q-18 31 -47 61q-25 33 -41 66q-12 23 -29 68q-14 38 -14 69zM1229 1249q-8 45 0 74q10 23 39 37q23 10 71 22q27 6 82 11q29 2 78 2q61 -12 98 -37t66 -53q18 -18 47 -59.5t43 -59.5l37 -62q18 -31 31 -61q14 -33 16 -66q4 -41 -6 -67 q-12 -20 -37 -39t-57 -31q-43 -14 -76 -20q-39 -6 -82 -6q-59 8 -100 30q-35 18 -66 54q-25 29 -45 61q-20 35 -43 59q-18 35 -39 70q-16 27 -34.5 69.5t-22.5 71.5z" />
<glyph unicode="&#x201c;" horiz-adv-x="1480" d="M645 1202q0 37 14 72q10 18 43 34.5t68 24.5q41 10 82 13q43 3 80 6q61 -12 92 -35q37 -27 57 -53q29 -37 41 -58q18 -33 39 -57q4 -10 35 -66q18 -33 33 -65q14 -31 20 -68q8 -41 2 -71q-6 -18 -28 -39q-22 -18 -56 -31q-33 -12 -75 -18q-45 -6 -82 -5q-63 12 -107 37 q-35 20 -72 54q-39 35 -55 61q-18 31 -47 61q-25 33 -41 66q-12 23 -29 68q-14 38 -14 69zM1229 1249q-8 45 0 74q10 23 39 37q23 10 71 22q27 6 82 11q29 2 78 2q61 -12 98 -37t66 -53q18 -18 47 -59.5t43 -59.5l37 -62q18 -31 31 -61q14 -33 16 -66q4 -41 -6 -67 q-12 -20 -37 -39t-57 -31q-43 -14 -76 -20q-39 -6 -82 -6q-59 8 -100 30q-35 18 -66 54q-25 29 -45 61q-20 35 -43 59q-18 35 -39 70q-16 27 -34.5 69.5t-22.5 71.5z" />
<glyph horiz-adv-x="1425" d="M524 903q-6 27 2 49q12 33 35 66q14 20 55 61q31 31 68 62l74 59l76 57q20 16 81 56q33 20 97 47q52 22 116 31q66 4 97 -7q41 -12 59 -30q20 -20 24.5 -47t-8.5 -50q-35 -90 -112 -167q-82 -82 -193 -154l-59 -39q-20 -12 -66 -37q-23 -12 -75 -29q-27 -8 -86 -12 q-61 0 -95 10q-40 12 -61 31q-23 20 -29 43zM1063 831q3 12 18 25l31 25q31 20 59 47q18 16 52 49q31 35 98 98q45 43 96 101q37 27 51 41q35 31 56 43q25 14 71 32q33 12 88 17q53 0 94.5 -12.5t61.5 -32.5q23 -23 29 -45q6 -27 -2 -50q-12 -43 -39 -82q-33 -47 -66 -79 q-47 -47 -88 -78q-66 -49 -104 -72q-33 -18 -66 -39q-14 -10 -69 -37q-37 -18 -80 -30q-57 -16 -88 -19q-41 0 -82 6q-37 6 -70 21q-28 12 -43 31q-16 20 -8 40z" />
<glyph unicode="&#x201d;" horiz-adv-x="1425" d="M524 903q-6 27 2 49q12 33 35 66q14 20 55 61q31 31 68 62l74 59l76 57q20 16 81 56q33 20 97 47q52 22 116 31q66 4 97 -7q41 -12 59 -30q20 -20 24.5 -47t-8.5 -50q-35 -90 -112 -167q-82 -82 -193 -154l-59 -39q-20 -12 -66 -37q-23 -12 -75 -29q-27 -8 -86 -12 q-61 0 -95 10q-40 12 -61 31q-23 20 -29 43zM1063 831q3 12 18 25l31 25q31 20 59 47q18 16 52 49q31 35 98 98q45 43 96 101q37 27 51 41q35 31 56 43q25 14 71 32q33 12 88 17q53 0 94.5 -12.5t61.5 -32.5q23 -23 29 -45q6 -27 -2 -50q-12 -43 -39 -82q-33 -47 -66 -79 q-47 -47 -88 -78q-66 -49 -104 -72q-33 -18 -66 -39q-14 -10 -69 -37q-37 -18 -80 -30q-57 -16 -88 -19q-41 0 -82 6q-37 6 -70 21q-28 12 -43 31q-16 20 -8 40z" />
<glyph horiz-adv-x="1247" d="M475 625q0 51 23 102q8 35 37 76q28 40 73 74q55 41 107 63q78 35 131 51q71 22 147 31q78 10 158 6q98 0 168 -20q72 -20 127 -54q35 -27 45 -34q20 -18 33 -39q10 -18 14 -43t-4 -43q-20 -72 -80 -136q-66 -68 -162 -120q-51 -31 -106 -52q-74 -27 -123 -38 q-63 -14 -133 -25q-59 -8 -135 -8q-111 2 -185 35q-70 31 -102.5 76t-32.5 98z" />
<glyph unicode="&#x2022;" horiz-adv-x="1247" d="M475 625q0 51 23 102q8 35 37 76q28 40 73 74q55 41 107 63q78 35 131 51q71 22 147 31q78 10 158 6q98 0 168 -20q72 -20 127 -54q35 -27 45 -34q20 -18 33 -39q10 -18 14 -43t-4 -43q-20 -72 -80 -136q-66 -68 -162 -120q-51 -31 -106 -52q-74 -27 -123 -38 q-63 -14 -133 -25q-59 -8 -135 -8q-111 2 -185 35q-70 31 -102.5 76t-32.5 98z" />
<glyph horiz-adv-x="1445" d="M496 705q20 23 57 43q25 14 78 28q31 8 92 17q63 8 100 10q66 4 99 4q37 0 94 4q39 -2 110 -2q18 0 55.5 -1t57.5 -1q59 0 92 -2l99 -6q61 -8 92 -15q53 -12 75 -22q35 -16 48 -35q16 -25 12 -47q-18 -27 -41 -41q-16 -12 -64 -31q-29 -12 -77 -22q-29 -6 -84 -11 l-342 -6q-227 -4 -340 -2q-53 4 -93 15q-49 14 -65 30q-35 20 -49 41q-14 25 -6 52z" />
<glyph unicode="&#x2013;" horiz-adv-x="1445" d="M496 705q20 23 57 43q25 14 78 28q31 8 92 17q63 8 100 10q66 4 99 4q37 0 94 4q39 -2 110 -2q18 0 55.5 -1t57.5 -1q59 0 92 -2l99 -6q61 -8 92 -15q53 -12 75 -22q35 -16 48 -35q16 -25 12 -47q-18 -27 -41 -41q-16 -12 -64 -31q-29 -12 -77 -22q-29 -6 -84 -11 l-342 -6q-227 -4 -340 -2q-53 4 -93 15q-49 14 -65 30q-35 20 -49 41q-14 25 -6 52z" />
<glyph horiz-adv-x="2230" d="M512 655q-14 20 0 47q41 39 104 60q53 18 142 29q98 12 151 14q76 4 148 6h237h238h231q78 0 234 -4q61 0 94 -2q70 -4 100 -8q88 -10 95 -13q35 -6 77 -22q33 -12 56 -35q20 -20 20 -45q-10 -27 -37 -43q-29 -20 -65 -31q-27 -8 -84 -20q-29 -6 -86 -10l-160 -7l-158 -6 q-121 -6 -368 -14q-4 0 -365 -6q-123 0 -182 4q-88 6 -174 18q-72 12 -111 21q-39 10 -86 28q-33 14 -51 39z" />
<glyph unicode="&#x2014;" horiz-adv-x="2230" d="M512 655q-14 20 0 47q41 39 104 60q53 18 142 29q98 12 151 14q76 4 148 6h237h238h231q78 0 234 -4q61 0 94 -2q70 -4 100 -8q88 -10 95 -13q35 -6 77 -22q33 -12 56 -35q20 -20 20 -45q-10 -27 -37 -43q-29 -20 -65 -31q-27 -8 -84 -20q-29 -6 -86 -10l-160 -7l-158 -6 q-121 -6 -368 -14q-4 0 -365 -6q-123 0 -182 4q-88 6 -174 18q-72 12 -111 21q-39 10 -86 28q-33 14 -51 39z" />
<glyph horiz-adv-x="2490" d="M715 1272q0 18 4 28q8 12 28.5 24.5t47.5 18.5q29 8 55 11q37 4 53 4q139 4 211 8l209 12q27 0 84 3t86 5l168 7q55 0 86 -11q39 -14 59 -32q25 18 64 28q41 10 76 11q61 0 106 -23q39 -20 53 -51q33 -57 52 -115q14 -43 28 -119l80 82q47 47 88 78q28 22 49 43 q23 23 47 41q23 16 54 31q25 10 67 14q45 0 72 -8q25 -8 51 -23q22 -12 37 -30q4 -6 14.5 -16.5t14.5 -16.5q12 -20 30 -74q12 -35 2 -76l-22 -67q-4 -6 -10 -17.5t-11 -17.5q-12 -25 -16 -37t-4 -37q0 -16 -6 -35l-4 -12t-4 -14t-4 -12l-13 -37q-6 -18 -14 -35 q-9 -18 -25 -37q-10 -18 -28 -33l-41 -28q-23 -16 -52 -25q-27 -8 -65 -14q-34 -3 -62 0q-20 2 -45 14q-20 10 -28 24.5t-6 28.5q0 27 10 58q8 27 22 57q23 47 27 65q4 14 23 66q-43 -35 -84 -72l-84 -71.5t-97 -69.5q-51 -33 -114 -57q-63 0 -90 20q-29 23 -35 49 q-12 41 -15 66q-2 23 -10 63l-6 -12q-4 -14 -8 -35q-2 -6 -2 -17t-2 -18l-11 -32q-2 -14 -12 -33q-8 -25 -20 -39q-14 -16 -43 -35q-31 -18 -62 -26q-43 -10 -78 -9q-43 0 -67 9q-31 10 -43 22q-23 20 -25 31q-8 25 -8 35q2 14 9 40.5t10 34.5q12 53 24 78q31 92 64 166 q37 83 92 166q-92 -16 -144 -21q-78 -6 -139 -4l-106 -202q-47 -90 -95 -203l-6 -19q-2 -4 -5 -8t-5 -8q-4 -6 -14.5 -17.5t-14.5 -15.5q-10 -12 -22 -22q-4 -4 -7 -6t-7.5 -4.5t-10.5 -6.5q-8 -6 -28 -18q-2 -2 -35 -12q-18 -6 -41 -6q-41 0 -78 6q-33 6 -59 18 q-25 12 -37.5 30.5t-5.5 37.5q16 53 20 65q14 41 31 68l37 67q6 12 32 70l33 92q18 53 21 92h-117q-20 0 -59 -1t-58 -1q-18 2 -35 15q-12 10 -16 22q-10 15 -10 29z" />
<glyph unicode="&#x2122;" horiz-adv-x="2490" d="M715 1272q0 18 4 28q8 12 28.5 24.5t47.5 18.5q29 8 55 11q37 4 53 4q139 4 211 8l209 12q27 0 84 3t86 5l168 7q55 0 86 -11q39 -14 59 -32q25 18 64 28q41 10 76 11q61 0 106 -23q39 -20 53 -51q33 -57 52 -115q14 -43 28 -119l80 82q47 47 88 78q28 22 49 43 q23 23 47 41q23 16 54 31q25 10 67 14q45 0 72 -8q25 -8 51 -23q22 -12 37 -30q4 -6 14.5 -16.5t14.5 -16.5q12 -20 30 -74q12 -35 2 -76l-22 -67q-4 -6 -10 -17.5t-11 -17.5q-12 -25 -16 -37t-4 -37q0 -16 -6 -35l-4 -12t-4 -14t-4 -12l-13 -37q-6 -18 -14 -35 q-9 -18 -25 -37q-10 -18 -28 -33l-41 -28q-23 -16 -52 -25q-27 -8 -65 -14q-34 -3 -62 0q-20 2 -45 14q-20 10 -28 24.5t-6 28.5q0 27 10 58q8 27 22 57q23 47 27 65q4 14 23 66q-43 -35 -84 -72l-84 -71.5t-97 -69.5q-51 -33 -114 -57q-63 0 -90 20q-29 23 -35 49 q-12 41 -15 66q-2 23 -10 63l-6 -12q-4 -14 -8 -35q-2 -6 -2 -17t-2 -18l-11 -32q-2 -14 -12 -33q-8 -25 -20 -39q-14 -16 -43 -35q-31 -18 -62 -26q-43 -10 -78 -9q-43 0 -67 9q-31 10 -43 22q-23 20 -25 31q-8 25 -8 35q2 14 9 40.5t10 34.5q12 53 24 78q31 92 64 166 q37 83 92 166q-92 -16 -144 -21q-78 -6 -139 -4l-106 -202q-47 -90 -95 -203l-6 -19q-2 -4 -5 -8t-5 -8q-4 -6 -14.5 -17.5t-14.5 -15.5q-10 -12 -22 -22q-4 -4 -7 -6t-7.5 -4.5t-10.5 -6.5q-8 -6 -28 -18q-2 -2 -35 -12q-18 -6 -41 -6q-41 0 -78 6q-33 6 -59 18 q-25 12 -37.5 30.5t-5.5 37.5q16 53 20 65q14 41 31 68l37 67q6 12 32 70l33 92q18 53 21 92h-117q-20 0 -59 -1t-58 -1q-18 2 -35 15q-12 10 -16 22q-10 15 -10 29z" />
<glyph unicode="&#xa2;" horiz-adv-x="1677" d="M358 567q-25 70 2 142q27 74 109 149q88 82 184 139q41 27 115 64q47 23 129 53q66 25 145 43q78 18 158 25q4 10 10.5 22.5t12.5 22.5l18 45l10.5 20.5t14.5 24.5q18 25 41 45l24 20q2 0 11.5 8.5t15.5 12.5q20 12 32.5 16t45.5 8q51 0 77 -2q33 -2 72 -14 q33 -10 53.5 -24.5t26.5 -36.5q12 -37 6 -76q-2 -18 -6 -39l-8 -41q117 -20 186 -49q78 -33 135 -82q49 -35 86 -92q33 -51 17 -107q-2 -18 -22.5 -40.5t-47.5 -37.5q-31 -16 -69 -24q-47 -10 -87 -8q-61 0 -114 16q-51 16 -72 43l-12 25q-12 25 -21 34l-34 56l-27 -90 q-12 -46 -31 -93l-41 -104l-45 -102q74 27 131 39q78 18 144 20q37 2 75 -10q27 -8 41 -27q14 -16 14.5 -38.5t-8.5 -39.5q-20 -39 -75 -71q-51 -31 -121 -56q-66 -25 -146 -43q-74 -18 -151 -30q-8 -14 -14.5 -28.5t-10.5 -29.5l-43 -80q-23 -37 -63 -77l-35 -35 q-16 -16 -43 -33q-25 -16 -57 -29q-33 -14 -72 -16q-43 0 -63 2q-27 2 -58 14q-25 8 -41 23q-18 14 -20 31q-2 29 4 65l14 70l12 53l13 57q-141 23 -248 68q-119 51 -180 104q-76 62 -99 125zM834 674q-6 -23 2 -43q8 -18 26 -37q20 -20 43 -35l51 -31l70 185l72 184 l-86 -51l-78 -53q-45 -33 -64 -58q-24 -30 -36 -61z" />
<glyph unicode="&#xa3;" horiz-adv-x="2453" d="M430 760q-12 23 2 49q22 25 55 43q27 14 76 29q43 12 92 18q63 8 101 10q16 0 49 2t49 2t46 1t44 4q35 78 90 155l117 154q57 39 121 59q71 22 147 37q31 6 160 20l74.5 7.5t81.5 9.5q172 16 340 18q197 4 338 -4q68 -4 98 -12q46 -12 80 -31q35 -20 49 -41q14 -23 8 -51 q-4 -23 -18 -37q-18 -18 -45 -31q-31 -14 -64 -22q-23 -6 -72 -10q-82 -6 -163 -6q-106 0 -162 2h-103q-35 0 -108 -5q-37 -2 -106.5 -14t-100.5 -22q-51 -16 -82 -35q-37 -22 -61 -49q-20 -20 -35 -45q-18 -35 -31 -47h96q49 0 99 -7q61 -8 92 -14q43 -9 73.5 -24.5 t43.5 -36.5q14 -25 2 -52q-4 -16 -25 -36q-14 -14 -47 -33q-25 -14 -68 -25q-25 -6 -75 -10q-18 0 -50 -2t-59 -3t-49 -1q-106 0 -160 -2q-29 -66 -41 -97l-37 -94q-16 -45 -20 -94q-2 -43 10 -92q176 31 272 55l267 66q145 37 270 59q158 29 279 31q43 2 96 -4 q61 -8 90 -17q45 -14 67 -28q27 -16 35 -41q2 -2 2 -8q1 -3 2 -7q-68 -49 -159 -86q-68 -27 -195 -65q-101 -31 -209 -55q-39 -8 -209 -56l-217 -49q-131 -31 -219 -47q-143 -29 -223 -39q-111 -14 -225 -18q-27 0 -72 4t-66 8q-37 6 -57 14q-27 8 -45 25q-20 12 -33 26 q-10 14 -18 33l-13 33l-6 17.5l-6 17.5q-12 66 -8 145q2 70 29 148q18 63 39 108l51 107h-92h-93q-63 4 -90 12q-39 12 -59 33q-25 18 -37 43z" />
<glyph unicode="&#xa5;" horiz-adv-x="1986" d="M381 274q23 37 72 56q57 20 116 28q43 6 136 11q39 2 70.5 4t53.5 2q14 23 33 39q2 2 33 39q-37 2 -113 2q-35 0 -112 4q-47 0 -88 12q-39 12 -63.5 30.5t-35.5 41.5q-10 25 -2 47q8 25 37 41q33 18 70 31q31 10 86 20q18 4 51 8t37 4q-35 76 -53 137q-14 47 -27 142v67 q0 34 6 68q4 23 17 68q10 37 26 67q12 25 27 39q23 23 45 35q25 14 63 26q33 10 78 15q33 4 92 0q39 -2 74 -17q33 -12 53.5 -30.5t26.5 -38.5q0 -16 1 -49t1 -47q0 -63 2 -97l16 -75l19 -76q6 -25 26 -74q18 -43 39 -72q53 43 152 115l158 115l155 108l150 109q23 12 67 49 q29 23 70 45q39 20 90 33q57 14 105 8q59 -2 102 -18q45 -16 67 -39q27 -27 35.5 -51.5t-2.5 -55.5q-10 -20 -26 -37q-12 -12 -41 -37q-8 -8 -25.5 -20t-21.5 -14l-50 -33l-120 -74q-98 -59 -121 -74l-158 -104q-86 -55 -147 -107q49 -2 106 -12q53 -8 94 -24q37 -14 58 -41 q18 -25 0 -58q-6 -25 -35 -47q-27 -20 -72 -37q-47 -16 -92 -22q-49 -6 -98 -6q-86 0 -250 -4l-43 -41l-41 -43h94h90q4 0 96 -7q47 -4 91 -12q51 -10 71 -22q29 -16 39 -35q12 -20 -4 -49q-14 -27 -45 -47q-29 -18 -76 -35q-29 -10 -94 -23q-31 -6 -98 -10q-57 -2 -170 -2 q-29 0 -85.5 -1t-84.5 -1q-18 -31 -45 -51q-25 -20 -72 -45q-29 -14 -90 -31q-45 -12 -109 -8q-57 0 -96 12q-35 10 -59.5 34.5t-26.5 47.5q-4 31 6 51q-37 0 -53 2q-33 4 -53 4q-55 4 -90 14.5t-68 32.5q-27 18 -39 41q-14 26 -8 49z" />
<glyph unicode="&#xa9;" horiz-adv-x="2783" d="M379 379q-18 57 2 115q18 68 68 139q53 76 120 135q72 63 168 125q86 55 207 113q100 51 234 100q106 39 262 78q127 33 278 51q137 18 287 14q137 0 264 -18q119 -16 230 -53q98 -31 188 -82q82 -47 139 -103q127 -111 154 -241q29 -133 -33 -267q-20 -55 -72 -108 q-49 -53 -122 -101q-90 -59 -160 -90q-89 -40 -191 -73q-199 -66 -422 -101q-215 -33 -442 -32q-240 -4 -442 32q-205 37 -379 103q-84 31 -156 71q-70 39 -117 90q-49 52 -65 103zM848 485q-14 -35 2 -69q14 -33 51 -60q33 -25 84 -47q45 -20 107 -37q117 -34 251 -49 q143 -16 281 -16q139 0 266 14q133 14 260 49q57 14 117 37q61 23 100 49q41 27 72 58q29 29 41 63q20 49 29 94q9 46 6 93q-4 47 -18.5 90t-47.5 84q-25 41 -75 75q-57 39 -119 61.5t-152 39.5q-66 12 -176 12q-100 0 -198.5 -12.5t-190.5 -36.5q-102 -27 -176 -57 q-98 -39 -152 -72q-152 -78 -241 -170q-94 -97 -121 -193zM969 553q14 45 49 80q37 37 86 72q55 39 113 67q70 35 126 59q53 23 142 52q72 25 151 43q100 25 160 30q92 10 164 11q41 0 119 -9q53 -6 104 -24q43 -14 70 -41q25 -25 12 -57q-6 -27 -32.5 -47.5t-65.5 -38.5 q-37 -16 -86 -27q-51 -10 -94 -10q-41 4 -61.5 8t-61.5 8q-70 -4 -127 -24l-115 -43l-49 -25q-20 -10 -49 -27q-20 -12 -41 -28.5t-29 -30.5q-8 -16 0 -29q10 -14 31 -20q27 -8 49 -10q18 -2 57 -3q14 2 39 2.5t39 2.5q40 3 80 12q66 10 152 14q51 0 86 -8q31 -6 65 -27 q27 -14 37 -38.5t0 -45.5q-10 -23 -29 -39q-20 -16 -51 -32q-31 -15 -67 -25q-53 -12 -74 -16q-86 -14 -180 -25q-98 -10 -179 -10q-133 0 -237 20q-113 23 -191 64q-80 41 -106 96q-29 56 -6 119z" />
<glyph unicode="&#xad;" d="M475 678q-4 12 2 27q39 37 103 59q63 20 141 31q74 9 153 12q25 0 74 1t72 3h90q59 0 90 -2q16 0 45 -1t45 -1h92q61 0 180 -4t179 -8q57 -8 84 -15q49 -12 71 -22q35 -16 48 -35q14 -20 6 -45q-10 -16 -43 -39q-25 -16 -68 -33q-27 -10 -84 -22q-29 -6 -86 -11 q-215 -8 -483 -8q-119 0 -240 1t-241 1q-104 8 -164 45q-4 2 -14.5 10.5t-14.5 10.5q-14 8 -25 22q-10 13 -12 23z" />
<glyph unicode="&#xae;" horiz-adv-x="2920" d="M406 483q0 66 20 125q23 74 78 142q57 70 135 133q80 65 184 123q113 63 221 108q98 45 246 94q127 43 269 74q145 33 284 47q160 16 287 14q154 0 268 -16q133 -18 236 -51q115 -37 196 -80q84 -45 148 -102q70 -59 106 -117q39 -61 56 -127q16 -68 10 -133 q-6 -68 -35 -137q-25 -66 -82 -125q-55 -57 -137 -115q-68 -47 -182 -102q-104 -51 -211 -86q20 -16 26 -31q6 -18 -6 -39q-8 -20 -31 -35q-29 -18 -59 -27q-45 -12 -72 -16q-39 -6 -75 -6h-70q-23 0 -68 4q-41 4 -63 8q-29 6 -57 17q-147 -25 -267 -35q-135 -12 -266 -12 q-125 0 -248 12q-129 12 -231 33q-109 20 -205 55q-98 35 -170 80q-80 45 -129 94q-52 52 -80 111q-26 55 -26 118zM877 512q0 -49 18 -92t61 -80q47 -41 113 -64q8 14 29 60l24 59q25 35 35 62q16 41 23 61q14 37 22 94q4 31 17 93l24 92q10 41 35 92q8 29 12 33 q8 16 27 32q-84 -35 -151.5 -73.5t-125.5 -85.5q-68 -55 -94 -93q-39 -51 -53 -98q-16 -49 -16 -92zM1473 211q16 -2 51 -2h53h68q23 0 67 4l-48 34.5t-40 28.5q-51 37 -111 58q-8 -16 -10 -23l-4 -8t-4 -10l-4 -19q-8 -29 -10 -32q-2 -17 -8 -31zM1534 1036q113 12 225 13 q37 0 111 1t112 1q86 -4 129 -4q63 0 127 -7q49 -4 123 -16q59 -10 109 -27q55 -18 82 -41q29 -25 43 -57q14 -35 14 -63q0 -35 -12 -66q-8 -29 -33 -51q-27 -27 -57 -49q-39 -29 -74 -47l-80 -43q-106 -47 -184 -78q-88 -35 -207 -58q31 -29 96 -82l103 -79q90 23 172 53 q84 33 145.5 67.5t108.5 81.5q43 43 59 93q20 61 27 92q10 51 10 92t-14 90q-14 47 -43 86q-28 40 -80 74q-55 35 -121 59.5t-154 36.5q-100 14 -178 12q-137 2 -285 -22q-143 -25 -274 -62zM1616 608q76 2 172 17q80 12 164 34q70 20 129 62q49 35 63 80q2 14 -16 20 q-23 6 -47 6q-70 0 -102.5 -2t-102.5 -2q-66 -4 -100 -4q-18 0 -51 -1t-50 -1l-30 -10v-4q-2 -8 -3 -23v-22q-16 -31 -22 -74q-4 -25 -4 -76z" />
<glyph unicode="&#xb4;" horiz-adv-x="675" d="M721 1497l5 14.5t3 12.5q3 12 12 24q23 39 72 82q37 33 102 76l54 35q18 12 63 33q27 12 72 22t82 10q29 0 69 -8q25 -4 52 -20q18 -10 28 -31q6 -14 0 -35q-4 -16 -14 -26.5t-16 -26.5l-78 -78q-39 -39 -102.5 -76t-133.5 -57q-78 -23 -166 -23q-27 0 -47 7 q-12 4 -37 18q-10 6 -18 23q-6 10 -2 24z" />
<glyph unicode="&#x2000;" horiz-adv-x="901" />
<glyph unicode="&#x2001;" horiz-adv-x="1806" />
<glyph unicode="&#x2002;" horiz-adv-x="901" />
<glyph unicode="&#x2003;" horiz-adv-x="1806" />
<glyph unicode="&#x2004;" horiz-adv-x="600" />
<glyph unicode="&#x2005;" horiz-adv-x="450" />
<glyph unicode="&#x2006;" horiz-adv-x="299" />
<glyph unicode="&#x2007;" horiz-adv-x="299" />
<glyph unicode="&#x2008;" horiz-adv-x="223" />
<glyph unicode="&#x2009;" horiz-adv-x="360" />
<glyph unicode="&#x200a;" horiz-adv-x="98" />
<glyph unicode="&#x2010;" d="M475 678q-4 12 2 27q39 37 103 59q63 20 141 31q74 9 153 12q25 0 74 1t72 3h90q59 0 90 -2q16 0 45 -1t45 -1h92q61 0 180 -4t179 -8q57 -8 84 -15q49 -12 71 -22q35 -16 48 -35q14 -20 6 -45q-10 -16 -43 -39q-25 -16 -68 -33q-27 -10 -84 -22q-29 -6 -86 -11 q-215 -8 -483 -8q-119 0 -240 1t-241 1q-104 8 -164 45q-4 2 -14.5 10.5t-14.5 10.5q-14 8 -25 22q-10 13 -12 23z" />
<glyph unicode="&#x2011;" d="M475 678q-4 12 2 27q39 37 103 59q63 20 141 31q74 9 153 12q25 0 74 1t72 3h90q59 0 90 -2q16 0 45 -1t45 -1h92q61 0 180 -4t179 -8q57 -8 84 -15q49 -12 71 -22q35 -16 48 -35q14 -20 6 -45q-10 -16 -43 -39q-25 -16 -68 -33q-27 -10 -84 -22q-29 -6 -86 -11 q-215 -8 -483 -8q-119 0 -240 1t-241 1q-104 8 -164 45q-4 2 -14.5 10.5t-14.5 10.5q-14 8 -25 22q-10 13 -12 23z" />
<glyph unicode="&#x2012;" d="M475 678q-4 12 2 27q39 37 103 59q63 20 141 31q74 9 153 12q25 0 74 1t72 3h90q59 0 90 -2q16 0 45 -1t45 -1h92q61 0 180 -4t179 -8q57 -8 84 -15q49 -12 71 -22q35 -16 48 -35q14 -20 6 -45q-10 -16 -43 -39q-25 -16 -68 -33q-27 -10 -84 -22q-29 -6 -86 -11 q-215 -8 -483 -8q-119 0 -240 1t-241 1q-104 8 -164 45q-4 2 -14.5 10.5t-14.5 10.5q-14 8 -25 22q-10 13 -12 23z" />
<glyph unicode="&#x202f;" horiz-adv-x="360" />
<glyph unicode="&#x205f;" horiz-adv-x="450" />
<glyph unicode="&#x20ac;" horiz-adv-x="2385" d="M319 510q12 29 56 51q39 20 98 33q55 12 117 18q39 4 112 9l17 32q10 18 12 35h-43h-41q-57 0 -90 10q-47 14 -65 29q-23 16 -33 41q-10 23 2 47q23 39 74 59q55 23 118 35q82 16 138 21q45 4 131 8q78 82 192 164q102 74 258 145q100 45 146 60q84 27 163.5 43t171.5 26 q89 9 172 6q70 0 156 -14q76 -12 139 -31q49 -14 119 -45q51 -23 101 -55q18 -10 83 -61q35 -27 66 -68q29 -39 37 -74q9 -40 0 -80q-4 -29 -23 -51q-20 -23 -55 -45q-25 -14 -82 -31q-47 -12 -102 -6q-35 -2 -76 4t-66 15q-35 10 -51 22q-25 18 -35 33l-24 31q-4 4 -21 32 q-4 8 -10 15.5t-10 15.5q-16 29 -21 33q-16 29 -69 51q-43 18 -119 23q-70 0 -121 -15q-55 -15 -104 -37q-47 -20 -88 -49l-74 -53h20q46 3 99 0q66 -4 100 -8q49 -6 92 -19q51 -14 72 -28q27 -18 39 -39q14 -23 0 -53q-6 -28 -37 -50q-31 -23 -80 -34q-47 -12 -100 -19 q-61 -6 -103 -4h-157h-160q-4 -6 -10.5 -17.5t-8.5 -17.5t-10 -17t-10 -18q14 -2 41 -2h43q61 0 96 -2q96 -6 101 -6q37 -4 92 -16q43 -8 73 -27q25 -14 39 -39q12 -23 -2 -53q-6 -18 -26 -37q-18 -14 -52 -28q-37 -14 -67 -23q-25 -6 -76 -10q-72 -8 -158 -8h-159 q0 -14 6 -33q6 -23 20 -35q16 -16 37 -25q33 -12 64 -12q39 0 120.5 4t122.5 8q45 4 121 21q61 12 115 31q25 8 80 30q49 18 86 29q39 14 88 18q10 0 29.5 2.5t35 3.5t27.5 1q61 4 88 -7q37 -14 51 -30q16 -20 15 -45q-4 -25 -21 -45q-4 -18 -6 -21q-2 -4 -7 -10t-7 -8 q-23 -27 -76 -58q-45 -27 -103 -49q-59 -23 -118 -41l-121 -35q-164 -41 -248 -55q-139 -25 -256 -26q-80 0 -154 6q-68 6 -141 22q-66 14 -125 37q-49 18 -100 51q-89 58 -141 129q-53 72 -66 150q-27 2 -76 2q-51 0 -76 2q-59 0 -94 10q-45 12 -71 31q-33 23 -43 41 q-13 22 -3 49z" />
<glyph unicode="&#xe000;" horiz-adv-x="1370" d="M0 1370h1370v-1370h-1370v1370z" />
<glyph unicode="&#xfb01;" horiz-adv-x="2633" d="M2112 158q-1 15 -1 28q0 40 7 84q8 47 29 115q41 123 67 193q43 119 74 192l76 191l80 190q31 53 38 68q16 29 58 63q29 29 35 33l45 31q25 15 55 24q37 10 70 16q19 1 34 2q25 0 45 -4q45 -8 68 -16q31 -12 51 -27q23 -16 35 -34q18 -34 19 -74q0 -47 -13 -76l-41 -110 l-45 -109q-8 -25 -49 -115q-20 -47 -45 -112q-25 -68 -35 -123q-14 -70 -28 -119l-29 -115q-12 -53 -37 -112q-16 -45 -45 -78q-49 -59 -70 -78q-10 -10 -43 -35q-25 -18 -57 -35q-29 -14 -70 -24q-37 -9 -80 -12q-43 0 -59 4q-33 8 -47 14q-25 10 -37 20q-10 8 -27 25 q-14 23 -22 55q-2 10 -4 34t-2 26zM367 156q-2 14 -3 27q0 23 7 48q16 47 20 52q14 20 25 51l45 98q14 27 41 100l16 51.5l14.5 44t14.5 52.5q27 90 47 145l55 144q31 78 64 141q9 12 12 25q4 16 10 24q16 23 49 45q25 16 68 37q39 18 84 31q53 14 90 22l193 25 q74 10 190 20q90 12 154 17l149 12l146 6q31 1 58 2l83 -4q66 -6 115 -24q53 -20 84 -45l36 -25q10 -8 27 -29q12 -15 18 -30q3 -8 4 -19q0 -6 -2 -14q-6 -20 -28 -31q-20 -10 -58 -20q-33 -8 -71 -13q-49 -4 -70 -4q-70 0 -217 -4q-74 -2 -221 -10l-54 -6t-44 -6 q-52 -6 -99 -19q-61 -16 -88 -29q-40 -18 -67 -43q-35 -35 -60 -71q-23 -33 -35 -72q51 6 107 6q35 0 104.5 4t106.5 4q12 0 35 0.5t34 0.5l35 -1q20 0 40 -1t42 -1q29 0 82 -4q8 0 78 -12q37 -6 68 -18q33 -12 51 -29q16 -12 26 -35q6 -12 7 -41q0 -18 -11 -43 q-2 -12 -18 -29q-12 -12 -41 -26q-23 -10 -53 -21q-18 -6 -64 -10q-90 -4 -133 -4h-131q-39 -2 -121 -2q-43 0 -125 -4t-123 -10q-61 -10 -116 -27q-45 -82 -68 -143l-51 -146q-18 -61 -31 -88q-22 -43 -49 -86q-20 -27 -37 -39q-16 -14 -53 -33q-27 -12 -70 -20 q-26 -4 -48 -4q-16 0 -32 2q-88 6 -135 29q-51 25 -78 57q-24 29 -30 72z" />
<glyph unicode="&#xfb02;" horiz-adv-x="3477" d="M2136 254q-1 6 0 13q0 10 2 30q4 29 9 43q14 51 43 111q14 31 29.5 59.5l27.5 52.5l61 117l58 117q12 35 28.5 100.5t26.5 99.5q10 43 31 97l39 98q6 18 37 57q25 29 65 56q33 20 92 41q43 14 119 22q25 2 48 2q40 0 71 -6q43 -8 76 -29q31 -18 43 -47q10 -25 14 -55 q2 -25 -4 -59q-4 -20 -21 -54q-35 -88 -82 -168l-98 -170l-92 -170q-59 -121 -78 -170q-12 -37 -20 -88q-8 -57 -9 -88q162 10 306 39l297 66l67.5 15t65.5 15q59 14 139 21q20 2 41 2q27 0 63 -4q49 -6 86 -23q33 -14 45 -41q4 -7 4 -15q0 -17 -16 -40q-35 -43 -96 -78 q-59 -33 -139 -61q-74 -27 -164 -49l-164 -43q-115 -25 -174 -35q-127 -23 -176 -29q-59 -8 -178 -16q-45 -3 -88 -3t-86 3q-31 2 -92.5 10t-88.5 14q-40 9 -73 25q-41 18 -58 35q-31 43 -37 86q-2 18 -2 39q0 20 2 55zM367 156q-2 14 -3 27q0 23 7 48q16 47 20 52 q14 20 25 51l45 98q14 27 41 100l16 51.5l14.5 44t14.5 52.5q27 90 47 145l55 144q31 78 64 141q9 12 12 25q4 16 10 24q16 23 49 45q25 16 68 37q39 18 84 31q53 14 90 22l193 25q74 10 190 20q90 12 154 17l149 12l146 6q31 1 58 2l83 -4q66 -6 115 -24q53 -20 84 -45 l36 -25q10 -8 27 -29q12 -15 18 -30q3 -8 4 -19q0 -6 -2 -14q-6 -20 -28 -31q-20 -10 -58 -20q-33 -8 -71 -13q-49 -4 -70 -4q-70 0 -217 -4q-74 -2 -221 -10l-54 -6t-44 -6q-52 -6 -99 -19q-61 -16 -88 -29q-40 -18 -67 -43q-35 -35 -60 -71q-23 -33 -35 -72q51 6 107 6 q35 0 104.5 4t106.5 4q12 0 35 0.5t34 0.5l35 -1q20 0 40 -1t42 -1q29 0 82 -4q8 0 78 -12q37 -6 68 -18q33 -12 51 -29q16 -12 26 -35q6 -12 7 -41q0 -18 -11 -43q-2 -12 -18 -29q-12 -12 -41 -26q-23 -10 -53 -21q-18 -6 -64 -10q-90 -4 -133 -4h-131q-39 -2 -121 -2 q-43 0 -125 -4t-123 -10q-61 -10 -116 -27q-45 -82 -68 -143l-51 -146q-18 -61 -31 -88q-22 -43 -49 -86q-20 -27 -37 -39q-16 -14 -53 -33q-27 -12 -70 -20q-26 -4 -48 -4q-16 0 -32 2q-88 6 -135 29q-51 25 -78 57q-24 29 -30 72z" />
<glyph unicode="&#xfb03;" horiz-adv-x="4370" d="M3848 158q-1 15 -1 28q0 40 7 84q8 47 29 115q41 123 67 193q43 119 74 192l76 191l80 190q31 53 38 68q16 29 58 63q29 29 35 33l45 31q25 15 55 24q37 10 70 16q19 1 34 2q25 0 45 -4q45 -8 68 -16q31 -12 51 -27q23 -16 35 -34q18 -34 19 -74q0 -47 -13 -76l-41 -110 l-45 -109q-8 -25 -49 -115q-20 -47 -45 -112q-25 -68 -35 -123q-14 -70 -28 -119l-29 -115q-12 -53 -37 -112q-16 -45 -45 -78q-49 -59 -70 -78q-10 -10 -43 -35q-25 -18 -57 -35q-29 -14 -70 -24q-37 -9 -80 -12q-43 0 -59 4q-33 8 -47 14q-25 10 -37 20q-10 8 -27 25 q-14 23 -22 55q-2 10 -4 34t-2 26zM2104 156q-2 14 -3 27q0 23 7 48q16 47 20 52q14 20 25 51l45 98q14 27 41 100l16 51.5l14.5 44t14.5 52.5q27 90 47 145l55 144q31 78 64 141q9 12 12 25q4 16 10 24q16 23 49 45q25 16 68 37q39 18 84 31q53 14 90 22l193 25 q74 10 190 20q90 12 154 17l149 12l146 6q31 1 58 2l83 -4q66 -6 115 -24q53 -20 84 -45l36 -25q10 -8 27 -29q12 -15 18 -30q3 -8 4 -19q0 -6 -2 -14q-6 -20 -28 -31q-20 -10 -58 -20q-33 -8 -71 -13q-49 -4 -70 -4q-70 0 -217 -4q-74 -2 -221 -10l-54 -6t-44 -6 q-52 -6 -99 -19q-61 -16 -88 -29q-40 -18 -67 -43q-35 -35 -60 -71q-23 -33 -35 -72q51 6 107 6q35 0 104.5 4t106.5 4q12 0 35 0.5t34 0.5l35 -1q20 0 40 -1t42 -1q29 0 82 -4q8 0 78 -12q37 -6 68 -18q33 -12 51 -29q16 -12 26 -35q6 -12 7 -41q0 -18 -11 -43 q-2 -12 -18 -29q-12 -12 -41 -26q-23 -10 -53 -21q-18 -6 -64 -10q-90 -4 -133 -4h-131q-39 -2 -121 -2q-43 0 -125 -4t-123 -10q-61 -10 -116 -27q-45 -82 -68 -143l-51 -146q-18 -61 -31 -88q-22 -43 -49 -86q-20 -27 -37 -39q-16 -14 -53 -33q-27 -12 -70 -20 q-26 -4 -48 -4q-16 0 -32 2q-88 6 -135 29q-51 25 -78 57q-24 29 -30 72zM367 156q-2 14 -3 27q0 23 7 48q16 47 20 52q14 20 25 51l45 98q14 27 41 100l16 51.5l14.5 44t14.5 52.5q27 90 47 145l55 144q31 78 64 141q9 12 12 25q4 16 10 24q16 23 49 45q25 16 68 37 q39 18 84 31q53 14 90 22l193 25q74 10 190 20q90 12 154 17l149 12l146 6q31 1 58 2l83 -4q66 -6 115 -24q53 -20 84 -45l36 -25q10 -8 27 -29q12 -15 18 -30q3 -8 4 -19q0 -6 -2 -14q-6 -20 -28 -31q-20 -10 -58 -20q-33 -8 -71 -13q-49 -4 -70 -4q-70 0 -217 -4 q-74 -2 -221 -10l-54 -6t-44 -6q-52 -6 -99 -19q-61 -16 -88 -29q-40 -18 -67 -43q-35 -35 -60 -71q-23 -33 -35 -72q51 6 107 6q35 0 104.5 4t106.5 4q12 0 35 0.5t34 0.5l35 -1q20 0 40 -1t42 -1q29 0 82 -4q8 0 78 -12q37 -6 68 -18q33 -12 51 -29q16 -12 26 -35 q6 -12 7 -41q0 -18 -11 -43q-2 -12 -18 -29q-12 -12 -41 -26q-23 -10 -53 -21q-18 -6 -64 -10q-90 -4 -133 -4h-131q-39 -2 -121 -2q-43 0 -125 -4t-123 -10q-61 -10 -116 -27q-45 -82 -68 -143l-51 -146q-18 -61 -31 -88q-22 -43 -49 -86q-20 -27 -37 -39q-16 -14 -53 -33 q-27 -12 -70 -20q-26 -4 -48 -4q-16 0 -32 2q-88 6 -135 29q-51 25 -78 57q-24 29 -30 72z" />
<glyph unicode="&#xfb04;" horiz-adv-x="5214" d="M3872 254q-1 6 0 13q0 10 2 30q4 29 9 43q14 51 43 111q14 31 29.5 59.5l27.5 52.5l61 117l58 117q12 35 28.5 100.5t26.5 99.5q10 43 31 97l39 98q6 18 37 57q25 29 65 56q33 20 92 41q43 14 119 22q25 2 48 2q40 0 71 -6q43 -8 76 -29q31 -18 43 -47q10 -25 14 -55 q2 -25 -4 -59q-4 -20 -21 -54q-35 -88 -82 -168l-98 -170l-92 -170q-59 -121 -78 -170q-12 -37 -20 -88q-8 -57 -9 -88q162 10 306 39l297 66l67.5 15t65.5 15q59 14 139 21q20 2 41 2q27 0 63 -4q49 -6 86 -23q33 -14 45 -41q4 -7 4 -15q0 -17 -16 -40q-35 -43 -96 -78 q-59 -33 -139 -61q-74 -27 -164 -49l-164 -43q-115 -25 -174 -35q-127 -23 -176 -29q-59 -8 -178 -16q-45 -3 -88 -3t-86 3q-31 2 -92.5 10t-88.5 14q-40 9 -73 25q-41 18 -58 35q-31 43 -37 86q-2 18 -2 39q0 20 2 55zM2104 156q-2 14 -3 27q0 23 7 48q16 47 20 52 q14 20 25 51l45 98q14 27 41 100l16 51.5l14.5 44t14.5 52.5q27 90 47 145l55 144q31 78 64 141q9 12 12 25q4 16 10 24q16 23 49 45q25 16 68 37q39 18 84 31q53 14 90 22l193 25q74 10 190 20q90 12 154 17l149 12l146 6q31 1 58 2l83 -4q66 -6 115 -24q53 -20 84 -45 l36 -25q10 -8 27 -29q12 -15 18 -30q3 -8 4 -19q0 -6 -2 -14q-6 -20 -28 -31q-20 -10 -58 -20q-33 -8 -71 -13q-49 -4 -70 -4q-70 0 -217 -4q-74 -2 -221 -10l-54 -6t-44 -6q-52 -6 -99 -19q-61 -16 -88 -29q-40 -18 -67 -43q-35 -35 -60 -71q-23 -33 -35 -72q51 6 107 6 q35 0 104.5 4t106.5 4q12 0 35 0.5t34 0.5l35 -1q20 0 40 -1t42 -1q29 0 82 -4q8 0 78 -12q37 -6 68 -18q33 -12 51 -29q16 -12 26 -35q6 -12 7 -41q0 -18 -11 -43q-2 -12 -18 -29q-12 -12 -41 -26q-23 -10 -53 -21q-18 -6 -64 -10q-90 -4 -133 -4h-131q-39 -2 -121 -2 q-43 0 -125 -4t-123 -10q-61 -10 -116 -27q-45 -82 -68 -143l-51 -146q-18 -61 -31 -88q-22 -43 -49 -86q-20 -27 -37 -39q-16 -14 -53 -33q-27 -12 -70 -20q-26 -4 -48 -4q-16 0 -32 2q-88 6 -135 29q-51 25 -78 57q-24 29 -30 72zM367 156q-2 14 -3 27q0 23 7 48 q16 47 20 52q14 20 25 51l45 98q14 27 41 100l16 51.5l14.5 44t14.5 52.5q27 90 47 145l55 144q31 78 64 141q9 12 12 25q4 16 10 24q16 23 49 45q25 16 68 37q39 18 84 31q53 14 90 22l193 25q74 10 190 20q90 12 154 17l149 12l146 6q31 1 58 2l83 -4q66 -6 115 -24 q53 -20 84 -45l36 -25q10 -8 27 -29q12 -15 18 -30q3 -8 4 -19q0 -6 -2 -14q-6 -20 -28 -31q-20 -10 -58 -20q-33 -8 -71 -13q-49 -4 -70 -4q-70 0 -217 -4q-74 -2 -221 -10l-54 -6t-44 -6q-52 -6 -99 -19q-61 -16 -88 -29q-40 -18 -67 -43q-35 -35 -60 -71q-23 -33 -35 -72 q51 6 107 6q35 0 104.5 4t106.5 4q12 0 35 0.5t34 0.5l35 -1q20 0 40 -1t42 -1q29 0 82 -4q8 0 78 -12q37 -6 68 -18q33 -12 51 -29q16 -12 26 -35q6 -12 7 -41q0 -18 -11 -43q-2 -12 -18 -29q-12 -12 -41 -26q-23 -10 -53 -21q-18 -6 -64 -10q-90 -4 -133 -4h-131 q-39 -2 -121 -2q-43 0 -125 -4t-123 -10q-61 -10 -116 -27q-45 -82 -68 -143l-51 -146q-18 -61 -31 -88q-22 -43 -49 -86q-20 -27 -37 -39q-16 -14 -53 -33q-27 -12 -70 -20q-26 -4 -48 -4q-16 0 -32 2q-88 6 -135 29q-51 25 -78 57q-24 29 -30 72z" />
</font>
</defs>
</svg>
