<?xml version="1.0" standalone="no"?>
<!DOCTYPE svg PUBLIC "-//W3C//DTD SVG 1.1//EN" "http://www.w3.org/Graphics/SVG/1.1/DTD/svg11.dtd" >
<svg xmlns="http://www.w3.org/2000/svg">
<metadata>
This is a custom SVG webfont generated by Font Squirrel.
Copyright   : Copyright c Iconian FontsShyFonts Type Foundry 2000
</metadata>
<defs>
<font id="webfontO16j5lhV" horiz-adv-x="1585" >
<font-face units-per-em="2048" ascent="1638" descent="-410" />
<missing-glyph horiz-adv-x="1329" />
<glyph unicode=" "  horiz-adv-x="1329" />
<glyph unicode="&#x09;" horiz-adv-x="1329" />
<glyph unicode="&#xa0;" horiz-adv-x="1329" />
<glyph unicode="!" horiz-adv-x="708" d="M166 174q6 25 35 43q27 16 69 31q39 12 88 18q41 6 86 2q63 2 111 -10q37 -10 68 -37q23 -20 26 -51q4 -29 -14 -55q-10 -23 -37 -41q-33 -23 -68 -33q-53 -16 -84 -21q-61 -8 -90 -6q-45 6 -90 23q-39 14 -63.5 36.5t-34.5 47.5q-8 22 -2 53zM449 471q0 31 4 47 q2 6 6 21.5l6 23.5q25 61 57 121l70 123l19.5 35.5l17.5 31.5q31 55 35 66q10 35 22 68l23 65q8 23 18 43q12 29 21 43q2 4 28 41q10 14 37 41q29 29 57 47q39 25 70 35q47 16 80 18q37 2 82 -4q45 -16 61 -34q23 -27 25 -46q4 -29 -2 -53q-2 -10 -6 -23.5t-6 -27.5 q-18 -55 -46 -100q-43 -78 -59 -101q-45 -66 -70 -98l-75 -100q-35 -35 -78 -92q-33 -43 -80 -95q-35 -37 -100 -88q-55 -43 -140 -73q-46 6 -61 24q-16 21 -16 41z" />
<glyph unicode="&#x22;" horiz-adv-x="1200" d="M602 950q0 35 2 53.5t10 51.5q2 6 4.5 16l4.5 18.5t4 14.5q14 31 32 65q25 45 43 68q31 37 66 61q41 29 100 50q12 0 17 2q8 4 14 4l35 4q39 -2 63 -17q23 -12 29 -32q6 -18 6 -41q0 -8 -1 -20.5t-1 -18.5q-16 -66 -26 -96l-33 -97q-14 -29 -23 -53q-10 -31 -26.5 -55.5 t-49.5 -50.5q-29 -23 -81 -39l-37 -2h-25q-49 10 -73.5 26.5t-39 40.5t-14.5 47zM1176 905q0 2 2 16.5t4 22.5q4 14 12 39q2 6 8 37l17 39l10 20l4 12.5t4 10.5q16 45 23 67q10 37 26 68q4 4 10.5 14.5t8.5 14.5q12 20 20 30q12 14 33 27q23 12 51 18q25 4 33 5h31 q41 -6 63 -23q20 -14 33 -33q10 -16 14 -41l5 -20t3 -19q-8 -57 -18 -90q-20 -61 -33 -92q-6 -10 -10 -18.5t-8 -15.5l-11 -19q-15 -28 -36 -55q-20 -25 -58 -50q-33 -20 -90 -36q-35 -8 -57 -11q-43 6 -60 17q-18 10 -28 28q-10 17 -6 37z" />
<glyph unicode="#" horiz-adv-x="1736" d="M401 711q8 20 33 32q29 14 55 23q23 6 68 14q14 2 44 4t32 2q25 2 74 2q12 0 33.5 1.5t31.5 1.5l31 81q20 53 35 82q-47 2 -97 0q-49 -3 -98 0q-37 4 -53 11q-27 10 -37 20q-20 12 -21 27q0 23 3 32q35 29 73 39q55 16 97 21q37 4 106 8q49 2 100 6q20 37 29 47 q23 31 49 49q37 25 72 39q41 16 94 19q14 0 43 -4q18 -2 34.5 -12.5t23 -18.5t1.5 -23q-12 -23 -20 -47l-16 -47q111 -4 165 -4q57 0 168 -4q16 37 21 45q16 29 27 43q29 35 55 51q33 18 74 17q37 0 59 -8l23.5 -9.5t27.5 -9.5l23 -10l18 -17l12 -14l-2 -12q-4 -25 -8 -41 q0 -2 -6 -41q16 0 51 -3t41 -3q39 -2 90 -15q43 -10 66 -26q25 -18 22 -43q-6 -12 -16 -23q-8 -8 -33 -20q-6 -2 -43 -12q-25 -6 -47 -7h-88q-14 0 -43 1t-45 1q-8 -29 -29 -82q-25 -59 -32 -79q16 -2 53 -2q8 0 27.5 -1t29.5 -1q20 0 57 -4.5t52 -8.5q18 -6 37 -16 q15 -9 18 -25q-8 -16 -31 -32q-14 -10 -47 -31q-25 -14 -53.5 -22.5t-67.5 -12.5h-73q-12 0 -37 -1t-37 -1q-12 -27 -27 -53l-28 -54q-4 -8 -23 -22q-12 -10 -37 -21q-16 -8 -45 -14q-16 -4 -47 -4q-61 0 -86 18q-29 20 -33 41q-6 23 4 54q6 16 21 51q-90 -4 -178 0 q-86 2 -174 0q-4 -10 -15 -45q-10 -37 -16 -47q-8 -16 -33 -29q-29 -14 -55 -23q-18 -6 -60 -14q-31 -6 -61 -6q-47 10 -70 29q-20 16 -26 43q-4 16 0 49q2 25 10 49q-139 4 -211 8q-23 0 -45 6q-25 6 -37 15q-18 12 -22 18q-7 15 -5 25zM1100 788q61 2 178 2.5t178 2.5 q8 29 29 81q14 37 24 82h-348z" />
<glyph unicode="$" horiz-adv-x="1538" d="M254 555l12 14q39 18 45 19q25 4 33 4q29 -4 41 -4q8 0 23.5 -3t17.5 -3l137 -25q90 -16 135 -22q86 -12 140 -17q92 -8 145 -10q45 0 72 2q43 4 75 12q41 10 60 21q25 12 31 35q12 27 -2 49q-12 20 -43 41q-27 16 -70 30q-49 14 -84 23q-25 4 -69 9t-79.5 10t-66.5 12 l-215 30q-6 0 -76 19q-39 10 -65 24q-31 18 -43 35q-12 18 0 43q18 29 51 45.5t82 32.5q31 10 96 27l50.5 11l43.5 9q143 29 215 37q143 16 215 22l56 101l59 102q20 29 35 45q23 27 47 45q20 16 65 35q31 12 90 17q57 0 84 -5q33 -4 68 -20q33 -14 43 -31q14 -20 2 -43 q-10 -25 -33 -57q-6 -10 -45 -53l-45 -60q-18 -20 -31 -57q2 0 5.5 -2t5.5 -4l8 -8l33 -2h10q70 -6 117 -21l100 -31q45 -14 57 -20q37 -16 52 -25q18 -10 34 -30q12 -15 7 -37q-6 -12 -23 -19q-25 -8 -39 -10t-43 -2h-39q-66 4 -94 4q-46 0 -92 6q-31 4 -96 8q-31 2 -97 2 h-49q-18 0 -51 -4q-27 -4 -45 -12q-18 -10 -25 -22q0 -14 15 -29q16 -16 34 -25q29 -12 45 -18q14 -4 25.5 -9l22.5 -10l139 -43l139 -45q43 -23 51 -26q25 -15 43 -31t25 -33q6 -20 -2 -41q-10 -27 -37 -47q-33 -27 -63 -41q-25 -12 -82 -37q-29 -12 -86 -28 q-113 -35 -195 -52q-96 -20 -203 -26l-2 -12q-8 -27 -18 -54q-4 -8 -8.5 -26.5t-8.5 -26.5q0 -25 -10 -51l-16 -53q-12 -29 -29 -58q-18 -33 -49 -55q-22 -15 -49 -25q-23 -8 -58 -14q-4 0 -63 -6q-23 -2 -64 -2q-8 0 -22 1t-25.5 2t-21.5 3q-33 6 -53 23q0 8 4 20l8 21 q20 49 33 73q20 41 41 72q18 29 41 76l36 78v2v4q-82 2 -178 16q-66 10 -159 37q-76 23 -134 55q-58 34 -92 74q-2 4 -5 11t-5 11q-6 13 -2 23z" />
<glyph unicode="%" horiz-adv-x="2234" d="M301 49q6 12 27 33q4 4 10 9t13 10t11 10l39 28q14 10 39 31q86 61 219 147l220 146l344 237l354 236l354 235l353 238l32 16q8 4 15.5 10.5t15.5 10.5q6 4 18.5 9t16.5 7q18 8 41 13q29 0 78 -9q27 -4 59 -20q25 -12 39 -33q12 -18 6 -39q-78 -78 -201 -170 q-106 -80 -235 -164l-248 -157l-248 -158l-469 -303l-463 -305q-20 -16 -45 -33q-33 -20 -43 -31q-2 -2 -17 -14t-24 -21q-10 -10 -43 -34q-16 -16 -51 -29q-29 -10 -67 -10q-47 4 -70 10q-35 10 -51 25q-23 18 -27 30q-6 21 -2 39zM522 944q0 27 6 51q6 23 17 52 q18 41 69 98q41 47 113 92q51 33 76 43l88 33q31 10 100 22q53 10 103 13q55 2 112 0q72 -4 109 -11q47 -8 92 -24q47 -16 68 -37q29 -33 34 -51q10 -31 11 -56q0 -39 -4 -57q-6 -31 -19 -57q-8 -53 -57 -111q-43 -51 -131 -102q-82 -47 -188.5 -72t-229.5 -18q-72 0 -105 4 q-37 4 -92 20q-33 10 -76 33q-31 16 -51 41q-25 20 -32 45q-13 33 -13 49zM821 997.5q-2 -20.5 6 -39.5q8 -14 35 -28q27 -12 70 -10q58 -3 104 12q41 14 78 37q39 25 53 47q23 33 27 51q10 18 16 47q6 23 2 47q-6 12 -20 19l-35 12q-37 6 -43 6h-47q-53 -2 -96 -22 q-45 -20 -68 -41q-29 -25 -43 -52q-15 -28 -24 -49q-13 -16 -15 -36.5zM1405 199q-6 55 22 104q8 18 29 59q14 29 37 58q18 25 53 55q25 23 76 51q51 27 100 41q74 20 115 27q102 16 123 16q82 4 121 4q66 0 96 -4q57 -8 86 -16q37 -12 70 -31q29 -16 47 -39q35 -41 33 -90 q-4 -53 -23 -96q-20 -47 -78 -105q-55 -55 -129 -96q-41 -25 -82 -43q-49 -23 -96 -37q-55 -16 -104 -24q-37 -6 -111 -10q-123 -12 -207 12q-88 27 -129 67q-43 44 -49 97zM1729 274q0 -27 14 -47q16 -23 49 -34q34 -12 92 -7q45 0 78 13q37 14 57 28q25 18 39 39 q18 27 23 37q12 27 16 49q6 27 0 51.5t-31 38.5q-29 16 -86 17q-43 0 -98 -10q-47 -8 -78 -33q-25 -18 -39 -45q-12 -23 -22 -47q-14 -25 -14 -50z" />
<glyph unicode="&#x26;" horiz-adv-x="1896" d="M350 399q-8 43 10 93q10 47 56 90q41 39 116 77q70 37 154 64q80 25 174 45q-106 49 -176 129l-25 35q-8 12 -20 37q-10 20 -10 37q0 23 10 41q10 29 45 63q33 33 78 59q55 33 100 54q59 27 115 43q123 45 250 65q141 23 266 23q55 0 166 -4q61 -2 162 -15q72 -8 145 -28 q61 -16 117 -52l12 -18q4 -8 8 -20q-6 -10 -32 -37q-12 -12 -50 -33q-16 -10 -53 -31q-29 -16 -70 -18q-29 4 -86 8q-74 6 -79 6q-33 2 -94.5 10t-94.5 11q-111 10 -194 8l-72 -6q-27 -2 -72 -15q-27 -8 -59 -22q-31 -14 -39 -31q-12 -29 -12 -41q0 -25 8 -41q10 -23 26 -35 q20 -16 50 -28q27 -10 69 -21q6 -2 76 -12l80 -12q23 -2 78 -11q43 -4 86 -7t86 -7q55 -6 174 -14q12 23 29 32q25 18 49 29q35 16 61 21q45 8 72 6q49 0 86 -13q35 -12 55 -28q20 -18 26.5 -39t-7.5 -45q-23 -59 -56 -125q-37 -74 -67 -125q-59 -102 -74 -125l-78 -125 l-47 -59q-23 -29 -57 -60q-27 -25 -72 -55q-33 -23 -92 -47q-51 -20 -113 -33q-57 -12 -121 -18q-82 -8 -123 -11q-20 -2 -60 -2t-60 -2q-84 -2 -189 9q-63 6 -168 30q-78 18 -149 47q-78 33 -123 60q-63 41 -96 71q-45 43 -70 80q-25 39 -35 88zM764 424q10 -25 35 -47 q27 -25 61 -41q25 -12 78 -33q82 -27 188 -43q84 -12 222 -12q29 0 86 4q20 2 40.5 3t43.5 3q41 70 96 176l92 176l-61 6q-10 2 -33 3.5t-33 1.5l-63 6q-20 2 -66 2q-66 0 -201 -8q-86 -6 -200 -23q-37 -4 -93 -16q-46 -9 -86 -25q-41 -16 -69.5 -34.5t-34.5 -45.5 q-12 -26 -2 -53z" />
<glyph unicode="'" horiz-adv-x="600" d="M575 926q0 55 6.5 98t24.5 86q6 12 16.5 35.5t12.5 28.5q18 39 37 65q29 39 61 64q41 31 98 51q31 8 66 8q45 -4 64 -14q23 -12 34 -29q8 -10 17 -35q2 -10 5 -18.5t5 -16.5v-75q0 -35 -20.5 -80t-30.5 -70q-14 -37 -41 -72q-23 -31 -68 -65q-37 -29 -108 -51 q-10 -2 -31 -2t-33 -3q-39 4 -55 11q-14 6 -33 24q-8 8 -16 29q-7 17 -11 31z" />
<glyph unicode="(" horiz-adv-x="1421" d="M324 410q-14 90 18 188q43 117 117 215q80 108 190 209q66 55 125 98q72 51 146 97q82 49 165.5 87.5t188.5 73.5q92 31 176 47q90 18 190 15q43 -2 80 -17q31 -10 54 -30q20 -16 26 -41q6 -20 -4 -45q-23 -18 -57.5 -24.5t-73.5 -16.5q-205 -45 -352 -115 q-158 -76 -264 -162q-109 -88 -179 -188q-72 -104 -100 -193q-10 -27 -22 -80q-8 -35 -9 -82q0 -37 13 -77q12 -37 39 -74q66 -68 165 -119q111 -55 230 -90q100 -20 112 -25q37 -10 115 -22q16 -6 25 -14q10 -10 2 -19q-6 -20 -31 -39q-20 -14 -59 -33q-25 -10 -78 -22 q-59 -12 -80 -14q-47 -6 -100 -2q-61 4 -95 8q-53 6 -86 16l-82 25q-158 49 -262 122.5t-164 163.5q-63 83 -79 179z" />
<glyph unicode=")" horiz-adv-x="1419" d="M307 37q0 12 15 20q8 4 34 13q29 8 45 10l43 6q106 16 195 45q92 31 170 70q84 41 145 84q70 47 121 90q117 98 191 203q78 111 112 210q35 88 8 164q-28 80 -104.5 147.5t-196.5 117.5q-129 53 -270 75q-6 0 -21.5 3t-23.5 5q-20 2 -47 11q-25 6 -37 14q-14 8 -18 23 q12 23 41 38q27 16 67 29q53 16 82 21q10 2 27.5 5t32 5t26.5 2q55 4 166 0q78 -2 156 -16q58 -18 110 -37t99 -43q113 -61 180 -129q70 -70 104 -152q37 -88 37 -164q0 -86 -33 -170q-25 -65 -67 -129q-39 -57 -103 -125q-37 -39 -131 -121q-61 -53 -147 -118l-156 -109 q-84 -57 -186 -106q-94 -45 -217 -78q-117 -31 -250 -25q-45 4 -78 12.5t-63 22.5q-23 12 -46 35q-16 16 -12 41z" />
<glyph unicode="*" horiz-adv-x="1312" d="M383 731q10 18 27 29q29 18 43 24l51 19q37 12 53 18l129 39q115 33 127 37q-29 14 -90 39q-72 29 -92 39l-37 18q-25 12 -35 21q-12 10 -24 26q-8 12 -7 27q12 15 31 31q6 4 45 24q25 12 55 19q18 4 64 8h16q2 0 8.5 -1t8.5 -1l39 -10l94 -56q37 -18 92 -55q10 27 16 47 q8 33 15 47q14 31 24 49q18 29 39 48q29 27 64 38q47 18 98 19q25 0 49 -6q20 -6 39 -15q20 -10 27 -18q10 -14 8 -25l-22.5 -39.5t-22.5 -44.5q-8 -18 -14.5 -28.5t-13.5 -23.5t-15 -30q31 12 92 33l94 33q29 10 90 27q31 8 97 12q37 -4 53 -8q12 -2 43 -19q16 -8 26 -24 q8 -12 5 -31q-2 -14 -17 -29q-12 -12 -43 -22q-119 -29 -225 -62l-223 -65q59 -20 159 -60q68 -27 162 -57q25 -14 29 -24q4 -12 -8 -33q-6 -16 -21 -31q-20 -20 -35 -29q-31 -18 -51 -24q-31 -10 -61 -10q-20 0 -45 4q-12 2 -37 10q-12 4 -32.5 12t-33.5 12q-27 18 -65 31 q-35 12 -64 31q3 -28 -6 -55q-8 -25 -8 -56q-10 -16 -37 -32q-18 -10 -59 -23q-45 -12 -70 -16q-49 -8 -76 -9q-31 0 -47 10.5t-22 22.5q-8 16 -9 27q0 6 -1 15t-1 13q4 31 15 60l24 61l-110 -39l-109 -36q-8 -2 -22.5 -4.5t-16.5 -2.5q-12 -2 -39 -2q-43 4 -65 9 q-20 4 -58 16q-35 12 -43 20q-16 17 -18 31z" />
<glyph unicode="+" horiz-adv-x="1255" d="M313 705q8 16 33 28t55 19q57 12 66 12q23 2 63 6q31 4 93 8q29 2 79 2q12 0 36 1t34 1h70q16 49 28.5 74t40.5 74q12 18 33 33q37 27 47 30q28 12 62 19q45 8 71 8q59 0 93 -21q34 -22 30 -49q-12 -27 -24 -88q-10 -51 -27 -88q49 -2 149.5 -2t147.5 -6q27 -2 66 -10 q33 -6 53 -19q25 -14 33 -24q10 -14 4 -35q-8 -18 -21 -29q-16 -14 -41 -22q-33 -12 -51 -17q-37 -8 -57 -8q-31 0 -88.5 -1t-86 -1t-85 -1t-86.5 -1l-29 -78l-17 -37q-2 -4 -7 -17t-7 -22q-10 -18 -35 -32q-35 -18 -61 -27q-23 -8 -72 -16q-29 -4 -74 -9q-47 10 -67 23 q-23 14 -33 37q-9 22 -6 43q4 33 8 47q6 29 15 45q12 29 14 43q-27 2 -80 2q-14 0 -40 -1t-38 -1q-25 2 -76 2h-73q-14 0 -35 4q-25 4 -27 6l-28 11l-19 12l-4 2q-14 12 -25 33q-8 14 -4 37z" />
<glyph unicode="," horiz-adv-x="600" d="M86 -96q0 14 2 22q6 20 33 54q25 33 51 53q41 33 64 49l67 49l70 45q37 25 78 45q33 16 88 35q45 14 104 18q39 -4 53 -10q18 -8 31 -20q10 -10 14 -27q2 -12 -4 -29q0 -10 -2 -14q-4 -8 -6 -14q-10 -33 -29 -56q-14 -18 -55 -51q-31 -25 -70 -47l-77 -45l-62 -33 q-29 -16 -67 -34q-12 -6 -74 -25q-45 -14 -82 -16q-10 2 -28.5 2t-28.5 2q-18 2 -39 10q-16 6 -23 16q-8 13 -8 21z" />
<glyph unicode="-" d="M479 686q0 12 6 21q43 29 95 41q72 16 116 20q82 8 127 8t119 4q31 -2 90 -2q14 0 44 -1t46 -1q61 0 92 -2t93 -2q10 0 33.5 1t35.5 1q25 0 74 -4h76q27 0 80 -4q57 -4 80 -8q33 -6 65 -17q25 -8 47 -26q18 -15 19 -37q-8 -14 -33 -29q-27 -14 -49 -22q-18 -6 -60 -15 q-31 -6 -61 -6q-242 -6 -484 -6q-317 0 -479 2q-45 0 -71 10q-51 20 -56 23q-12 6 -22 16l-17 17q-6 9 -6 18z" />
<glyph unicode="." horiz-adv-x="677" d="M236 106q-3 28 12 56q14 29 41 47q37 25 71 39q39 14 91 24q55 10 100 11q43 2 90 -9q40 -9 68 -24q27 -14 39 -37t6 -47q-12 -31 -39 -57.5t-70 -51.5q-33 -18 -96 -39q-57 -18 -117 -16q-63 0 -104 14q-45 16 -66 37q-22 22 -26 53z" />
<glyph unicode="/" horiz-adv-x="1320" d="M102 74q23 59 70 106q59 59 111 103l139 112l137 115l166 139l166 139l264 205q147 111 283 201q49 31 92 61l90 64q22 12 49 24q23 10 57 21q41 12 64 14q37 4 63 -2q4 -2 14.5 -3t14.5 -1q10 -2 27 -6q12 -2 22 -10q8 -6 8 -15q-10 -31 -41 -63q-18 -20 -63 -61 l-74 -66q-41 -39 -80 -66l-542 -456l-588 -449q-27 -14 -80 -51q-47 -33 -86 -53q-49 -27 -96 -43q-51 -18 -119 -19q-39 4 -57.5 23t-10.5 37z" />
<glyph unicode="0" horiz-adv-x="1835" d="M397 453q-12 109 25 206q35 111 115 215q78 102 196 205q47 37 129 95q55 39 158 86q92 43 186 65q106 27 215 29q182 0 308 -33q129 -35 210 -88q83 -55 129 -129q47 -74 62 -152q14 -70 0 -159q-12 -78 -43 -154q-39 -104 -121 -207q-84 -106 -207 -194 q-59 -43 -147 -88q-72 -37 -178 -72q-94 -31 -201 -49q-100 -18 -213 -15q-117 0 -201 20.5t-153 55.5q-63 31 -115 80q-51 47 -78 88q-64 91 -76 195zM780 461q0 -45 8.5 -78t42.5 -68q31 -31 84 -51q49 -18 142 -22q66 -2 135 10q63 12 125 35q45 16 106 51q39 20 80 59 q80 70 123 133q49 72 70 138q23 61 41 147q16 74 0 146q-8 37 -33 73q-18 29 -59 60q-35 27 -95 43q-55 15 -129 12q-80 -2 -145 -25q-61 -20 -115 -57q-59 -41 -88 -70q-47 -47 -65 -69q-74 -84 -121 -158q-53 -82 -76 -158q0 -4 -8 -30.5t-12 -42.5q-11 -45 -11 -78z" />
<glyph unicode="1" horiz-adv-x="749" d="M369 106q0 31 2 46q2 16 14 45q8 23 14 45q23 70 62 151l71 152q29 53 78 155q25 51 66 154q4 10 10 30.5t8 28.5q10 33 16.5 57.5t2.5 57.5q-2 27 -23 53l-49 27q-27 12 -45 27q-25 16 -31 30q-8 16 0 37q14 33 29 49q16 18 51 43q25 16 74 35q43 16 92 19 q76 -6 129 -25q55 -18 96 -47q45 -31 66 -59q23 -31 33 -68q2 -39 -7 -78q-9 -40 -24 -80q-20 -57 -66 -168q-23 -55 -75 -166l-41 -84l-21.5 -42.5l-21.5 -43.5q-20 -41 -39 -84l-33 -84l-19 -43q-10 -25 -16 -45q-2 -18 -12 -41l-17 -40q-6 -16 -18 -39q-10 -16 -32.5 -37 t-49.5 -33q-29 -14 -74 -21q-61 -6 -110 7q-45 10 -78 36q-12 21 -12 43z" />
<glyph unicode="2" horiz-adv-x="1910" d="M504 117q-4 29 4 49q12 35 41 74q31 39 67 71q72 61 84 70q61 45 95 65l252 164l251 162l103 72q66 49 94 74q43 37 76 75q35 41 49 78q12 23 6 41q-6 20 -24 35q-14 12 -54 22q-27 8 -78 5q-115 0 -217 -21q-188 -37 -211 -43q-37 -12 -51 -20.5l-39 -24.5 q-18 -12 -32 -27q-8 -6 -15.5 -14t-15.5 -14q-10 -12 -35 -27q-29 -16 -47 -22q-20 -6 -57 -15q-20 -4 -62 -4q-55 -4 -84 8q-33 12 -41 33t-6 43q2 18 16 43q27 45 76 78q47 31 123 61q68 28 148 49q82 23 155 37q174 35 334 47q158 12 336 9q47 0 94 -10.5t76 -24.5 q33 -16 53 -37q22 -22 37 -43q27 -45 37 -98q8 -49 -12 -101q-8 -31 -35 -71q-23 -35 -62 -70q-20 -18 -80 -66q-12 -10 -88 -63l-223 -141l-225 -142l-44 -28.5l-52 -34.5q-39 -27 -88 -68q-53 -45 -74 -67q-29 -33 -49 -72q33 4 68.5 7t79.5 6t69 5q150 12 217 23 l105.5 12t101.5 10q100 8 207 13h32q23 0 33 -2q29 -10 43 -21l31 -24q16 -16 22 -25q8 -12 2 -29q-61 -31 -137 -49q-98 -25 -158 -33q-150 -23 -163 -24q-102 -12 -162 -21l-184 -18l-185 -12q-61 -4 -184 -8q-61 -2 -180 2q-49 0 -88 14q-37 12 -54 33q-20 22 -22 45z " />
<glyph unicode="3" horiz-adv-x="1855" d="M539 1057q8 10 12 14l8 8t10 8q37 27 95 54q61 29 110 47q47 18 119 39l123 37q84 23 260 59q121 25 266 29q100 0 180 -21q76 -20 144 -53q29 -14 53 -33q29 -20 41 -39q10 -14 18 -43q6 -25 -2 -47q-10 -27 -43 -67q-31 -37 -67 -66q-27 -20 -88 -61l-95 -58 q131 4 226 -20q90 -23 157 -70q61 -43 76 -100q16 -59 -22 -119q-23 -59 -70 -109q-51 -55 -117 -102q-63 -45 -151 -90q-96 -49 -178 -80q-88 -35 -195 -68q-88 -27 -211 -51q-125 -25 -217 -32q-111 -10 -219 -7q-55 2 -105 21q-31 10 -73 41q-29 33 -39 51q-16 29 -6 59 q0 12 26 27q23 10 56 14q6 0 17 1t17 1h35l125 5q82 4 123 10q143 18 248 39q129 27 231 63q45 14 105 41q47 20 90 47q37 23 69 56q31 31 39 59q10 14 11 35q0 14 -15 32q-12 14 -41 25q-25 8 -65 8q-201 0 -338 -12q-170 -14 -334 -55q-31 -10 -88 -23q-37 -8 -90 -22 q-37 2 -72 16q-31 12 -53 29q-18 14 -37 34q-14 16 -10 41q8 18 33 37q12 8 55 31q20 10 69 27q16 6 34 12l36 12l203 58l70.5 19l59.5 16.5l71 21.5q31 10 88 35q31 14 77 43q29 18 58 47q23 23 33 49q2 6 6 23q3 12 0 24q-4 12 -15 19q-14 6 -39 10q-52 -3 -104 -13 q-41 -8 -102 -22q-76 -18 -101 -27l-98 -28q-76 -20 -154 -47q-76 -25 -155 -43q-39 4 -70 12q-29 8 -53 22q-16 8 -22.5 12.5t-16.5 14.5q-8 8 -12 16q-4 7 0 17z" />
<glyph unicode="4" horiz-adv-x="1705" d="M307 662q0 31 4 45q8 23 31 57q31 45 41 57l51 56q27 29 55 55l129 110q70 59 142 109q45 29 67 45q37 27 72 47q37 23 82 41.5t94 30.5q41 2 80 -10q41 -14 62 -27q27 -10 45 -33q16 -20 14 -41q-41 -49 -111 -102l-127 -101q-33 -27 -69 -53q-14 -10 -70 -55 q-34 -28 -61 -55q-20 -20 -50 -58l3 -16l4 2l139 -6q70 -4 133 -12l139 -13q68 -6 142 -6h34h7q16 31 45 92l36 92l33 91q6 18 35 90q10 20 16.5 38.5t14.5 38.5q4 12 16 37t23 39q8 14 30 35q22 18 50 31q35 14 63 20q39 6 74 4q57 -4 80 -12q41 -14 57 -29q20 -18 27 -39 q8 -27 0 -45q-18 -55 -39 -110l-43 -113q-16 -43 -31 -94q-12 -43 -41 -92l-8 -24.5t-6 -24.5q-6 -23 -2 -47q25 -4 55 -17q14 -6 43 -24q18 -12 25 -29q6 -20 -3 -37q-6 -18 -22 -31l-39 -28q-22 -15 -49 -25q-29 -10 -64 -6q-18 -22 -30 -43l-25 -43q-14 -27 -20 -66 q-6 -33 -19 -63q-14 -49 -20 -64q-10 -31 -23 -63q-10 -23 -29 -45q-20 -25 -45 -43q-23 -18 -63 -35q-37 -14 -88 -18q-34 -3 -67.5 0t-61.5 12q-25 8 -43 22q-16 12 -17 31q-14 33 -2 70l25 71q8 14 20.5 47t22.5 48l27 47q8 14 20 47q2 6 7 19.5t7 19.5q6 20 5 37 q-61 6 -123 6q-41 0 -123 4l-211 8q-74 2 -209 14q-101 9 -191 31q-88 20 -157 60q-25 21 -25 41z" />
<glyph unicode="5" horiz-adv-x="1880" d="M438 575.5q-6 32.5 8 61.5q8 25 54 125l61 125q33 59 64 121q35 70 65 120q14 29 37 52q29 29 57 47q106 49 217 71q117 25 240 37q82 8 248 13q84 2 242 2q51 0 100 -6.5t92 -18.5q41 -20 51 -41q12 -23 -2 -53q0 -18 -22 -29q-25 -12 -56 -18q-35 -4 -51 -2 q-25 2 -51 0q-61 2 -176 -2q-119 -4 -176 -9q-35 -2 -99.5 -9t-74.5 -9q-76 -8 -168 -33l-45 -88q-14 -29 -52 -90l-49 -90q-16 -31 -41 -92l-6 -19v-10q76 51 168 92q98 45 201 74q115 33 223.5 47t231.5 14q143 6 243 -20q106 -29 166 -76q63 -51 78 -110q16 -66 -23 -127 q-25 -63 -84 -121t-145 -111q-100 -63 -182 -100q-106 -49 -205 -86q-127 -49 -217 -78q-100 -33 -232 -59q-121 -25 -241 -37q-125 -12 -246 -6q-35 4 -92 20q-37 10 -64 37q-25 25 -30 47q-6 20 2 53q0 20 24 41q27 25 74 27q18 2 54 2t55 2q37 2 108 2q39 2 117 2 q61 0 112 8q47 6 123 27q72 18 111 35l102 43l97 47l90 49q53 29 86 51q35 25 69 55q31 27 43 60q6 10 11 33q2 18 -7 32q-9 15 -30 25q-18 8 -60 8q-121 -6 -217 -35q-125 -37 -202 -63l-195 -74q-121 -43 -197 -74l-102 -28q-53 -16 -114.5 -12t-98.5 22q-39 20 -51 49 q-15 25 -21 57.5z" />
<glyph unicode="6" horiz-adv-x="1736" d="M356 481q18 49 54 111q23 41 71 108q27 37 88 107l99 106l98 103q33 35 106 104q35 33 121 99q57 43 148 92q53 20 98 28q55 10 109 13h53q31 0 47 -9l25 -30q8 -10 8 -23v-28q0 -15 -6 -31l-127 -105l-134 -102l-153 -133q-76 -70 -117 -137q70 31 143 49q76 18 158 31 q72 10 164 14q111 4 162 4q61 0 122.5 -6t117 -18.5t98.5 -30.5q37 -16 73 -45q59 -47 72 -109q12 -57 -12 -119q-41 -96 -141 -182q-113 -96 -244 -160q-68 -35 -152 -67q-102 -39 -168 -56q-98 -25 -184 -34q-100 -12 -188 -11q-86 0 -160 13q-61 10 -137 36 q-61 23 -113 54q-49 31 -82 63q-82 68 -111 142q-31 76 -6 159zM750 336q-16 -31 6 -53.5t61 -34.5q49 -14 94 -21q59 -6 107 -4q74 0 110.5 4t110.5 17q55 9 104 24q59 18 97 37q90 43 141 94q49 49 72 107q14 25 12 51q-4 31 -25 51q-23 23 -61 35q-43 12 -102 10 q-94 0 -172 -14q-66 -12 -162 -43q-72 -20 -152 -53q-76 -33 -123 -70q-43 -31 -73 -67q-29 -35 -45 -70z" />
<glyph unicode="7" horiz-adv-x="1699" d="M543 1106q23 45 75 80q51 35 130 63q82 31 157 47q57 12 168 29q178 22 350 25q203 4 346 -4q14 0 48 -3.5t51 -5.5l98 -12q49 -6 92 -18q35 -10 76 -29q29 -12 51 -39q16 -18 17 -49q-43 -55 -88 -98l-97 -97l-350 -319l-360 -320q-35 -27 -62 -59q-33 -41 -49 -59 q-25 -33 -37 -54l-33 -55q-4 -6 -8 -11t-8 -12q-4 -8 -16.5 -24t-20.5 -25q-12 -12 -29 -20q-25 -8 -73 -17q-41 -6 -78 -6q-51 -2 -94 11q-41 12 -66 30q-27 20 -33 45t7 50q20 59 73 118q51 57 113 113l321 297l322 297q33 29 92 88q29 29 82 90q-25 0 -74 4t-73 4 q-49 4 -78 4q-14 0 -39 1t-37 1q-102 0 -184 -8q-94 -10 -183 -31q-41 -12 -81 -30q-63 -29 -74 -35q-31 -18 -58 -29q-35 -12 -71 -12q-29 0 -86 4q-45 4 -78 14q-35 14 -47 27q-16 16 -4 39z" />
<glyph unicode="8" horiz-adv-x="1773" d="M332 291q-6 37 4 69q10 43 63 97q49 49 127 86q98 47 183 73q80 25 209 48q-74 10 -166 38q-74 23 -138 62q-55 35 -77 78q-23 47 4 98q18 39 53 78q25 29 84 72q51 39 106 67q90 47 123 62q68 33 137 55q57 20 152 41q90 20 162 28q74 8 162 9q143 0 262 -31 q115 -29 198 -84q35 -20 74 -53q33 -27 55.5 -59.5t28.5 -65.5q6 -31 -4 -70q-6 -53 -55 -102q-51 -51 -127 -90q-70 -37 -176 -70q-94 -29 -201 -45q88 -20 151 -45q78 -31 119 -64q47 -39 65.5 -79.5t-7.5 -94.5q-23 -45 -50 -73q-31 -33 -79 -70q-55 -41 -101 -66 q-68 -39 -117 -57q-59 -27 -133 -49q-94 -29 -143 -39q-72 -14 -152 -25q-77 -9 -153 -6q-139 0 -266 25q-117 23 -213 76q-41 18 -80 51q-37 31 -57.5 59.5t-26.5 65.5zM772 315q2 -4 14 -22q6 -8 27 -21q18 -10 35 -16q39 -14 96 -20q51 -6 107 -7q39 -2 123 7 q55 6 120 22q57 20 95 43q40 25 49 55q9 28 -6 56q-14 25 -50 47q-33 20 -82 33q-41 10 -106 10q-74 0 -139 -15q-63 -14 -129 -36q-8 -4 -27.5 -11.5t-28.5 -11.5q-16 -8 -45 -25q-10 -6 -34 -30q-16 -16 -19 -31q-4 -11 0 -27zM1036 926q12 -27 41 -47q29 -18 78 -33 q39 -10 105 -10q78 0 145 18q70 18 127 43q16 8 49 29q16 10 45 30q18 12 35 33q12 14 18 35q8 23 -2 49.5t-37 44.5q-33 23 -67 33q-33 10 -94 10q-70 0 -146 -16q-63 -14 -131 -41q-57 -25 -102 -57q-47 -35 -62 -66q-14 -26 -2 -55z" />
<glyph unicode="9" horiz-adv-x="1730" d="M381 784q4 35 14 62q23 61 86 135q51 59 146 127q76 53 198 109q115 51 244 83q104 29 193 39q98 12 192 13q100 0 164 -11q86 -14 143 -32q65 -22 117 -49q49 -27 90 -64q78 -66 103 -145q25 -82 4 -164q-23 -70 -60 -125q-45 -68 -88 -123q-35 -43 -104 -121l-115 -121 q-53 -43 -121 -106q-59 -57 -127 -109q-82 -63 -151 -98q-92 -47 -201 -70q-12 -2 -51 4q-25 4 -39 13q-10 6 -19 22q-6 12 2 27l11 26q10 16 12 27q33 45 74 84q10 8 27.5 25.5l31.5 31t29 25.5l96 80l96 80q82 68 133 119q61 61 103 122q-68 -43 -156 -77.5t-182 -55.5 q-104 -23 -205 -37q-117 -16 -207 -14q-61 0 -123 6q-57 6 -114 19q-45 10 -99 32q-47 20 -75 43q-33 27 -47 52q-16 31 -22.5 57t-2.5 59zM764 790.5q0 -26.5 14 -47.5q18 -25 51 -36q37 -12 93 -11q98 0 182 21q57 14 172 49q66 20 147 57q57 27 121 72q45 35 76 66 q37 37 47 67q12 27 -8 47q-16 18 -57 31q-29 10 -84 16q-33 4 -95 4q-104 6 -227 -18q-100 -20 -199 -64q-89 -40 -147 -92t-74 -110q-12 -25 -12 -51.5z" />
<glyph unicode=":" horiz-adv-x="643" d="M213 125q-2 31 6 57q6 27 37 45q37 23 74 33q33 8 90 16q49 6 92 7q51 4 88 -2q43 -6 74 -18.5t43 -31t-4 -45.5q-29 -43 -43 -59q-29 -33 -66 -53q-25 -16 -41 -25q-20 -10 -51 -20q-20 -8 -57 -15q-31 -6 -60 -6q-66 4 -102 21q-41 18 -57 41q-21 26 -23 55zM492 698 q0 33 6 50q12 23 32 45q18 20 54 45q33 23 71 34q37 10 90 15q45 0 82 -10q33 -8 54 -27q18 -14 24 -39q6 -18 -8 -43q-10 -39 -14 -51q-12 -33 -33 -53q-8 -14 -28.5 -24.5t-45.5 -16.5q-33 -8 -51 -11q-37 -4 -53.5 -4t-48.5 4q-16 2 -45 11q-25 6 -37 14q-18 10 -23 20 q-26 18 -26 41z" />
<glyph unicode=";" horiz-adv-x="698" d="M133 -70v25q8 20 31 47q25 29 49 47q45 35 59 45q53 37 64 43q18 12 36.5 22.5t37.5 22.5q27 16 84 45q29 14 94 35q45 14 104 21q27 2 58 -7q23 -6 35 -18t12 -26.5t-11 -30.5l-6 -19l-6 -12q-12 -29 -35 -53q-29 -33 -57 -54l-72 -49q-61 -39 -75 -47l-29 -14t-35 -19 q-20 -12 -65 -32q-34 -15 -74 -25q-45 -10 -82 -10l-33 6l-24 2q-23 4 -35 12q-10 6 -19 21q-6 10 -6 22zM553 682q0 8 4 25q0 2 10 26q6 27 31 53q18 20 64 48q35 20 86 32q53 12 104 11q47 -2 94 -21q41 -16 62 -39q27 -29 30 -51q6 -25 -4 -53q-4 -25 -28 -47 q-27 -25 -62 -41.5t-82 -26.5q-45 -8 -94 -6q-18 0 -55 4t-54 6q-8 0 -47 12q-22 6 -37 19q-14 14 -18 22.5t-4 26.5z" />
<glyph unicode="&#x3c;" horiz-adv-x="1292" d="M291 676q18 25 51 45q27 16 74 35q74 29 86 33t41.5 13t44.5 15l196 57l197 58q18 4 46 11t58 18q96 29 107 30q70 16 106 23q74 12 111 14q33 -4 51 -8q25 -6 43 -19q16 -10 27 -24q10 -12 6 -29q-4 -20 -12 -28q-14 -14 -43 -23q-303 -90 -346 -104l-347 -109l291 -82 q96 -27 297 -76q16 -6 26.5 -16t10.5 -18q0 -6 -4 -23q-2 -12 -10 -23q-14 -27 -58 -49q-45 -25 -100 -26q-29 -2 -82 2q-23 2 -74 10l-67 18l-32.5 8.5t-33.5 10.5l-149 43q-27 8 -66 21.5t-82 25.5l-57 16l-59 19q-41 16 -86 28q-47 14 -78 33q-14 10 -17 10q-6 2 -14 11 q-47 18 -53 49z" />
<glyph unicode="=" horiz-adv-x="1636" d="M449 539q0 12 16 24q6 6 37 19q16 6 49 14q18 4 51 8q55 6 164 10q94 4 137 2q14 0 43 -1t43 -1q29 0 86 -4q29 -2 88 -2h90q8 0 25.5 -1t24.5 -1q31 0 49 2q10 0 22 1t25 1q35 0 49 -2h70q53 0 79 -2q47 -4 72 -8q37 -6 57 -18q25 -14 33 -27q8 -14 -6 -39 q-16 -23 -37 -33q-37 -16 -59 -22q-33 -8 -72 -13q-4 0 -30.5 -3t-38.5 -3q-205 -8 -455 -8q-201 0 -451 10q-41 0 -67 9q-25 8 -51 22q-20 12 -32.5 31t-10.5 35zM569 819.5q-4 16.5 9 34.5q33 31 90 49q49 16 120 27q63 8 134 12q23 0 64.5 1t62.5 3h79q53 0 80 -2 q20 0 40 -1t40 -1h82q25 4 53 0q18 -2 54 -2q25 2 51 0h53q53 0 109 -6q68 -8 100 -16q43 -12 73.5 -33t30.5 -49q0 -18 -16 -33q-14 -12 -47 -23q-28 -9 -62 -12q-43 -4 -63 -2q-170 2 -508 2q-340 0 -510 -2q-37 0 -61 6q-23 6 -39 19q-15 12 -19 28.5z" />
<glyph unicode="&#x3e;" horiz-adv-x="1288" d="M442 399q4 10 19 29q10 14 45 21l348 112l346 117l-287 90l-288 86q-20 6 -28.5 14.5t-8.5 20.5q0 14 2 22q4 12 8 21q18 27 57 49q39 25 101 27q45 -2 118 -15q6 -2 107 -24q43 -10 102 -29q18 -6 53 -15.5t48 -13.5q156 -45 227 -71q123 -45 205 -84q12 -8 14 -11 q8 -8 17 -10q31 -18 36 -22q14 -12 13 -27q-18 -25 -51 -45q-29 -18 -74 -39q-53 -25 -84 -35l-88 -30q-53 -16 -102.5 -33t-94.5 -31q-131 -41 -198 -59l-107 -31q-70 -20 -106 -29q-80 -18 -109 -22q-55 -8 -113 -13q-57 6 -92 26.5t-35 53.5z" />
<glyph unicode="?" horiz-adv-x="1730" d="M524 999q-6 14 2 31q18 45 64 80q49 39 108 68q68 33 138 55q92 31 149 45q150 39 324 57q158 18 325 15l123 -7q59 -2 119 -12q39 -6 109 -22q53 -12 94 -33q84 -43 108 -102q27 -61 8 -121q-39 -55 -106 -101q-59 -41 -156 -82q-94 -41 -190 -69q-135 -41 -207 -60 q-160 -41 -213 -53l-203 -49q31 -10 64 -12q68 -6 71 -6q12 0 37 -1.5t37 -1.5q27 0 72 -4q102 -4 155 -4q70 0 156 -10q8 -16 8 -25q0 -6 -4 -22q-10 -31 -47 -53q-43 -27 -94 -41q-45 0 -69.5 -2t-69.5 -2q-25 -2 -72 -2h-70q-156 0 -231 6q-123 10 -217 26q-39 8 -94 23 q-43 10 -78 31q-34 18 -49 43q-16 25 -4 55q16 29 49 53q23 16 80 43q46 22 98 37l50.5 16.5l51.5 16.5l277 67l278 68l94 25q39 10 93 28q45 16 77 37q35 23 50 47q4 23 -11 39q-12 16 -39 29q-25 12 -61 18q-49 8 -76 10q-8 0 -24.5 2.5t-28.5 3.5t-25 1q-14 0 -39.5 1 t-35.5 1q-90 0 -209 -11q-84 -8 -207 -36q-74 -25 -113 -50l-94 -59q-39 -33 -86 -51q-57 -25 -119 -27q-23 0 -59 8q-27 6 -45 19q-17 10 -23 26zM536.5 170q6.5 33 38.5 59q31 27 87 45q59 20 110 29q61 8 119 6q66 4 127 -6q68 -10 106 -27q45 -18 63.5 -46.5t-1.5 -63.5 q-20 -37 -39 -57q-25 -28 -68 -50q-37 -20 -94 -32q-55 -12 -108 -13q-72 0 -134 13q-78 16 -114 28q-55 23 -76 51q-23 31 -16.5 64z" />
<glyph unicode="@" horiz-adv-x="2672" d="M397 532q3 58 25 117q23 100 104 193q88 96 209 174q127 80 291 145q178 72 346 113q172 43 379 65q184 20 389 11q133 0 219 -11q100 -12 199 -34q92 -22 172 -56q80 -35 137 -75q117 -86 148 -191q31 -106 -6 -217q-14 -53 -39 -94q-29 -49 -70 -92q-43 -45 -100 -88 q-51 -39 -131 -78q-63 -37 -158 -70q-84 -31 -182 -49q-104 -20 -195 -29q-109 -10 -195 -10q-150 -2 -313 10q-129 10 -297 39q-86 16 -129 29q-70 20 -115 41q-52 25 -79 55q-31 35 -19 74q10 33 39 61q33 33 76 56q41 23 100 45q41 16 117 34q135 33 256 48 q141 16 260 16q49 0 73.5 -2t73.5 -2q4 31 -4 51q-10 27 -32 49q-20 20 -58 39q-35 16 -88 27q-12 0 -38.5 1t-39.5 3q-12 0 -37.5 3t-39.5 5q-45 2 -62 23q-16 18 -6 40q6 23 30.5 41.5t59.5 30.5q43 16 74 21q41 6 82 6q51 0 141 -8q63 -6 126.5 -22.5t107.5 -37.5 q45 -20 73 -53q37 -41 47 -64q14 -31 21 -67q6 -33 0 -70t-21 -71q-25 -74 -88 -150q-59 -72 -166 -137q57 0 119 6q37 4 117 20q53 10 108 31q45 16 93 45q37 23 67 53q33 31 47 58q27 45 33 59l25 60q29 55 28 112q0 53 -28 105q-27 49 -86 94q-49 39 -136 72 q-76 29 -184 45q-92 14 -225 10q-147 9 -295 -6q-145 -14 -285 -49q-123 -31 -258 -84q-123 -49 -215 -111q-96 -63 -151 -131q-59 -72 -72 -145q-18 -46 -25 -93q-6 -45 4 -92q9 -43 37 -86q27 -39 78 -76q43 -35 115 -63q61 -25 147 -45q72 -16 170 -27q90 -10 185 -6 q18 2 51 -2q23 -2 39 -12q18 -10 22 -21q6 -10 0 -24q-8 -18 -35 -39q-20 -14 -59 -33q-27 -12 -76 -22q-39 -8 -84 -9q-119 0 -231 13q-100 10 -213 39q-90 23 -182 63q-80 35 -142 84q-63 47 -100 96q-35 45 -55 109q-19 53 -15 114zM1346 526q10 -12 24 -20t39 -14 q29 -8 45 -11q20 -2 47 -10q52 -12 105 -18q39 -4 108 -9q68 29 109 62t73 72l-55 6q-18 2 -51 6q-37 -2 -113 -2q-51 0 -110 -6l-43 -2q-6 0 -17.5 -1t-15.5 -4q-16 -4 -20.5 -4t-8.5 -1t-6 -1t-5 -1t-5 -1q-47 -8 -76 -20q-22 -11 -24 -21z" />
<glyph unicode="A" horiz-adv-x="2056" d="M254 217q20 66 63 117q39 45 111 110l133 125q43 41 141 123q63 82 164 193l170 188l92 82q51 47 105 84q63 43 131 72q74 31 168 43h21q68 0 133 -17q61 -16 126 -45q41 -20 91 -63q39 -33 57 -74q18 -40 25 -80q4 -31 20 -82q49 -217 70 -325q31 -164 49 -328l8 -55 q2 -12 5 -26.5t5 -29.5q0 -41 -2 -59q-4 -31 -24 -57v-4q-6 -14 -21 -25q-14 -12 -35 -21q-16 -8 -45 -14q-14 -4 -51 -8q-10 0 -28.5 -1t-26.5 -1q-39 0 -56 2q-33 4 -47 8q-20 6 -32 19q-10 10 -19 26q-4 10 -8 27q-2 10 -2 29q0 6 -4 26q0 12 -2 37t-2 37q-4 49 -8 74 q-51 12 -87 16q-25 3 -56 3q-20 0 -42 -1l-203 -6q-113 -4 -208 -14q-121 -12 -189 -23q-78 -12 -182 -45q-31 -16 -47.5 -30.5t-30.5 -35.5q-4 -6 -12 -17t-13 -17l-12 -19.5l-10 -15.5q-3 -15 -19 -31q-18 -18 -38 -29q-27 -12 -54 -18q-17 -3 -37 -3q-13 0 -28 1 q-59 6 -100.5 24.5t-61.5 45.5q-27 25 -39 51q-8 18 -8 37q0 10 2 20zM1016 567l4 -12h65h68q45 -4 72 -4h71q12 -1 26 -1q19 0 69 3q55 4 100 12t84 29q39 18 47 45q5 31 5 64q0 25 -3 51q-6 61 -20 110q-20 74 -35 111q-10 25 -37 106q-106 -49 -176 -100 q-66 -49 -131 -115l-25.5 -24.5t-34.5 -34.5q-31 -31 -55.5 -61.5t-42.5 -61.5q-18 -33 -29 -63l-4 -13l-2 -12q-2 -6 -6 -14.5t-10 -14.5z" />
<glyph unicode="B" horiz-adv-x="2088" d="M375 260q-1 10 -1 21q0 25 5 57q8 53 14 76q20 63 47 114q29 55 64 115q31 45 71 119q41 70 62 117q14 31 25 69q2 10 8 35t8 35q15 34 24 67q10 37 27 68q31 41 84 72q55 33 121 53q49 16 145 35q51 10 158 22q82 10 158 13q106 4 147 4q30 1 58 0q97 0 182 -9 q115 -12 217 -36q78 -18 94 -27q45 -18 76 -41q35 -25 47 -47q16 -29 6 -59q-8 -33 -27 -66q-20 -37 -51 -66l-84 -55q-51 -33 -94 -53q115 -18 197 -57t127 -95q43 -49 63 -108q8 -24 8 -49q0 -34 -14 -70q-18 -39 -55 -76q-35 -35 -90 -67q-63 -37 -113 -60 q-41 -18 -131 -51q-35 -12 -141 -45q-35 -10 -144 -39q-129 -31 -258 -55q-162 -31 -264 -47q-84 -12 -252 -33q-97 -12 -186 -12q-32 0 -64 2q-72 8 -131 32q-51 23 -82 52q-35 33 -45 67q-14 41 -16 78zM809 350q6 -20 31 -39q23 -16 61 -26q41 -10 86 -11h28 q119 0 247 23q143 25 260 63q61 20 114 43q80 35 103 50q49 29 80 57q29 27 47 65q4 13 4 26q0 24 -15 46q-23 35 -65 60q-4 2 -10 4t-10.5 3t-7.5 3t-5 2l-8 4t-8 2l-154 -6q-77 -3 -153 -12q-98 -12 -150 -23q-70 -14 -143.5 -36.5t-124.5 -49.5q-55 -28 -98 -61 q-41 -33 -68 -68q-25 -33 -35 -74q-9 -12 -9 -27q0 -9 3 -18zM1040 834q115 4 205 22q101 22 197 49q29 8 90 29q70 23 86 31q43 20 68 39q29 23 40 47q3 9 4 17q0 16 -12 30q-16 20 -55 32q-31 12 -82 17q-16 2 -48 3t-48 1q-12 0 -37 -1t-44.5 -2t-35.5 -3 q-68 -6 -111 -23q-53 -12 -94 -37q-37 -23 -55 -51q-6 -16 -14.5 -30.5t-12.5 -24.5l-24 -55q-8 -20 -13 -45q-6 -37 -4 -45z" />
<glyph unicode="C" horiz-adv-x="1964" d="M375 530q0 6 -1 12q0 47 21 107q43 119 152 230q111 113 264 213q84 55 162 96q90 47 192 84q106 39 215 59.5t236 20.5q170 0 299 -39q139 -43 225 -96q45 -27 84 -60q41 -35 64 -67q23 -35 32 -76q4 -19 5 -36q0 -21 -7 -42q0 -25 -18 -37q-23 -16 -51 -25 q-39 -12 -70 -14q-35 -3 -51 -3q-11 0 -21 1q-72 4 -116 25q-47 23 -68 51l-35 67q-31 55 -35 66q-20 33 -63 53q-49 23 -117 23q-92 0 -174 -19q-78 -18 -151 -49q-78 -33 -131 -67q-53 -33 -103 -76q-108 -80 -178 -166q-74 -88 -102 -174q-8 -31 -13 -66q-2 -29 4 -63 q6 -29 27 -60q18 -29 53 -53q29 -27 72 -47q35 -16 94 -35q57 -16 115 -22q61 -6 126.5 -6t147.5 10q84 10 146 26l49 16.5t57 18.5q51 18 103 39q20 6 61 23q33 14 72 16q7 1 14 1q29 0 49 -9q23 -10 29 -27q6 -18 4 -35q-2 -12 -10 -32q-14 -27 -43 -51q-35 -33 -66 -50 q-37 -22 -80 -43t-92 -37q-47 -20 -94 -34q-53 -16 -105 -29q-53 -12 -106 -18q-74 -8 -111 -9q-32 -2 -65 -1q-80 0 -168 10q-106 12 -207 41q-104 31 -176 63q-76 35 -141 84q-72 53 -107 96q-49 59 -70 107q-26 57 -28 114z" />
<glyph unicode="D" horiz-adv-x="2043" d="M352 229l17 47q2 10 18 48q4 8 11.5 25.5t11.5 23.5l22 47q15 28 25 55q2 8 8 26.5t8 28.5q2 8 7 24.5l9.5 30l8.5 25.5q14 35 26 78l31 80l35 80q27 55 51 113q12 29 57 114q31 59 70 113q37 51 94 108q109 16 168 21l168 16q31 2 94.5 5t93.5 5q129 8 189 11q36 2 71 1 q103 0 197 -14q117 -16 225 -53q100 -33 176 -84t119 -108q47 -63 56 -127q2 -17 2 -34q0 -49 -21 -99q-20 -76 -80 -154q-59 -80 -137 -145q-86 -74 -186.5 -135.5t-220.5 -120.5q-115 -59 -248 -109q-111 -41 -279 -84q-137 -35 -295 -51q-103 -11 -190 -11l-111 5 q-88 4 -137 18q-61 18 -100 45q-41 29 -58 64q-11 23 -10 44q0 14 4 27zM856 389q-1 -12 -1 -23q0 -35 7 -69q92 0 201 20q92 16 184 50q86 29 170 71q137 66 154 76q49 27 143 84q53 33 129 92q45 37 99 96q41 47 63 101l12 49q4 16 4 49q0 23 -10 47q-9 22 -31 43 q-23 16 -63 31q-35 12 -82 18q-29 4 -94.5 8.5t-95.5 4.5q-33 -2 -98.5 -2t-98.5 -2.5t-100 -2.5q-16 0 -48 -1t-49 -1q-51 -27 -102 -65q-33 -27 -70 -74q-31 -41 -51 -78q-14 -27 -35 -80l-32 -81q-25 -63 -33 -78q-14 -47 -31 -94q-20 -57 -27 -95q-12 -61 -14 -94z" />
<glyph unicode="E" horiz-adv-x="1961" d="M393 303q2 51 17 113q12 51 30 112l16.5 55.5t18.5 57.5q49 111 72 168q27 70 82 168q41 76 116 164q66 78 177 153q178 29 274 35q184 12 274 14q102 4 310 5q137 0 301 -11q57 0 96 -8q43 -8 72 -29q31 -20 39 -40q5 -14 5 -26.5t-5 -23.5q-4 -14 -13 -28 q-12 -20 -22 -30.5t-39 -21.5q-25 -8 -57 -6q-311 12 -467 15q-102 1 -196 1q-148 0 -282 -3q-45 -39 -81.5 -82t-51.5 -84v-13q-4 -8 -4 -12q0 -2 -1 -6t-1 -6q0 -4 6 -10q152 0 228 4q150 8 229 10q115 6 229 6h228q57 0 98 -8t82 -27q29 -12 47 -39q16 -23 0 -51 q-16 -31 -53 -45q-49 -18 -90 -26q-33 -6 -107 -11q-37 -2 -98 -6q-100 -6 -316 -14q-143 -6 -315 -23q-84 -10 -145 -28q-78 -23 -127 -52q-55 -31 -90 -65q-37 -37 -43 -76q-12 -37 -13 -51q0 -18 4 -51q3 -25 13 -49q4 -8 8 -25.5t8 -26.5q51 0 150 9q45 4 145 20 q57 10 145 29l72 17l72 17q100 27 282 66q143 31 297 37q12 1 22 1q29 0 50 -7q33 -10 43 -25q14 -18 14 -34.5t-10 -37.5q-15 -22 -37 -43q-18 -18 -55 -38q-80 -35 -154 -58q-61 -18 -166 -45l-174 -39q-49 -10 -97 -18t-79 -15q-233 -43 -338 -57q-160 -23 -307 -23 q-17 0 -35 1q-68 4 -121 14q-53 12 -94 35q-72 53 -84 114q-5 32 -5 72q0 19 1 41z" />
<glyph unicode="F" horiz-adv-x="1665" d="M393 213q0 23 4 72l6 71q6 59 23 156q12 78 41 160q43 117 117 225q68 100 166 223q43 49 45 51l53 50q20 14 70 36q29 12 86 25q111 20 194 29q66 6 197 14q121 14 211 16q139 4 209 5q61 -3 122 -13t111 -28q49 -20 72 -45q18 -20 18 -43q0 -10 -4 -21q-4 -18 -16 -29 q-16 -12 -39 -22q-25 -10 -51 -17q-35 -8 -60 -10q-39 -4 -104 -8q-33 -2 -95 -2q-14 0 -42.5 -1t-40.5 -1q-14 0 -41 1t-41 1q-43 0 -129 4q-43 2 -129 2q-6 0 -22.5 -1t-25.5 -1q-33 0 -47 -2q-39 -23 -63 -47q-27 -27 -45 -51q-23 -31 -33 -54l-23 -53l-8 -18l2 -17v-8 l191 6q119 4 186 9l191 8q90 3 132 3q29 0 54 -1q33 0 94 -8q35 -4 82 -21q37 -12 62 -31q27 -20 34 -43q2 -2 4.5 -5t4.5 -5q4 -6 -2 -12q-10 -23 -41 -39q-41 -20 -68 -29q-39 -12 -84 -18q-57 -8 -82 -10q-43 -2 -129 -7.5t-131 -9.5q-90 -6 -256 -14l-109 -6 q-41 -2 -108 -11q-70 -8 -105 -14q-59 -10 -104 -24q-4 -16 -7 -33t-7 -33q-4 -23 -21 -68q-2 -25 -14 -77q-4 -18 -10.5 -37t-12.5 -41q-29 -74 -32 -84q-20 -47 -54 -80q-29 -39 -88 -70q-46 -23 -108 -23q-8 0 -17 1l-61 12q-29 8 -41 27q-18 34 -25 67q-6 35 -6 72z" />
<glyph unicode="G" horiz-adv-x="2146" d="M408 602q0 61 24 123q43 106 154 211q108 101 264 190q71 43 160 86q80 39 186 72q111 35 207 51q109 18 219 19h31q167 0 323 -29q164 -31 299 -84l49 -18q16 -6 46 -23q25 -14 34 -26q14 -18 15 -33q0 -4 -4 -8q-2 -2 -2 -4.5t-3 -4.5l-22 -14l-29 -10q-43 -27 -82 -31 q-70 4 -127 18l-116 29q-47 12 -115 27q-63 14 -129 16q-22 1 -43 1q-66 0 -133 -7q-88 -8 -174 -31q-98 -25 -160 -49q-84 -33 -137 -65q-129 -70 -207 -160q-76 -88 -107 -174q-14 -33 -20 -76q-5 -32 -5 -56q0 -10 1 -20q4 -43 16.5 -73.5t40.5 -69.5q16 -31 60 -64 q37 -29 98 -51q59 -23 127 -31q67 -9 121 -8h28q70 0 121 8q78 12 115 23q55 15 104 37q29 12 88 49q90 51 138 104q52 58 73 117q6 6 11 27q4 16 4 26v25v27q-27 -2 -78 -7.5t-74 -7.5q-55 -4 -149 -16q-98 -12 -156 -16q-100 -8 -156 -11h-12q-32 0 -70 13q-33 10 -51 32 q-16 16 -20 41q-2 20 4 45q6 14 29 31q109 33 233 49q160 20 240 33q59 6 121.5 14.5t127.5 16.5q104 12 246 16q98 0 150 -22q57 -25 80 -60q23 -33 22 -80q0 -39 -20 -80q-6 -25 -19 -49q-16 -33 -28 -49q-61 -102 -168 -188q-123 -98 -254 -170q-71 -40 -154 -74 q-90 -37 -172 -59q-96 -27 -188.5 -41.5t-198.5 -14.5h-26q-104 0 -205 21q-111 23 -189 57q-82 37 -145 82q-61 43 -111 96q-51 51 -84 105q-33 55 -51 110q-16 51 -16 117z" />
<glyph unicode="H" horiz-adv-x="2009" d="M375 213q0 8 1 22.5t2 25.5t3 22q8 45 16 69q20 84 45 146l58 145l65 148l66 149q15 28 24 55l21 56l24 57l25 55q6 8 16.5 25.5t12.5 21.5q16 27 37 47q25 25 55 41q33 18 84 27q32 3 48 3l19 -1q41 -4 64 -8q20 -4 53 -16q16 -6 41 -23q35 -29 51 -63q9 -19 9 -39 q0 -17 -7 -33l-6 -12l-6 -21l-2 -4q-25 -49 -39 -73.5t-47 -73.5l-53 -74q-20 -29 -39 -76q-4 -12 -4 -18v-21q115 0 331 4q48 1 110 1q36 0 110 -0.5t112 -0.5q25 4 37 12q8 6 20.5 18.5t14.5 20.5q4 12 8 21q12 49 19 90q2 16 7 45t7 43l12 90q6 47 21 88q4 12 16 41 q8 18 29 43q14 18 49 35q25 12 80 12q68 -4 108 -20q49 -20 72 -41q31 -29 45 -55q10 -20 23 -58q18 -59 18 -121q0 -63 -20 -125q-8 -37 -17 -53q-12 -25 -22 -55l-41 -113q-4 -16 -13.5 -57t-15.5 -62q-18 -68 -21 -118q-8 -45 -22 -113q-12 -57 -39 -113l-31 -49 q-14 -23 -40.5 -49.5t-59.5 -42.5q-41 -20 -90 -29q-22 -3 -41.5 -3t-36.5 3q-39 6 -61 19q-29 14 -41 29q-18 23 -23 34q-12 28 -12 56q0 18 4 59q0 4 12 57q2 8 6 29l6 31q9 31 9 62v20q-2 41 -19 82q-72 0 -106.5 2t-106.5 2l-139 -6q-23 -2 -69 -3.5t-68 -1.5 q-16 0 -45 -2t-51.5 -3t-42.5 -1q-49 0 -140 -4q-4 -49 -8 -155q-4 -82 -20 -154l-25 -57q-10 -25 -35 -56q-29 -35 -69 -55q-28 -14 -61 -14l-25 2q-72 6 -111 22q-49 20 -76 43q-29 23 -45 54q-14 26 -14 61z" />
<glyph unicode="I" horiz-adv-x="1873" d="M399 149q0 5 2 17q10 16 31 22q27 8 49 11q37 4 54 4h51q43 2 125 2q70 0 127 8q6 12 6 23q0 6 8 22q31 98 63 170l72 168l84 174q43 90 74 174q23 47 31 90q7 35 6 68v22l-103 -8q-25 -2 -50 -3t-50 -3q-10 0 -33.5 -1t-36.5 -1h-78q-25 0 -73 4q-43 4 -64 10 q-27 8 -41 22.5t-8 37.5q39 35 86 53q57 23 119 37q88 20 129 26q68 10 129 21q129 20 278 27q113 5 205 4h74q41 -2 131 -7q66 -2 131 -12q80 -12 115 -24q49 -18 74 -50q-23 -37 -76 -59q-51 -23 -123 -33q-49 -2 -148 -10l-149 -12q-12 -25 -33 -74q-4 -8 -9 -23.5 t-10 -27.5t-12 -23l-36 -75l-31 -74q-6 -14 -21 -64l-18 -61q-8 -18 -16 -64q-6 -35 -19 -63q-10 -37 -20 -66l-13.5 -31.5t-13.5 -35.5l-25 -70q-12 -35 -18 -65q-2 -13 -2 -29q0 -13 2 -37q4 -33 21 -61q8 0 27.5 -1t29.5 -1q39 0 57 2h35l39 2h25q18 0 51 4q16 2 53 2 q35 2 102 2q49 0 95 -12q29 -20 34 -29q8 -12 13 -27q2 -12 -4 -26q-8 -16 -15 -25q-12 -16 -22 -27q-12 -12 -39 -18q-240 -23 -535 -29q-123 -3 -237 -2q-150 0 -289 4q-33 2 -113 11q-72 8 -106 16q-53 12 -88 31q-37 18 -49 47q-11 22 -11 26z" />
<glyph unicode="J" horiz-adv-x="1916" d="M330 653q0 10 4 27q2 14 18 25q20 12 41 18q31 8 53 10q18 2 54 2q66 0 100 -10q43 -12 74 -31q37 -23 51 -41q23 -29 29 -47l47 -119l47 -118q10 -29 29 -47q25 -27 51 -41q23 -14 76 -29q43 -12 98 -12q59 8 100 30q39 20 70 52q37 37 51 57q22 31 43 55q35 51 82 137 q29 51 59 138q8 20 18.5 56t12.5 44q8 27 23 102q10 55 10 101q0 49 -12 98q-2 14 -23 39q-16 20 -57 22h-52h-63q-23 0 -68 5q-23 2 -59 10q-27 6 -47.5 16t-26.5 25q-6 16 2 35q4 12 27 34q18 18 47 31q35 16 64 21t54 4h19q90 1 170 1q127 0 238 -3q182 -6 399 -23 q65 -12 111 -37q43 -23 59 -57q2 -4 4 -14.5t4 -14.5q1 -7 2 -13q0 -10 -4 -17q-2 -8 -14 -15q-10 -4 -27 -8q-20 -4 -30 -4q-20 0 -29 2q-31 -2 -96 -2q-61 0 -95 -2q-8 0 -23 -3t-17 -3q-14 -2 -35 -11q-14 -6 -29 -16q-8 -6 -12 -20q0 -6 -1 -14.5t-1 -12.5v-25 q1 -20 1 -41q0 -94 -22 -198q-27 -127 -74 -246l-28.5 -61.5t-24.5 -55.5q-31 -66 -67 -119q-39 -57 -94.5 -112t-137.5 -109q-41 -23 -88 -37q-63 -20 -102 -26q-70 -12 -107 -16.5t-108 -4.5q-113 0 -195 21q-84 20 -149 55q-76 39 -117 76l-92 82q-88 104 -131 184 q-49 88 -78 197q-6 12 -6 24z" />
<glyph unicode="K" horiz-adv-x="1914" d="M385 172q8 55 14 76l19 76q8 33 10 49q4 37 8 51l13 53q2 10 9 29.5t9 23.5q6 16 14 50q8 31 21 51l24 51l25 51q20 51 29 92q8 37 28 90q10 39 28.5 88.5t37.5 88.5q10 14 37 63q14 25 43 66q23 31 63 59q39 27 103 45q34 5 59 5q11 0 20 -1q37 -3 68 -12q27 -8 49 -27 q16 -14 21 -37q0 -49 -11 -84q-4 -23 -10 -43l-12 -41q-8 -29 -8 -41q0 -10 -4 -38l327 133l328 133q74 27 162 37q43 5 84.5 4.5t81.5 -4.5q41 0 67 -9q31 -9 49 -24q23 -18 27 -31q3 -9 3 -18t-3 -19q-6 -23 -27 -43q-16 -14 -51 -37q-31 -18 -65 -32q-57 -25 -72 -29 l-191 -59q-53 -16 -103 -33l-87 -29l-76 -28q-51 -20 -71 -31q-37 -20 -60 -37q-25 -18 -35 -41q-2 -29 11 -59q6 -14 36 -54q18 -25 50 -51l55 -49l154 -129l151 -125l49 -51q29 -29 41 -51q14 -25 21 -56q6 -25 -9 -59q-6 -12 -18 -24.5t-29 -20.5q-27 -14 -37 -17 q-29 -8 -49 -8q-17 -2 -35 -2q-16 0 -47 2q-37 2 -71 13q-23 6 -60 22q-23 10 -45 29l-73 74q-23 23 -76 71l-223 201l-232 201q-33 -84 -57 -177l-45 -178q-8 -27 -11 -45q-4 -23 -10 -47q-10 -25 -30.5 -57.5t-49.5 -59.5q-39 -25 -69 -34q-35 -12 -76 -19q-49 -8 -74 -8 q-47 0 -69 2q-33 10 -45 25q-16 20 -19 32q-4 25 -4 37v35z" />
<glyph unicode="L" horiz-adv-x="1873" d="M395 350q0 74 25 148q25 100 78 219t112 221q45 57 76 109q45 74 74 108q49 59 98 98q57 45 152 80q19 1 33 2q23 0 40 -4q31 -6 50 -18q20 -12 22 -31q4 -20 -4 -37l-41 -123q-22 -61 -49 -123q-29 -66 -45 -98q-27 -51 -45 -98l-39 -101q-4 -8 -16.5 -43.5l-20.5 -56.5 q-6 -27 -16.5 -63.5t-16.5 -63.5q-8 -39 -10 -65q-2 -29 4 -62t25 -59q16 -25 53 -51q143 4 258 14q63 6 258 29l203 22q113 14 200 16q43 0 84 -6q33 -6 72 -20q37 -14 53 -29q23 -20 33 -37q8 -14 6 -26q-14 -10 -43 -21q-6 -2 -51 -12q-166 -41 -303 -64 q-193 -31 -311 -47q-104 -12 -310 -28q-102 -8 -202 -9q-50 0 -101 3q-80 4 -135 20q-61 18 -102 43q-47 27 -72 57q-28 34 -43 68q-33 71 -33 139z" />
<glyph unicode="M" horiz-adv-x="2811" d="M403 258q6 109 23 188q18 100 51 193q23 68 74 168q39 74 96 166q57 68 86 108q37 51 90 105q47 47 115 86q59 35 162 57q14 1 29 1q37 0 73 -5q41 -6 82 -22q37 -16 59 -35q25 -23 37 -45q16 -31 21 -54q8 -37 10 -55q2 -8 4 -26.5t4 -28.5q2 -14 11 -53q2 -12 5 -36 t5 -36q8 -43 22 -70q6 -14 15 -30q4 -12 20 -33q10 -12 31 -27q18 -12 51 -18l238 172l235 174q59 33 109 67q51 37 112 72q55 33 127 62q70 29 154 40q45 0 119 -12q55 -8 100 -28q43 -18 74 -43q29 -25 47 -56q29 -59 31 -119q2 -47 2 -71q0 -28 -2 -51q1 -5 1 -10 q0 -6 -4 -13q-6 -12 -6 -25q-18 -63 -51 -124q-14 -33 -31 -66q-6 -12 -26 -63q-6 -10 -10 -21q0 -2 -2.5 -10t-2.5 -10q0 -6 -2 -10.5t-4 -10.5q-6 -16 -8 -20q-7 -36 -7 -74q0 -24 3 -51q2 -14 5 -39t5 -45.5t2 -38.5q8 -78 9 -117q0 -57 -19 -119q-16 -12 -41 -22 q-43 -16 -53 -19q-35 -8 -60 -10q-6 0 -19 -2t-23.5 -3t-18.5 -1q-14 0 -45 -1t-45 -1q-59 0 -88 6q-14 6 -25 16q-4 4 -8 11.5t-4 9.5q-8 10 -10 22q-4 12 -8 21q-10 43 -15 100q-1 13 -1 29q0 24 3 74q4 66 8.5 102.5t8.5 101.5q14 90 39 170q8 20 16 62q6 31 18 61 q2 12 4.5 37t2.5 27q4 35 -3 59q-123 -66 -217 -131q-92 -63 -182 -143q-92 -82 -158 -148l-147 -149q-6 -8 -49 -57.5t-49 -57.5q-6 -4 -14.5 -12t-14.5 -12q-20 -16 -33 -25q-20 -12 -37 -21q-27 -12 -53 -14q-9 -1 -19 0q-30 0 -77 6q-43 6 -80 19q-29 10 -59 32 q-25 18 -37 41q-41 57 -56 115q-14 55 -20 121q-4 20 -8 61q-2 10 -4 31t-4 31q-3 31 -13 61q-12 41 -22 60q-47 -27 -78 -64q-29 -35 -43 -69q-23 -51 -27 -72q-8 -31 -22 -72q-12 -29 -19 -63l-8 -31.5t-6 -32.5v-49q0 -33 2 -47q0 -8 1 -22.5t1 -22.5q0 -33 -6 -47 q0 -14 -14 -43q-12 -25 -37 -43.5t-62 -30.5q-25 -8 -56 -8q-16 0 -32 2q-76 2 -131 24q-57 23 -79.5 58t-28.5 69q-9 45 -9 68z" />
<glyph unicode="N" horiz-adv-x="2095" d="M397 240q-1 14 -1 28q0 22 3 68q4 51 15 96q2 10 7 30.5l9 37t8 30.5q6 23 23 68q14 41 31 70q35 86 69 153q53 102 84 154q49 66 72 102q25 43 69 99q37 46 86 86q53 43 127 69q76 0 121 -14q49 -14 84 -41q41 -29 60 -53l49 -56q55 -84 112 -190l107 -193l45 -77 q29 -53 47 -78q28 -37 62 -74q31 -33 79 -70q31 31 52 68q18 34 30 68q23 70 35 131q10 49 21 127l12 64.5t10 60.5q16 82 29 124q10 25 22 58q10 27 39 63q20 25 68 49q41 20 112 21q72 -6 121 -29q45 -20 68 -53q22 -31 24 -68q1 -9 1 -17q0 -28 -9 -52q-10 -51 -24 -96 l-29 -99l-61 -198l-84 -222l-82 -223l-9 -22q-25 -35 -43 -58q-27 -31 -57 -55q-43 -31 -84 -49q-53 -23 -108 -29q-115 4 -183 29q-82 31 -127 65q-57 43 -92 84q-41 47 -78 84l-159 207q-86 109 -152 209q-49 -20 -76 -43q-33 -29 -47 -51q-20 -31 -31 -53l-20 -54 q-18 -49 -23 -84q-4 -23 -16 -84q-14 -39 -20 -84q-6 -39 -19 -84q-8 -16 -16 -45q-4 -20 -25 -51q-14 -23 -45 -41q-25 -14 -88 -18q-51 4 -76 10q-43 10 -59 23q-12 12 -33 36q-16 20 -16 41q-17 44 -21 95z" />
<glyph unicode="O" horiz-adv-x="1978" d="M414 504l-2 34q0 95 43 193q45 113 131 213q90 106 235 197q66 45 158 86t188 67q117 33 209 45q90 13 181 13h36q106 0 201 -13q98 -12 174 -39q84 -29 141 -63q55 -33 97 -84q41 -45 61 -88q23 -47 29 -98q4 -34 4 -61q0 -20 -2 -38q-6 -45 -23 -102q-20 -55 -55 -121 q-37 -68 -78 -119q-53 -68 -102 -116q-37 -37 -135 -111q-72 -55 -156 -104q-90 -53 -193 -93q-111 -43 -221 -65q-108 -23 -218 -23h-25q-119 0 -222 23q-98 22 -172 61q-80 43 -125 86q-53 49 -79 101q-70 104 -80 219zM836 559q-1 -16 -1 -30q0 -52 9 -97q8 -33 16 -55 q12 -31 37 -55q29 -29 64 -46q37 -16 106 -20q82 0 174 25q74 20 145 57q61 33 117 78l94 80l78 88q57 72 70 90q31 46 55 92q18 35 37 90q18 49 18 96t-24 95q-4 16 -29 40q-20 18 -53 35q-35 16 -76 25q-39 8 -90 8q-18 1 -34 1q-63 0 -115 -11q-82 -16 -140 -39 q-70 -27 -118 -55q-51 -31 -91 -66q-88 -72 -139 -147q-53 -80 -80 -152q-28 -74 -30 -127z" />
<glyph unicode="P" horiz-adv-x="1701" d="M377 123q-1 6 -1 11q0 13 5 28l16.5 36.5l16.5 37.5q20 49 32 73q35 66 60 131l49 131q23 80 37 146l29 147q18 96 28 140q20 80 39 139q2 2 8 14q0 2 2 6t2 6q12 29 56 68q35 33 98 57q61 25 135 33q102 12 144 16l186 7q119 4 180 4q53 0 156 -8q84 -6 147 -21 q78 -16 129 -35q63 -23 109 -49q92 -57 131 -131q24 -44 24 -92q0 -30 -10 -62q-8 -43 -51 -92q-45 -53 -100 -88q-61 -40 -142 -74q-98 -41 -168 -61q-88 -29 -192 -51q-127 -29 -201 -39q-74 -12 -205 -27q-76 -8 -206 -20q-4 -12 -17 -37q-9 -18 -12 -37 q-22 -71 -31 -141l-6 -68q-2 -31 -16 -67q-12 -31 -29 -54q-20 -27 -68 -45q-86 -20 -137 -20q-76 0 -108 4q-41 4 -68 16q-25 12 -37 31q-12 17 -14 37zM985 862q0 -51 25 -119q121 2 241 25q115 20 236 53q45 10 102 31q63 23 97 39q35 18 75 47q31 23 45 55q2 13 3 26 q0 49 -40 93q-2 2 -7 8t-10 10.5t-9 8.5q-20 16 -33 22q-20 10 -45 17q-33 8 -59 8q-31 2 -62 1.5t-63 -1.5q-65 -3 -129 -12q-59 -8 -123 -29q-68 -20 -105 -41q-49 -27 -77 -55q-31 -29 -39 -64q-23 -64 -23 -123z" />
<glyph unicode="Q" horiz-adv-x="1892" d="M383 551q2 6 4 20.5t4 22.5q2 10 10 41q47 125 127 227q90 115 220 215q68 55 139 99q72 45 176 88q88 37 205 63q108 25 227 25h27q94 0 170 -19q94 -23 149 -55q59 -35 105 -82q41 -43 63 -92q45 -96 45 -201q0 -106 -37 -211l-47 -102q-20 -43 -63 -101 q-41 -55 -92.5 -100t-131.5 -90q31 -46 80 -86l101 -80q25 -29 30 -43q10 -23 -2 -47q-10 -16 -24 -27q-33 -23 -39 -24q-25 -10 -51 -17q-35 -8 -60 -10q-10 -2 -26 -2q-4 0 -13.5 -1t-13.5 -1q-49 53 -104 96q-59 47 -144 80q-35 -29 -78 -51q-35 -18 -102 -41 q-51 -16 -115 -27q-55 -8 -118 -8q-102 0 -175 17q-84 20 -141 45q-59 27 -108 63q-39 31 -82 76q-74 80 -103 162q-19 54 -19 110q0 33 7 68zM729 422q-1 -15 -1 -28q0 -21 3 -40q6 -29 29 -59q18 -25 67 -45q43 -18 115 -25q41 0 74 8q43 10 69.5 20.5t57.5 29.5 q20 12 35 34q-29 29 -60 52q-33 25 -63 51q-31 23 -51 53q-18 27 -15 62q3 12 19 24q10 8 34 19q23 10 48 12q37 4 53 2q68 -4 100 -10q57 -10 88 -23q33 -12 70 -35q29 -16 45 -41q43 33 57 49q29 37 39 56l27 53q4 14 10 28.5t12 26.5q23 70 37 138q13 59 13 116 q0 11 -1 23l-4 41q-4 25 -8 41q-6 25 -16 39q-18 29 -31 36q-23 16 -51 25q-39 12 -74 14q-88 -6 -162 -34q-72 -29 -125 -64q-55 -37 -96 -78q-43 -41 -78 -78q-174 -180 -237 -362q-4 -18 -17 -64q-9 -33 -12 -67z" />
<glyph unicode="R" horiz-adv-x="2189" d="M393 141q-3 12 -3 25.5t3 26.5q6 37 19 73q4 14 28 72q14 37 33 72l35 73l74 154q49 102 71 154q16 47 21 96q4 66 8 98q-1 8 -1 16q0 36 11 76q12 49 33 94q16 33 33 52q20 25 57 47q31 20 82 37q47 16 100 18q190 12 389 18q154 5 282 5h104h21q113 0 212 -29 q106 -31 166 -82q70 -51 96 -111q14 -32 15 -67q0 -30 -11 -62q-10 -35 -37 -65q-31 -35 -69 -60q-63 -41 -94 -55l-33 -16l-38.5 -18.5t-33.5 -14.5q-111 -49 -252 -88q-135 -37 -280 -49q129 -49 254 -103q137 -59 233 -110l94 -49q47 -25 90 -52q51 -33 78 -57 q31 -29 51 -65v-21v-20q0 -2 -6 -21q-3 -9 -12 -18q-8 -18 -39 -43q-29 -23 -76 -29q-35 -5 -67.5 -5t-61.5 5q-59 10 -102 27q-46 18 -80 43q-20 14 -61 51q-20 16 -72 61q-33 29 -82 58q-170 92 -281 143q-147 68 -307 129q-33 -33 -47 -63q-16 -37 -29 -70 q-10 -37 -16 -64l-12 -63q-8 -39 -33 -84q-18 -35 -51 -82q-35 -41 -92 -70q-43 -22 -100 -21q-13 0 -27 1q-49 2 -101 16q-45 12 -69 37q-9 16 -17 49zM1067 848q-1 -12 -1 -22q0 -20 5 -38q117 0 242 23q106 18 229 53l107 31q53 14 100 37q63 29 82 43q35 25 47 53 q9 16 9 35q0 5 -1 10q-2 16 -24 39q-16 16 -54 27q-32 9 -68 8h-18q-60 2 -120.5 1.5t-120.5 -1.5l-242 -4q-35 -6 -53 -19q-20 -14 -30.5 -26.5t-18.5 -32.5q-6 -14 -17 -29q-4 -10 -11 -31.5t-11 -31.5q-8 -20 -21 -62q-6 -18 -10 -63z" />
<glyph unicode="S" horiz-adv-x="1974" d="M367 211l-2 18q0 13 4 25l8 12l29 6q51 -2 94 -12q14 -4 46 -9t46 -7q33 -6 94 -15q59 -8 96 -10q55 -2 183 -2q63 0 198 12q106 10 195 27q90 18 176 47q70 25 133 70q55 41 78 96q6 23 8 29q6 15 6 30q0 14 -12 27q-8 8 -45 12q-25 0 -78 -1t-80 -1q-55 0 -158 -4 q-51 -2 -157 -2q-53 0 -156 -4q-45 0 -131 4q-51 2 -129 10q-49 4 -119 21q-61 14 -102 33q-47 25 -68 49q-27 35 -30 55q-8 37 -2 64q8 37 20 63q18 49 57 94q49 57 93 90q49 39 122 82q84 49 144 76q63 29 159 64q74 27 181 51q82 18 188 32q69 9 147 9h46q125 0 233 -15 q131 -16 213 -41q94 -27 164 -71q68 -43 90 -103q10 -16 10 -30q-4 -12 -14 -19q-8 -4 -28.5 -8t-35.5 -4q-23 0 -32 2q-78 4 -133 14q-82 16 -123 27q-63 10 -127 22.5t-137 12.5q-25 1 -51 1q-88 0 -191 -16q-123 -18 -234 -55q-74 -20 -106 -35q-39 -18 -88 -47 q-43 -27 -68 -51q-23 -23 -37 -59q-12 -20 -6 -41q6 -18 29 -35q16 -12 59 -23q28 -7 60 -7q11 0 22 1q61 0 127 6q31 2 64.5 5t66.5 5l131 13q66 6 127 6q51 0 142 -8q74 -6 129 -21q72 -18 110 -35q45 -20 84 -51q33 -29 49 -57q14 -25 23 -62q2 -11 2 -24q0 -18 -4 -41 q-6 -31 -23 -68q-20 -49 -73.5 -96t-124.5 -86q-80 -43 -158 -74q-92 -37 -176 -59q-195 -57 -387 -84q-184 -25 -339 -26q-29 0 -59 1q-139 10 -227 29q-137 27 -207 47q-2 14 -10 39t-12 39q0 2 -6 41z" />
<glyph unicode="T" horiz-adv-x="2023" d="M598 1161q0 6 1 17.5t1 17.5q0 10 4 35q12 16 33 24q16 8 45 15q31 8 53 10q8 0 26.5 1t26.5 3q139 10 441 27q147 8 438 16q166 6 325.5 6t319.5 -6q49 -4 82 -14q41 -14 64 -29q33 -18 47 -33q16 -16 20 -41q-6 -25 -37 -43q-33 -20 -73 -28q-57 -12 -93 -15 q-8 0 -40.5 -3t-49.5 -3q-59 -3 -124 -3q-41 0 -89 1q-35 0 -106.5 1t-106.5 3l-108 -217l-105 -217l-104 -217q-61 -127 -111 -217q-20 -27 -45 -68q-25 -43 -51 -71q-29 -33 -78 -62q-39 -23 -121 -37q-21 -1 -37 -1q-34 0 -63 5q-51 10 -84 25q-31 14 -49 39q-16 23 0 51 l37 92q16 33 53 88q43 74 55 93q29 45 56 92l53 94q29 51 43 90l16 55.5t19 57.5q18 55 30 110q8 37 17 111q3 28 3 54.5t-3 53.5l-291 -6q-88 -2 -289 -10q-29 6 -35 18q-4 10 -10 23z" />
<glyph unicode="U" horiz-adv-x="1849" d="M442 334q-7 31 -7 63q0 53 20 109q25 82 41 121l49 121l57 122l57 121l9 19l10 16v10q8 18 8 45q0 33 2 47.5t2 45.5q0 27 12 47q20 27 49 43t80 32q57 20 89 27q45 8 96 12q55 -12 82 -28q35 -20 49 -43q16 -25 18 -52q2 -18 -2 -55q-2 -23 -14 -57q-6 -16 -9 -29.5 t-7 -23.5l-60 -134q-29 -66 -61 -131q-18 -45 -60 -135q-31 -68 -55 -135q-12 -43 -18 -86q-3 -20 -3 -39q0 -24 5 -47q4 -20 12 -39q10 -23 27 -35q18 -14 47 -26q31 -12 73 -13q106 6 176 37t119 74t82 90l62 86l123 270l116 271q12 25 41 78q16 33 58 75l13 13.5l16 17.5 t16 14q23 18 57 37q25 12 66 23q28 7 57 7q10 0 20 -1q45 -6 78 -19q41 -14 60 -28q33 -18 47 -33q16 -16 15 -32q0 -5 -1 -9q-6 -6 -12 -11l-15.5 -12.5t-13.5 -11.5q-23 -16 -45 -35q-33 -35 -47 -71q-25 -57 -29 -72q-25 -94 -35 -141q-12 -35 -18 -72q-6 -31 -23 -72 q-37 -100 -94 -200q-57 -98 -153 -199q-57 -53 -138 -108q-86 -57 -165 -95q-82 -37 -193 -63q-86 -21 -186 -21h-27q-21 -1 -42 0q-70 0 -128 9q-78 12 -149 34q-78 25 -123 52q-57 33 -88 67q-77 72 -95 158z" />
<glyph unicode="V" horiz-adv-x="1859" d="M631 1225q6 8 16 16q16 12 27 16q20 8 32.5 12.5t32.5 12.5q31 10 72 14q27 2 76 11q55 -4 82 -15q41 -16 51 -26q16 -16 27 -39q6 -14 10 -47t4 -45q0 -31 2 -43q-22 -111 -37 -222q-10 -74 -27 -221v-31q0 -4 -1 -14t-1 -14v-29q0 -12 7 -29l6 -45q3 -22 12 -36 q8 -12 29 -27q20 -12 51 -16q51 20 94 53q35 27 70 61q33 31 59 66q18 23 59 63l127 154l125 153q33 37 107 111q35 35 117 109l55 43q29 27 59 47q29 20 70 39q29 12 90 24q53 -10 84 -28q47 -29 59 -41q29 -29 43.5 -51.5t14.5 -55.5q-10 -29 -31 -53q-23 -27 -57 -51 q-10 -8 -72 -52l-72 -51q-119 -109 -198 -196l-127 -144l-131 -141l-142 -139q-100 -92 -157 -135q-49 -39 -91 -64q-55 -35 -112 -57q-80 -33 -131 -43q-66 -14 -150 -15q-45 2 -76 19q-35 18 -45 35q-10 18 -14 43l-5 20t-5 25q-12 63 -19 118q-5 47 -4 87v32q2 41 2 125 v30.5v30.5q0 35 2 62q0 145 -18 287q-14 117 -51 282v7v8z" />
<glyph unicode="W" horiz-adv-x="2412" d="M416 272q0 55 4 84q8 63 14 88l15 84q12 34 18 68q6 37 20 68q25 70 76 167q49 96 101 168l88 109q33 41 100 98q57 47 125 80q71 34 172 49q10 1 20 1q47 0 72 -13q27 -12 37 -41q8 -23 2 -49q-8 -33 -16 -49q-22 -43 -50 -86q-10 -16 -32.5 -45t-26.5 -37 q-14 -20 -31 -35q-18 -14 -32 -33l-66 -92l-65 -90q-41 -61 -58 -92q-20 -39 -43 -94q-17 -45 -17 -86q0 -6 1 -13q4 -53 26 -96q113 59 185 125q78 72 131 139q74 94 104 144q51 82 105 143q15 31 37 61l47 62q12 16 30 28q25 16 47.5 28.5t57.5 19.5q33 7 55 6h12 q59 0 101 -13q43 -12 63 -30q22 -18 31 -43q10 -27 10 -54q0 -35 -2 -53q-4 -37 -4 -49l-18 -100l-21 -99q-4 -29 -8 -90q-1 -12 -1 -25q0 -22 3 -63q4 -47 14 -86q14 -49 33 -84q59 41 86 74q45 53 62 80q8 12 45 82l43 82q51 106 77 176l70 176l37 86q6 14 41 84 l18.5 28.5t12.5 18.5q18 29 28 37l13 14l20 17q6 4 20.5 10t20.5 8q16 6 29 4q80 -2 135 -29q51 -25 76 -57q29 -39 30 -74q1 -16 2 -28q0 -26 -6 -47l-18 -58q-8 -25 -27 -57l-43 -96q-14 -33 -35 -99l-12 -43l-12 -45l-12 -45q-2 -8 -4.5 -14l-5.5 -13.5t-7 -15.5 q-35 -84 -92 -168q-59 -88 -143 -164q-47 -43 -93 -77q-49 -37 -114 -72q-76 -39 -139 -57q-82 -23 -166 -29q-19 -1 -37 -1q-88 0 -156 23q-74 27 -125 70q-23 20 -43 47q-25 33 -35 49.5t-26 49.5l-29 51q-51 -57 -57 -66q-27 -31 -72 -67q-53 -45 -84 -66 q-39 -27 -100 -53q-55 -25 -121 -37q-76 -14 -141 -14q-80 4 -129 16q-63 16 -107 37q-49 23 -78 49q-31 29 -47 59q-16 43 -16 84z" />
<glyph unicode="X" horiz-adv-x="1945" d="M352 145q0 4 4 17q0 2 2 8t4 8q20 47 80 107q43 43 119 98q57 41 141 94q37 23 142 94l106 72q37 25 103 74q-14 37 -37 76q-39 66 -45 75l-49 74l-45 76q-16 27 -39 59q-18 25 -35 60q-20 41 -26.5 61.5t-6.5 41.5q0 12 2 24q4 12 27 26q16 10 47 19q45 10 55 12l55 6 l66 4q31 2 57 -4q18 -6 37 -16q6 -4 14.5 -10.5t14.5 -12.5q37 -37 61 -69l51 -72q49 -66 68 -100q29 -53 64 -101q76 70 137 115l149 110q39 23 70 46q53 39 67 47q49 29 76 41q40 18 92 30q59 -4 88 -12q41 -12 66 -28.5t39 -41.5q9 -16 9 -33q0 -5 -1 -12 q-37 -74 -108 -139q-68 -63 -168 -129q-121 -80 -197 -123l-201 -119q25 -43 56 -86q14 -20 67 -82l70 -81l67 -84q33 -41 52 -62l51 -61q4 -6 45 -64q16 -25 35 -63q-14 -14 -39 -27q-18 -10 -56 -20q-27 -12 -63 -19q-10 -2 -32.5 -5t-33.5 -5q-76 4 -118 20 q-53 20 -82 45q-45 37 -64 58q-25 29 -59 55q-41 47 -111 141l-106 144l-160 -140l-156 -139q-37 -25 -73 -55q-39 -33 -78 -57q-47 -31 -94 -48q-55 -20 -117 -22q-39 4 -70 12q-35 10 -51 23q-25 16 -31 30q-6 12 -6 25q0 7 2 14z" />
<glyph unicode="Y" horiz-adv-x="1712" d="M567 117q-4 13 -4 25q0 17 8 32q20 51 70 111q43 51 104 106q59 53 127 103l134 100q-109 0 -172 18q-74 23 -123 54q-51 33 -82 75q-29 41 -41 82q-19 58 -19 116q0 29 4 56q16 88 58 174q10 25 31 45q14 14 55 39q33 20 71 31q49 14 91 16q53 0 75 -10q27 -12 39 -30 q14 -20 17 -37q0 -6 1 -19.5t3 -19.5q-6 -41 -15 -123q-4 -41 -16 -123q0 -25 8 -47q10 -27 29 -43q22 -18 55.5 -30.5t85.5 -12.5q78 16 131 43q59 29 103 61q72 53 88 68q43 41 82 67q57 45 84 70l80 70l88 67q39 29 98 64q25 10 61 14q32 3 47 3q10 0 19 -1q39 -2 84 -16 q41 -12 65 -29q27 -18 39 -39q10 -17 10 -34q0 -7 -2 -13q-12 -31 -40 -67q-23 -29 -66 -64q-53 -45 -80 -63l-86 -62l-213 -137q-102 -68 -201 -143q-109 -92 -200 -183l-191 -184q-37 -43 -76 -82q-53 -53 -75 -80q-2 -2 -41 -35q-14 -12 -47 -37q-16 -12 -57.5 -28.5 t-71.5 -18.5q-65 0 -111 13q-47 12 -78 37q-27 20 -37 51z" />
<glyph unicode="Z" horiz-adv-x="1914" d="M395 150q10 16 19 34q6 14 24 33q43 45 84 82l96 80l103 76l106 75q240 164 476 308l491 301q-10 2 -147 12q-61 5 -113 5l-41 -1h-84q-29 0 -86 -4h-80h-82q-98 -4 -139 -4q-23 0 -69 2t-70 2l-78 6q-39 4 -66 12q-31 10 -41 21q-14 14 -6 29q45 39 127 65q76 25 164 37 q96 14 178 16q70 2 172 11l164 4h84h82q18 0 38.5 -1t46.5 -3t40 -2q66 -4 127 -13t117 -24q49 -14 92 -37q41 -23 59 -49q14 -21 14 -46q0 -8 -2 -18q-12 -41 -38 -76q-31 -41 -64 -73q-31 -31 -84 -70q-63 -49 -90 -68l-270 -176l-281 -170l-121 -75q-98 -59 -121 -74 q-39 -25 -112 -78l-105 -82q207 6 412 25q176 16 410 47q8 2 24 2q4 0 25 4q20 2 40 1.5t42 -1.5q41 -2 75 -12q34 -9 50 -25t0 -41q-20 -31 -50 -49q-41 -27 -88 -37q-174 -35 -397 -59q-129 -14 -401 -35q-213 -12 -217 -12q-29 -1 -59 -1q-71 0 -154 5q-35 2 -84 18 q-25 8 -66 29q-8 4 -14 8t-13 8q-4 2 -12 8l-12 9q-12 9 -19 18q-6 9 -6 23z" />
<glyph unicode="[" horiz-adv-x="1347" d="M375 172q0 25 6 45q14 63 41 152l41 149l43 156q23 82 55 155l51 121q27 59 60 119q45 82 73 121q49 68 97 117q2 2 8 6t8 6q8 4 21 8q209 25 372 27q184 2 359 -19q45 -8 63 -14q29 -10 47 -25q18 -16 26.5 -30.5t4.5 -34.5q0 -10 -8 -17q-12 -8 -21 -12q-4 -2 -11 -6 t-11 -6t-12.5 -5t-12.5 -5q-33 -10 -63 -17q-37 -6 -68 -4q-66 6 -196 10q-98 2 -199 0v-4q-10 -18 -29 -37q-14 -14 -22 -36l-56 -144l-57 -141l-55 -145q-33 -82 -53 -146q-6 -18 -19 -49q-10 -25 -22 -51l-19 -49q-2 -8 -8 -25.5t-8 -26.5q-8 -16 -17 -49q-2 -8 -7 -24.5 t-7 -24.5q106 -8 162 -8q111 0 166 2q23 2 65 2q20 0 66 4q23 0 63 -4q23 -2 56 -14q23 -8 34 -25q10 -14 2 -31q-4 -16 -26 -37q-14 -14 -47 -32.5t-66 -26.5q-37 -10 -76 -12q-157 -18 -313 -19q-180 0 -305 11q-25 2 -51 10l-41 12q-31 15 -49 37q-18 20 -27 41 q-8 18 -8 45z" />
<glyph unicode="\" horiz-adv-x="1327" d="M561 1313q0 18 6 33q14 14 49 24q31 8 66 12q27 2 63 -2q29 -4 54 -12q16 -6 41 -22q18 -12 30 -25l45.5 -63.5l45.5 -63.5l135 -199q68 -104 116 -204q28 -71 62 -142l63 -141l60 -115l57 -112q4 -16 16 -54q8 -23 15 -53q6 -25 2 -53q-4 -31 -17 -53q-2 -10 -12 -21 q-14 -14 -24 -18l-33 -13q-14 -4 -39 -8q-68 4 -105 21q-39 18 -63.5 42.5t-42.5 55.5q-20 35 -37 53q-144 224 -264 449q-111 209 -211 461q-18 29 -31 65q-16 45 -28 66q-4 10 -9 30q-2 6 -4 16.5t-4 14.5q-2 11 -2 31z" />
<glyph unicode="]" horiz-adv-x="1351" d="M295 137q0 8 8 15q2 0 9 6t11.5 8t12.5 5t12 5l25 12q41 12 61 17q35 6 64 4q70 -4 200 -8q68 -2 199 -2l2 2q10 20 27 39q12 12 24 36l54 142q14 37 29.5 72.5t27.5 66.5l55 145q33 82 53 146q6 29 19 51q12 25 22 51q6 10 21 51q6 16 14 50q12 27 17 51q2 16 14 49 q-106 8 -162 8q-109 0 -164 -2q-23 -2 -65 -2q-20 0 -66 -4q-25 0 -65 4q-35 4 -55.5 12.5t-32.5 24.5q-12 14 -2 33q6 12 28 35q14 14 47 32q27 14 64 25q34 9 74 12q145 16 315 21q145 2 305 -11q37 -4 51 -8q29 -8 41 -14q31 -14 51.5 -34.5t26.5 -41t6 -45.5 q0 -8 -10 -45q-29 -117 -39 -152q-18 -63 -39 -151l-43 -156q-22 -77 -55 -153l-51 -123q-23 -51 -62 -121q-33 -59 -76 -121q-41 -57 -98 -119q-6 -6 -12 -10q-8 -4 -21 -8q-197 -23 -372 -23q-203 0 -357 17q-72 10 -110 39q-39 30 -33 67z" />
<glyph unicode="^" horiz-adv-x="1265" d="M444 770q20 39 52 74q29 33 73 69q40 34 86 68q25 18 46.5 35.5l39.5 32.5q53 31 97 61q31 23 100 64q78 45 106 59q58 28 130 43q68 -10 122 -39q49 -25 82 -57q39 -39 60 -70q16 -25 55 -68l41 -69q18 -29 33 -72q14 -41 16 -72q2 -37 -16 -77q-8 -14 -27 -27 q-14 -10 -43 -20q-16 -6 -53 -15q-28 -6 -55 -6q-8 0 -22.5 -1t-20.5 -1q-16 0 -46 4q-14 2 -34.5 10.5t-24.5 16.5q-37 92 -67 153q-43 88 -80 150l-172 -152l-168 -153q-8 -10 -21 -15l-31 -6q-10 -2 -32 -2h-33q-49 4 -72 8q-29 6 -57 19q-37 12 -47 22q-17 17 -17 33z " />
<glyph unicode="_" horiz-adv-x="2111" d="M274 90q63 41 146 60q96 20 174 26q123 8 186 8q121 0 176 4q55 3 111 0q37 -2 111 -2q39 -2 112 -2q18 0 56 -1t59 -1h123q82 -4 125 -4q41 -2 123 -2h120q8 -2 36 -8t44 -10q43 -12 72 -27q35 -16 43 -37q10 -20 -16 -47q-31 -23 -76 -31q-47 -10 -88 -12 q-753 -9 -1499 0q-25 2 -60 10q-27 6 -45 19q-20 14 -28 26q-9 15 -5 31z" />
<glyph unicode="`" horiz-adv-x="491" d="M752 1690q0 14 4 22q2 10 18 23q8 6 33 18q12 6 41 14q20 6 47 7q66 -6 111 -33q37 -23 57 -59.5t22 -69.5l5.5 -38t3.5 -32q0 -4 -2 -13t-5 -13q-3 -12 -12 -25q-8 -14 -26 -21l-43 -12q-76 0 -125 23q-45 20 -74 53q-25 27 -37 65q-8 23 -16 68q0 4 -1 12.5t-1 10.5z " />
<glyph unicode="a" horiz-adv-x="1927" d="M279 143q0 35 4 54q15 55 43 110q29 57 65 113q59 88 78 112l86 109l176 213q89 104 197 209l114 92q47 37 138 90q63 37 163 72q88 31 205 37q90 0 162 -23q68 -23 109 -53q45 -35 69 -76q20 -33 35 -80q29 -90 31 -180q2 -61 2 -182q-4 -59 -4 -180q0 -74 28 -179 q4 -8 11.5 -28.5t11.5 -28.5q16 -35 20 -57q5 -22 5 -42v-16q-2 -31 -21 -59q-16 -29 -31 -43q-12 -12 -49 -37q-27 -18 -65 -31q-33 -10 -84 -14q-25 -3 -48 -3t-44 3q-43 6 -72 21q-37 18 -49 34q-16 25 -15 43q10 43 11 103q0 68 2 100h-195q-68 0 -100 2q-46 3 -69 3 q-15 0 -30 -1q-57 0 -172 -4q-119 -4 -176 -10q-37 -51 -73 -90q-53 -57 -76 -88q-4 -2 -15.5 -13.5t-21.5 -23.5q-16 -18 -43 -39q-25 -18 -60 -31q-33 -12 -75 -12q-47 2 -99 16q-46 12 -67 37q-12 24 -12 51zM946 539q109 -2 326 -2h325q4 49 9 155q2 55 10 156 q-2 12 -4 36.5t-4 37.5q-4 39 -15 71q-12 39 -32 70q-18 31 -62 59q-68 -29 -115 -59q-53 -35 -94 -70q-47 -41 -76 -71q-45 -49 -65 -74q-61 -76 -109 -156z" />
<glyph unicode="b" horiz-adv-x="2084" d="M389 213q-4 18 -4 35q0 24 8 47q8 37 35 80q39 66 51 80q53 100 58 110q37 84 47 111q39 106 78 258q37 137 59 260q39 23 94 45q66 27 111 39q78 20 118 29q18 4 40 7t46.5 6t38.5 5q135 16 248 23q123 6 246 6q41 0 127 -4q78 -4 123 -8.5t117 -16.5q41 -6 104 -27 q55 -16 90 -36q33 -18 57 -52q20 -25 27 -59q2 -11 2 -22q0 -19 -6 -39q-8 -29 -39 -72q-25 -35 -67 -70q-41 -35 -91 -65q-66 -41 -102 -60q94 -25 158 -67q61 -43 92 -97q34 -49 37 -104v-11q0 -43 -21 -100q-29 -61 -96 -114q-72 -55 -162 -97q-115 -51 -207 -79 q-123 -37 -227 -58q-240 -51 -473 -65q-116 -7 -227 -8q-125 0 -242 10q-55 4 -78 10q-37 10 -61.5 22.5t-44.5 32.5q-23 23 -33 35q-21 35 -31 80zM805 238q52 -2 106 -3q91 0 195 7q135 8 303 39q80 16 143.5 36.5t123 53t91.5 65.5q39 39 48 74q14 20 14 44q0 9 -2 17 q-6 33 -35 56q-31 25 -80 37q-43 11 -96 10h-23q-100 -2 -198 -19q-59 -8 -195 -39l-90 -24q-31 -8 -88 -29q-59 -20 -80 -31q-41 -18 -70 -38q-20 -37 -28 -66l-21 -63q-20 -52 -19 -102q0 -12 1 -25zM991 793q29 4 84 11t76 11q111 16 168 27q94 16 166 32q78 16 151 44 q63 23 125 59q53 33 84 76q6 12 6 23q0 7 -2 14q-6 20 -24 34q-14 12 -49 23q-20 6 -72 6q-127 0 -191 -2q-111 -4 -190 -18q-57 -12 -88 -23q-51 -18 -80 -33q-39 -20 -61 -39q-25 -20 -37 -47q-6 -8 -8 -16q0 -4 -2.5 -8t-4.5 -9l-16 -40q-8 -18 -14 -41q-4 -29 -8 -43z " />
<glyph unicode="c" horiz-adv-x="1914" d="M389 414q-3 25 -3 50q0 73 26 150q43 123 143 242q96 113 262 225q74 53 164 103q88 47 199 88q108 40 227 61q105 19 214 19h32q147 -2 270 -41q115 -35 199 -97q43 -29 76 -57q41 -37 57 -63q23 -35 31 -70q5 -18 4.5 -36.5t-4.5 -37.5q0 -12 -15 -35q-14 -20 -37 -34 q-20 -12 -57 -23q-25 -7 -54 -7q-10 0 -20 1q-70 0 -121 22q-49 20 -71 52q-27 33 -43 63q-33 57 -37 66q-29 35 -88 55q-54 19 -120 19q-10 0 -19 -1q-94 0 -168 -20q-82 -23 -138 -53q-76 -41 -112 -72q-68 -55 -90 -76q-78 -74 -146 -170q-63 -90 -90 -174 q-16 -37 -26 -84q-6 -25 -11 -82q2 -29 13 -59q10 -35 28 -53q20 -20 57 -37t91 -17q19 -1 38 0q56 0 173 7q94 6 211 32q66 16 94 28.5t94 37.5q39 14 102 29q55 12 111 12q10 1 19 1q28 0 44 -7q22 -9 31 -25q8 -14 6 -33q-2 -12 -14 -32q-2 -4 -3 -9.5t-3 -9.5t-12 -14 q-31 -31 -70 -53q-53 -31 -94 -45q-70 -25 -107 -35l-110 -31q-111 -28 -228 -49q-111 -20 -233 -21h-28q-83 0 -171 15q-96 16 -166 45q-78 33 -129 69q-61 43 -90 84q-76 89 -88 187z" />
<glyph unicode="d" horiz-adv-x="1880" d="M379 217q-4 17 -4 35q0 27 8 55q25 80 49 144l57 143l76 151l72 152q20 29 27 64q8 41 18 61q8 29 23 63q6 18 26 64l19.5 29.5t25.5 35.5q25 33 72 62q46 28 110 43q63 14 134 18q164 8 251 9q141 0 248 -8.5t230 -32.5q102 -20 194 -64q84 -41 131 -94q45 -51 64 -113 q14 -46 14 -93q0 -16 -2 -32q-6 -70 -27 -127q-23 -74 -65 -137q-57 -84 -111 -135q-72 -68 -153 -127q-102 -72 -187 -119q-84 -49 -215 -102q-117 -47 -250 -82q-132 -34 -270 -49q-82 -9 -160 -9q-58 0 -114 5q-47 2 -88 12q-39 8 -70 24q-29 14 -53.5 33t-42.5 37 q-31 53 -37 84zM831 422q-2 -15 -1 -31q0 -38 10 -82q22 -1 43 0l141 8q104 14 180 33q74 18 162 58q72 31 133 73q80 49 117 82q59 51 88 88q43 53 63 92q16 31 41 93q8 27 11 34q0 6 2 17.5t4 17.5q0 18 4 51q1 7 1 15q0 13 -3 37q-4 27 -18.5 47t-49.5 39q-47 20 -80 26 q-29 6 -94 15q-49 6 -100 6q-18 0 -53 1t-52 1q-16 -2 -53 -2h-51q-16 -2 -53 -2q-8 0 -24.5 -1t-27.5 -1q-43 -31 -90 -86q-31 -35 -59 -90q-29 -51 -43 -91q-16 -41 -41 -90l-22.5 -66.5l-18.5 -54.5l-43 -120q-15 -49 -23 -117z" />
<glyph unicode="e" horiz-adv-x="1964" d="M387 328q6 74 25 139q22 61 49 123q23 53 63 125q34 61 74 123l80 123l80 120q16 25 88 121q41 35 82 49q57 23 110 33q78 16 119 23l121 16q209 23 395 25q75 1 135 1q124 0 226 -6q31 0 80 -8q25 -4 61 -22q25 -12 37 -31q8 -12 8 -27q0 -7 -2 -14q-2 -14 -23 -31 q-18 -16 -45 -24q-18 -6 -59 -15q-20 -4 -61 -4h-136q-92 0 -135 2q-23 1 -46 1l-138 -7q-127 -12 -184.5 -24.5t-85.5 -20.5q-20 -6 -80 -31q-45 -18 -66 -34q-33 -25 -45 -43q-4 -10 -10 -18.5t-12 -18.5l-17 -35q-8 -16 -8 -23q0 -14 -2 -22q131 4 231 14q70 8 234 21 q152 16 229 22q88 7 174 7q29 0 58 -1q51 0 77 -4q37 -6 66 -18q27 -12 39 -31q12 -16 -2 -41q-10 -31 -47 -49t-86 -30.5t-105 -18.5q-31 -4 -102 -8q-74 -4 -148.5 -7.5t-148.5 -7.5q-129 -6 -297 -22q-88 -14 -145 -35q-66 -25 -119 -55q-47 -29 -84 -68q-31 -33 -41 -76 q-19 -51 -19 -98v-14q4 -57 19 -113q133 14 285 47l276 68l139 33q102 23 140 28q82 14 145 23q70 8 143 12q11 1 24 1q20 0 54 -3q39 -4 70 -12q29 -8 53 -23q23 -12 35 -31l2 -6q-59 -39 -156 -75q-37 -14 -184 -58q-121 -35 -197 -51q-88 -18 -194 -47l-203 -45 q-193 -41 -205 -43q-139 -25 -209 -33q-121 -14 -209 -14q-68 4 -112 14q-49 12 -82 35q-25 20 -39 55q-6 12 -21 58q-18 55 -17 107q0 14 1 28z" />
<glyph unicode="f" horiz-adv-x="1562" d="M354 170q-1 9 0 18q0 21 4 45q6 20 19 48q16 33 22 49l47 100q14 33 39 102q12 33 19 60q8 37 16 57l19 62q6 14 12 30.5t10 30.5q23 43 31 82t29 82q10 35 28 78q2 6 35 78q6 10 14 30q6 14 15 29q16 23 43 41q14 8 65 31q49 20 76 26q45 10 84 17q121 16 170 22l172 19 q45 6 150 14q98 8 149 14q94 4 141 4q92 0 138 -4q57 -6 94 -20q40 -15 67 -37q6 -4 13.5 -10l13.5 -11l7 -7t9 -8t6 -7q6 -8 15 -25q3 -7 3 -14q0 -5 -1 -12q-12 -18 -39 -25q-31 -8 -57 -10q-41 -4 -66 -4q-41 0 -57 -2q-72 -2 -219 -2q-98 0 -217 -11q-35 -4 -105 -16 q-52 -9 -98 -24q-39 -12 -86 -35q-39 -18 -66 -45q-31 -31 -63 -78q-23 -33 -37 -80q-8 -20 -8 -29q78 0 118 2l119 6q20 0 61.5 1.5t61.5 3.5q31 2 62 1l61 -1q49 0 139 -5q59 -2 127 -20q57 -23 68 -53q6 -16 6 -33q0 -19 -8 -37q-6 -16 -33 -33q-20 -12 -61 -16 q-53 -8 -74 -8h-72q-55 -2 -170 -2q-57 0 -172 -4q-96 -4 -170 -15q-86 -12 -162 -37q-16 -20 -30 -47q-12 -23 -21 -47l-18 -47q-14 -41 -19 -47l-39 -104l-30 -105l-23 -45q-12 -23 -39 -47q-27 -23 -59 -37q-31 -13 -74 -13q-9 0 -18 1q-70 6 -107 26q-43 23 -59 48 q-17 26 -21 61z" />
<glyph unicode="g" horiz-adv-x="1968" d="M395 547q6 51 24.5 108.5t63.5 128.5q39 61 101 127q57 61 137 119t178 111q92 51 211 94q102 37 242 68q121 27 260 38q88 8 175 9q43 0 85 -2q49 0 100 -7q52 -6 92 -18q41 -12 62 -33q23 -23 16 -49q-4 -10 -8 -22q-2 -6 -14 -23q-8 -10 -27 -18q-20 -8 -43 -9 q-25 4 -33 5h-35q-49 3 -95 2q-61 0 -120 -5q-109 -8 -217 -30t-202 -56q-92 -33 -174 -81q-88 -51 -142 -97q-68 -57 -104 -104q-51 -66 -76 -111q-20 -37 -49 -110q-15 -37 -25 -80q-5 -23 -5 -46q0 -18 3 -38q6 -49 25 -80q25 -43 63 -68q41 -27 106.5 -45t162.5 -18h20 q89 0 180 22q98 25 174 66q68 39 121 88q55 51 76 96q18 20 29 53q8 25 22 54q8 16 14 45q6 25 7 47l-107 -6q-49 -2 -106 -13q-18 -2 -54 -5t-55 -5q-42 -5 -78 -5q-15 0 -28 1q-10 -1 -21 -1q-26 0 -51 5q-29 6 -51 19q-20 12 -26.5 30.5t3.5 34.5l10 19l13 16l2 2 q27 20 69 33q41 12 82 20q78 14 158 31q18 4 50 10t58.5 11.5t51.5 9.5q100 16 162 22q72 8 161 8q47 -2 90 -12q25 -6 76 -29q31 -14 53 -36q20 -20 27 -43q4 -14 4 -43q0 -25 -10 -43q-23 -57 -55 -109l-66 -106q-51 -84 -145 -166q-98 -86 -221 -150q-76 -41 -134 -65 q-80 -33 -153 -54q-88 -25 -166 -34q-75 -11 -144 -11h-30h-30q-90 0 -187 15q-96 14 -185 47q-92 35 -145 71q-70 49 -100 91q-41 45 -68 96q-23 45 -33 104q-5 28 -5 59q0 24 3 50z" />
<glyph unicode="h" horiz-adv-x="1988" d="M375 219q2 33 10 80q2 16 14 49q6 16 23 49l24 49l23 52q34 52 61.5 104t49.5 105q12 33 28.5 98t22.5 98q10 51 26 94q2 6 41 95l35 63q20 39 45 66q35 39 72 59q41 23 111 39q24 1 42 1q37 0 62 -5q43 -8 65 -27q29 -23 39 -39q12 -20 13 -49q0 -27 -6 -51 q-8 -33 -17 -47q-37 -92 -84 -187q-39 -80 -86 -186q51 -4 162 -8q24 -1 54 -1q18 0 54.5 0.5t55.5 0.5q131 0 196.5 2t196.5 10q16 49 35 98q12 33 33 99q12 33 18 69l12 68q2 23 11 68q6 34 18 67q6 18 18 45q10 20 35 45q16 16 60 35q31 13 76 13q9 0 18 -1 q66 -2 115 -22q43 -16 69 -47q23 -27 27 -62q1 -6 0 -11q0 -25 -10 -52q-12 -53 -23 -80l-25 -80q-14 -49 -26 -82q-10 -27 -27 -80q-10 -39 -35 -112q-18 -57 -30 -113q-16 -84 -51 -225.5t-52 -225.5l-6 -24q-14 -18 -33 -29q-29 -16 -47 -22q-20 -6 -57 -15 q-20 -4 -62 -8q-18 -2 -34 -2q-28 0 -52 6q-33 8 -55 29q-18 14 -29 41q-8 18 -8 43q0 41 11 92q8 43 24 94l27 99q11 43 10 83v17q-80 -6 -236 -10q-78 -2 -233 -2q-102 0 -154 2l-149 4l-55 -105q-23 -43 -41 -104q-8 -20 -17 -62l-12 -61q-4 -20 -8 -61q-4 -31 -15 -60 q0 -18 -16 -29q-23 -14 -45 -20q-18 -4 -55 -8q-8 -1 -18 -1q-16 0 -40 3q-82 8 -125 37q-41 27 -57 65q-13 31 -13 66q0 7 1 14z" />
<glyph unicode="i" horiz-adv-x="729" d="M352 164l13 110q6 47 28 111q29 92 68 193l76 192l75 191l35 86l43 104l27 55q10 23 37 56q25 31 59 51q37 23 94 37q18 2 35 1.5t33 -1.5q27 -2 57 -15q20 -8 41 -24.5t25 -28.5q7 -25 7 -50q0 -37 -15 -77q-20 -59 -39 -108l-47 -109q-29 -78 -45.5 -115t-45.5 -114 q-31 -86 -39 -121q-12 -49 -26 -121l-29 -113q-14 -51 -37 -112l-34 -66q-14 -29 -52 -70q-29 -31 -78 -57t-120 -35q-18 0 -47 4q-18 2 -35 13q-25 14 -27 16q-4 4 -10 11.5t-8 9.5q-2 12 -5.5 25t-5.5 24q-4 14 -8 47z" />
<glyph unicode="j" horiz-adv-x="1914" d="M362 608q2 57 25 119q10 18 35 29q16 6 57 14q31 6 66 6q12 0 33.5 1t29.5 1l27 -8l4 -4q33 -29 43 -43q20 -29 27 -45q8 -20 14 -47q2 -8 5 -23.5t5 -23.5l19 -60l11 -32.5l9 -26.5q10 -33 25 -57q20 -37 34 -56q18 -25 48 -45q33 -23 69 -37q39 -14 90 -24 q43 -8 107 -8q49 12 72 32q29 25 40 45q10 16 23 50q14 39 20 49q8 33 15 49l16 51q4 12 14.5 51t14.5 51q49 129 82 275q29 127 29 248q0 11 -1 22q-86 8 -133 8q-57 0 -129 11q-59 10 -96 30q-33 20 -51 52q-8 16 -8 24q0 16 2 25q0 6 10 12q14 8 18 10q4 0 12.5 3l14.5 5 q4 0 14.5 1t14.5 4q195 8 385 8q95 0 190 -2q233 -4 563 -31q23 -6 41 -16q20 -12 27 -21l14 -27q7 -13 7 -31q0 -11 -14.5 -25.5t-41.5 -24.5q-39 -14 -57 -19q-31 -6 -64 -6q-72 -6 -139 -6q-23 0 -70 -1t-71 -1q-16 -59 -47 -201q-14 -72 -43 -201q-23 -111 -50 -204 q-25 -90 -67 -203q-18 -47 -62 -109q-37 -52 -104 -104q-31 -23 -80 -45q-37 -18 -96 -35q-45 -14 -109 -21q-55 -6 -112 -6q-119 0 -226 23q-100 20 -180 59q-77 37 -135 86q-66 55 -100 99q-43 52 -74 104q-33 55 -47.5 108.5t-14.5 99.5v15z" />
<glyph unicode="k" horiz-adv-x="2015" d="M391 246q2 49 23 108q12 68 22 95q20 61 33 92q12 39 39 96q29 61 39 94q8 23 18 47q4 10 15 47q4 8 20 45t21 45q14 23 38 72l16.5 36.5t18.5 37.5q12 25 41 74q20 37 53 71q29 33 76 66q41 29 107 55q29 3 51 3q39 0 61 -9q41 -16 60 -41q18 -23 14 -55.5t-18 -57.5 q-8 -20 -27 -41q-12 -16 -27 -39l-28 -40q-12 -18 -23 -41q-16 -37 -20 -56l-17 -55q90 23 164 49q31 10 152 62l145 65l146 66q96 41 118 51l123 51q61 25 129 43t142 25q45 -2 86 -17q37 -12 61 -30q23 -16 37 -46q7 -15 7 -31q0 -7 -1 -16q-4 -10 -16 -16l-27 -16 q-8 -2 -35.5 -10.5l-40.5 -12.5q-29 -10 -76 -20q-23 -6 -43 -12.5t-43 -10.5l-86 -20q-176 -57 -331 -131q-139 -66 -301 -152q51 -47 104 -84q94 -61 117 -78q51 -41 100 -74l109 -73q61 -41 104 -76q55 -45 90 -80q31 -31 62 -84q25 -43 24 -94q-10 -18 -28 -33 q-20 -14 -47 -27q-28 -12 -62 -18q-23 -4 -68 -8q-55 4 -88 14q-29 10 -63 33q-31 20 -49 39l-49 37q-72 76 -138 135l-147 133l-64 49q-29 20 -73 45q-39 20 -90 37q-45 14 -113 21h-29q-18 0 -26 -2q-9 -31 -25 -62q-4 -6 -9 -19.5t-10 -23.5t-12 -18q-12 -18 -28.5 -59.5 t-22.5 -59.5q-10 -27 -14 -60q-4 -41 -8 -59l-4 -27.5t-2 -25.5q-3 -28 -13 -55q-3 -15 -12 -31q-6 -10 -27 -31q-20 -12 -51 -12q-37 0 -53 2q-84 2 -137 33q-47 27 -64 67q-2 21 -2 46q0 20 2 63z" />
<glyph unicode="l" horiz-adv-x="1579" d="M383 176q-1 16 -1 29q0 28 5 51q-4 27 0 41l5 20.5t5 24.5q8 29 41 111q16 43 54 112l63 115l55 117q18 55 31 100q16 66 27 100q16 66 28.5 96.5l40.5 96.5q12 29 27 45q16 18 47 43q23 18 68 35q27 10 90 18q24 1 41 1q34 0 57 -5q35 -8 61 -27q20 -14 31 -38 q6 -14 6 -48q0 -29 -8 -51l-7 -21.5t-9 -23.5q-31 -74 -84 -168l-96 -168l-91 -170q-53 -104 -75 -170q-6 -27 -15 -53q0 -4 -5 -23.5t-7 -29.5q-4 -37 -4 -51q0 -35 6 -52h28l187 15q143 20 213 35l60 13t65 15l57.5 14.5t71.5 16.5q78 16 117 27q53 14 119 20q17 2 35 2 q16 0 46 -2q35 -2 66 -16q25 -10 35 -31q3 -6 3 -12q0 -14 -13 -29q-33 -43 -88 -72q-66 -35 -132 -57q-70 -25 -151 -43l-154 -37q-162 -35 -327 -55q-118 -15 -232 -15q-49 0 -98 3q-78 6 -82 6q-37 6 -76 16q-45 12 -63 23q-29 16 -43 32q-29 43 -31 74z" />
<glyph unicode="m" horiz-adv-x="2439" d="M399 299q2 39 13 82q10 49 20 84q39 139 100 270q55 117 156 269l41 57q18 29 39 57q20 20 53 58q25 28 56 55q10 8 22 16t23 17q20 14 55 32q29 14 65 25q43 12 76 14q11 1 22 1q27 0 54 -5q35 -6 55 -20q25 -18 35 -33q12 -18 19 -37q61 -174 96 -338q37 -172 37 -348 q53 41 118 102l109 103l166 166q68 70 174 166q49 45 76 65l80 68q51 31 57 35q47 31 53 34q28 15 55 25q25 8 64 8q96 -14 143 -35q55 -25 86 -61q31 -39 43 -78q10 -35 11 -86q0 -49 -9 -88l-7 -40t-9 -42q-14 -49 -25 -70q-4 -8 -26 -69q-6 -12 -33 -70l-29 -67 q-6 -27 -14 -80q-2 -18 -5 -39t-5 -41q-12 -71 -30.5 -141.5t-55.5 -141.5q-6 -10 -13.5 -18t-13.5 -19q-16 -23 -35 -39q-29 -25 -47 -34q-29 -16 -69 -25q-11 -1 -23 -1q-30 0 -59 5q-41 6 -68 19q-33 14 -47 28q-20 20 -25 37q-4 23 7 55l18 58l57 162q33 94 45 159 q12 53 17 80q4 25 8 82q2 20 2 40t-2 40q-3 40 -18 80q-80 -96 -189 -215q-66 -72 -207 -213q-55 -47 -92 -88q-29 -31 -94 -88q-51 -45 -109 -84q-59 -41 -137 -72q-39 0 -69 10q-28 9 -50 25q-23 16 -32 31q-12 18 -21 34q-29 86 -39 150q-14 76 -26 151l-17 76 q-2 12 -18 78q-9 37 -24.5 74t-37.5 73q-70 -102 -106 -190q-45 -109 -72 -193q-10 -31 -14 -67q0 -10 -2 -32.5t-2 -35.5v-17q0 -61 -19 -118q-4 -23 -10 -33q-4 -8 -8 -17t-8 -17l-13 -19l-12 -14l-16 -15q-33 -8 -45 -10q-25 -4 -35 -4h-31h-29l-30.5 6t-30.5 4 q-29 2 -47 19q-18 12 -29 28q-12 20 -14 33q-16 37 -21 80q-3 38 -2 58q-1 13 0 24z" />
<glyph unicode="n" horiz-adv-x="1937" d="M346 158q10 39 31 78q2 4 17.5 32.5l23.5 42.5q20 39 47 84t41 80q14 47 35 141l28 142q27 100 41 139q29 80 58 139q18 27 41 74q18 41 45 80q25 35 69 72q47 37 115 57q10 1 21 1q25 0 49 -5q31 -6 55 -19q23 -10 41 -26q23 -20 31 -29q33 -45 45 -70l39 -73 q43 -98 73 -158q49 -98 86 -154q25 -39 52 -75q10 -14 57 -72q35 -41 67 -72q43 -41 82 -65q4 8 9.5 16t9.5 17q12 20 16 32l17 105q12 70 22 104q18 121 27 168q10 55 43 166l10 29.5t14 36.5q16 37 37 65q10 14 35 39q18 18 43 31q31 16 53 20q22 5 44 5q9 0 18 -1 q35 -2 59 -12q29 -10 43 -23q16 -14 27 -30q16 -27 18 -33q12 -33 12 -70q0 -41 -8 -71q-12 -33 -18 -47q-12 -29 -23 -50q-6 -29 -16 -47q-8 -16 -17 -49q-35 -139 -49 -217q-14 -86 -41 -217q-14 -78 -32 -139q-14 -47 -47 -142q-20 -35 -31 -47q-29 -33 -49 -47 q-37 -25 -72 -39q-37 -14 -94 -20q-74 4 -111 18q-53 20 -80 41q-31 23 -61 53q-18 18 -55 52q-74 82 -146 174q-53 70 -115 166q-25 43 -81 125q-53 76 -80 122l-41 -112q-18 -57 -31 -113q-2 -4 -9 -23.5t-9 -29.5q-8 -27 -15 -53q-8 -35 -14 -56q-6 -23 -19 -53 q-20 -61 -32 -90q-20 -47 -45 -86q-10 -16 -35 -49q-16 -20 -45 -43q-25 -18 -60 -31q-25 -9 -56 -9q-9 0 -19 1q-86 10 -136 41q-51 33 -55 78z" />
<glyph unicode="o" horiz-adv-x="2050" d="M412 461q-4 29 -5 58q0 77 29 155q41 119 146 229q106 113 266 211q86 57 168 94q92 41 201 76q117 37 221 53q94 15 196 15h39q117 0 205 -21q86 -20 164 -57q74 -35 121 -80q57 -55 82 -90q70 -100 90 -203q7 -34 7 -68q0 -71 -30 -145q-41 -119 -143 -227 q-100 -106 -264 -209q-88 -55 -172 -94q-92 -41 -201 -76q-115 -37 -223 -53q-94 -15 -197 -15h-39q-117 0 -205 21q-94 23 -163 55q-57 27 -121 80q-49 39 -82 90q-76 97 -90 201zM797 494q0 -53 14 -97q14 -45 55 -82q37 -33 111 -59q68 -23 178 -27q125 2 227 29 q102 25 174 68q76 45 130 94q45 43 94 110q37 51 63 111q25 55 43 104q14 41 23 82q7 32 7 65q0 11 -1 21q-4 51 -19 84q-20 43 -57 72q-40 31 -104 49q-70 20 -162 23h-20q-57 0 -134 -13q-70 -12 -139 -34q-68 -23 -123 -54q-59 -33 -98 -63q-82 -63 -139 -146 q-51 -72 -80 -149q-20 -57 -29 -90q-14 -57 -14 -98z" />
<glyph unicode="p" horiz-adv-x="1619" d="M375 145q-3 14 -3 27q0 16 5 31q25 109 74 225q66 152 102 227q4 10 9 19.5t9 15.5q8 16 15 35q16 49 32 115q10 39 23 116q12 55 31 111q12 37 41 111q25 39 57 59q43 27 90 43q53 18 113 31q88 18 121 22q61 8 125 13q82 4 118 6q111 0 166 -2q111 -4 164 -9 q70 -6 152 -22q76 -16 133 -39q63 -25 98 -57q43 -39 57 -72q20 -45 21 -80q0 -49 -10 -82q-15 -49 -62 -92q-45 -43 -112 -84q-61 -39 -146 -74q-106 -45 -160 -65q-180 -66 -383 -117q-205 -51 -405 -78q-20 -111 -33 -166q-18 -83 -43 -166l-18 -43q-8 -18 -33 -43 q-14 -10 -29 -16q-18 -6 -37 -10q-25 -4 -39 -4q-5 0 -13.5 -0.5t-12.5 -0.5q-7 0 -12 1q-57 2 -107 20q-45 16 -67 39q-25 24 -31 55zM936 725q57 0 129 10q82 12 127 23q76 18 125 33l121 34q51 16 106 37q27 8 105 43q39 16 84 47q33 23 51 58q2 7 2 14q0 12 -6 24.5 t-29 30.5q-10 8 -47 25q-18 8 -55 20q-57 16 -139.5 26.5t-151.5 10.5q-49 -4 -78 -4q-37 0 -74 -10q-49 -14 -84 -37q-33 -20 -57 -49q-20 -23 -36.5 -53.5t-24.5 -51.5q-23 -55 -39 -118z" />
<glyph unicode="q" horiz-adv-x="1927" d="M395 426q-2 19 -2 41q0 30 4 65q6 47 27 107q29 78 49 117q35 68 72 117t96 112q47 51 123 109q66 53 151 100q88 49 195 86q86 31 221 55q92 17 198 17h38q109 0 198 -19q84 -16 156 -53t115 -76q51 -47 73 -90q57 -94 64 -194q1 -15 1 -30q0 -84 -30 -175 q-43 -117 -125 -223q-90 -117 -229 -209q0 -31 18.5 -55.5t51.5 -47.5q4 -6 10 -11t10 -11q12 -16 16 -25q6 -12 7 -27q0 -16 -7 -26q-4 -6 -32 -25q-14 -10 -43 -20l-54 -17q-37 -8 -55 -10q-6 -2 -16 -2q-12 0 -19 -2h-30v2q-23 25 -58 53q-35 27 -55 52q-41 -23 -88 -41 q-46 -18 -98 -31q-68 -16 -109 -21q-74 -8 -109 -8q-19 -1 -37 0q-95 0 -180 13q-96 14 -184 46.5t-145 69.5q-59 39 -99 90q-41 47 -61 95q-23 51 -29 102zM782 506v-12q0 -54 25 -107q8 -25 31 -53q22 -28 55 -49q31 -18 84 -33q49 -12 115 -12q11 -1 21 -1q53 0 101 13 q51 14 107 41l-59 39q-43 29 -56 41q-27 25 -39 47q-14 29 -6 53q8 16 21 27q25 18 37 24l47 17q31 8 55 10q45 -6 72 -25q39 -27 49 -35t17 -12l15.5 -9t18.5 -13q23 -16 70 -27q53 31 88 64q33 31 59 69q25 37 39 72l31 72q23 70 28 127q2 16 2 30q0 47 -16 92 q-16 49 -20 58q-16 35 -41 55q-31 27 -70 41q-45 16 -111 16q-14 1 -28 1q-64 0 -133 -11q-80 -12 -154 -37q-76 -25 -131 -57q-57 -35 -96 -72q-55 -51 -76 -78q-31 -39 -53 -81q-18 -35 -39 -82l-33 -80q-25 -68 -27 -123z" />
<glyph unicode="r" horiz-adv-x="2136" d="M397 229q4 55 11 84q12 51 30 97q16 43 47 96q14 35 47 98q18 37 41 101q25 66 35 116q12 57 33 117q33 90 41 115q16 53 49 114q29 41 33 45q14 18 45 41q51 27 100 41q57 16 115 25q4 0 121 12q82 8 121 10q33 2 66.5 4.5t66.5 2.5q23 0 65.5 1t65.5 3q25 0 74 -1 t75 -1q76 0 150 -7q94 -8 141 -16q72 -12 125 -33q68 -25 94 -49q37 -33 52 -65q14 -31 14 -74q0 -39 -12 -76q-10 -37 -39 -69q-27 -29 -78 -64q-55 -37 -101 -59q-74 -37 -112 -54q-113 -53 -266 -100q-141 -43 -299 -61q80 -51 127 -88q80 -63 112 -93q59 -51 123 -88 q78 -45 166 -69q76 -18 125 -33q59 -18 117 -39q16 -6 34 -16q20 -12 27 -19q12 -12 14 -22q4 -14 -6 -27q-6 -14 -32.5 -28.5t-51.5 -22.5l-63 -15q-23 -4 -64 -8q-27 -2 -56 -2q-40 0 -87 4q-72 6 -127 21q-72 18 -113 35q-61 27 -96 45l-168 114l-160 117l-63 41 q-37 25 -68 41q-37 18 -80 31q-41 12 -100 18l-33 -63q-18 -39 -26 -64q-14 -33 -17 -63q-4 -37 -12 -66q-4 -41 -8 -61q-10 -47 -14 -64l-4.5 -9t-4.5 -10t-4 -11q-6 -23 -20 -35q-14 -14 -39 -27q-20 -10 -66 -10q-88 8 -133 38.5t-63 69.5q-17 36 -17 73v11zM969 895 q-8 -29 -8 -58.5t8 -58.5q138 0 276 18.5t271 55.5q61 18 116 43q61 27 99 51q39 25 71 62q25 27 35 65q3 7 3 14q0 16 -15 27q-27 18 -62 27q-29 6 -84 10q-31 2 -88 2q-37 -2 -108 -2q-37 0 -107 -4l-106 -6q-70 -4 -107 -4q-39 -6 -67 -19q-28 -12 -43 -31 q-20 -25 -27 -38q-9 -22 -18 -37q-23 -51 -39 -117z" />
<glyph unicode="s" horiz-adv-x="1968" d="M375 266q0 12 8 23q6 8 27 20q12 8 36 15q18 6 46 2q37 -2 92 -11q33 -4 84 -20q41 -12 80 -27q31 -12 86 -26q53 -10 155 -23q74 -8 170 -8q31 -1 59 -1q44 0 85 3q80 6 141 20q74 16 131 37q43 14 111 54q41 23 77 63q33 37 39 72q14 31 17 53q0 6 2 17.5t3 20.5t1 17 q-2 20 -39 41q-34 18 -86 19q-90 0 -180 -13l-179 -24l-178 -25q-78 -11 -149 -11q-16 0 -31 1q-19 -1 -37 -1q-61 0 -112 9q-63 10 -125 35q-49 18 -91 53q-39 33 -51 68q-16 29 -22 69q-3 20 -4 42q0 14 2 30q4 43 14 76q8 25 29 74q25 45 59 77q29 27 96 68q49 31 121 59 q66 27 139 50q147 46 308 67q152 20 319 21q133 -4 199 -11q94 -8 178 -34l78 -25q31 -12 63 -35q25 -16 39 -41q7 -12 7 -27q0 -10 -3 -22q-3 -18 -24 -31q-14 -8 -55.5 -16t-65.5 -8q-45 0 -64 2q-63 2 -118 12l-113 21q-20 4 -59 11t-56 9q-61 10 -121 10 q-106 0 -190 -16q-111 -20 -180 -47q-80 -25 -152 -74q-63 -43 -82 -90q-12 -28 0 -55q12 -31 27 -51q14 -14 24.5 -22.5t34.5 -20.5q14 -8 43 -15q25 -6 54 -6q76 2 149 18q39 8 145 27q53 12 164 29q55 8 168 12q74 0 125 -8q61 -10 109 -25q43 -12 90 -39q39 -20 65 -51 q57 -51 70 -112q4 -21 4 -42q0 -38 -14 -81q-35 -90 -129 -176q-86 -80 -230 -154q-80 -41 -147 -64q-74 -27 -168 -49q-100 -25 -178 -32q-82 -8 -182 -9q-135 0 -259 19q-125 18 -231 49q-57 16 -102 33q-51 18 -90 39q-37 20 -62 51q-16 20 -16 45q0 8 2 16z" />
<glyph unicode="t" horiz-adv-x="1910" d="M532 1133q-2 5 -1 10q0 12 10 26q16 25 53 39q45 14 121 29q65 12 129 18q90 8 135 15q20 2 42.5 4t51.5 4t43 4q154 18 307 31q51 4 154.5 11t155.5 11q29 0 82 2t81 2q36 1 67 2q49 0 93 -4q33 -2 113 -10q59 -6 108.5 -18.5t84 -33t46.5 -50.5q-4 -12 -22 -27 q-6 -6 -37 -18q-14 -6 -47 -15q-14 -4 -51 -8q-31 -2 -59 -1.5t-56 1.5q-74 4 -115 4q-10 0 -34.5 1t-36.5 1q-49 0 -74 -2q-8 0 -23.5 -1t-28 -2t-22.5 -3q-45 -8 -69 -16l-33 -66q-27 -53 -33 -63l-106 -238q-39 -88 -97 -237l-65 -179l-33 -88q-25 -70 -33 -88 q-4 -10 -11 -21.5t-13 -25.5q-10 -23 -35 -51q-23 -25 -57 -43q-37 -18 -93 -25q-82 0 -123 21q-43 23 -61 51q-18 31 -18 66q0 39 8 65l18 80l21 78l35 71l40 70l97 150q10 14 28 57l25 59q31 82 37 164q3 33 2 63q0 55 -8 101q-70 -4 -107 -4q-47 0 -104 -10 q-31 -2 -107 -11q-55 -6 -104 -6q-20 -2 -68 -2q-45 0 -67.5 2t-63.5 11q-27 6 -49 16q-15 9 -23 27z" />
<glyph unicode="u" horiz-adv-x="1957" d="M444 502q6 49 23 119q8 35 39 120q8 20 57 133q18 45 64 136q33 66 78 133t102 131q16 16 35 24q25 10 51 17l55 12q41 4 60 6q19 3 37 4q12 0 22 -2q18 -2 43 -14q18 -10 29 -23q6 -8 10 -26q4 -14 4 -43q0 -22 -6 -43l-12 -43q-2 -8 -7.5 -20.5t-7.5 -20.5l-73 -156 l-78 -151q-23 -39 -80 -156q-41 -78 -66 -156q-16 -45 -16 -82q0 -39 29 -77q23 -18 51 -31q39 -16 67 -21q47 -8 80 -10q57 -4 84 -4h24q134 0 236 33q111 37 191 94t125 125q43 63 63 127q41 106 62 205q20 96 20 200q2 27 2 78q0 40 12 80q2 16 15 37q14 25 33 41 q14 12 55 29q31 12 78 12q47 -4 77 -14q33 -12 60 -29q23 -14 39 -37l26 -39q25 -72 27 -127q1 -26 1 -48q0 -46 -5 -83q-10 -70 -27 -131q-16 -57 -41 -133q-33 -98 -125 -209q-82 -100 -213 -199q-57 -43 -139 -92q-72 -43 -166 -82q-92 -39 -194 -59q-109 -23 -215 -23 q-21 -1 -41 0q-106 0 -195 15q-96 16 -196 55q-90 35 -146 82q-59 51 -84 104q-25 55 -31 115q-4 41 -4 72q0 24 2 45z" />
<glyph unicode="v" horiz-adv-x="1634" d="M604 1061q-1 10 -1 21q0 14 3 48q4 43 17 74q16 29 20 33q12 15 31 31q12 10 45 26q23 10 61 15q16 2 32 2q23 0 44 -4q35 -6 53 -21q23 -16 31 -33q9 -18 12 -36q0 -35 -6 -66t-6 -66q0 -31 -1 -91t-1 -91q0 -59 4 -182q6 -92 25 -184q18 -94 57 -181q35 25 94 80l76 80 q33 37 68 84l61 84l164 223l160 223q25 20 51 55.5t55 59.5q39 35 72 51q49 25 104 33q53 -4 82 -16q39 -18 53 -35q20 -23 23 -43q1 -11 1 -20q0 -15 -3 -27q-10 -41 -43 -101q-23 -41 -68 -100l-90 -102q-31 -33 -88 -103l-170 -219l-178 -219q-37 -37 -82 -92 q-43 -53 -92 -96q-53 -47 -121 -84q-66 -35 -168 -58q-10 0 -31.5 1t-33.5 1q-25 0 -66 4q-20 2 -57 11q-25 6 -47 18q-18 10 -33 25q-8 8 -20.5 28.5t-16.5 30.5t-16 31q-27 82 -41 155q-14 72 -15 156q-2 53 -2 107q0 106 8 213q0 14 -2 41.5t-3 50t-1 41.5q0 43 -4 133z " />
<glyph unicode="w" horiz-adv-x="2535" d="M469 289q0 59 4 88q2 16 7 42.5t7 39.5q16 49 27 73l8 20.5t7 15.5t7.5 14.5t8.5 23.5l39 76q16 37 30 78q25 68 33 114q12 74 21 113q10 66 26 113q18 55 47 112q12 20 20.5 30.5t33.5 31.5q16 14 45 24q31 12 61 15q41 0 82 -6q39 -6 70 -19q27 -10 47 -30.5t22 -38.5 q2 -25 -8 -58l-20 -57l-62 -172l-55 -172q-14 -59 -51 -178l-60 -179q76 49 121 95l96 98l166 166q90 90 178 164l84 71.5l84 71.5q25 20 93 68q47 31 106 63q14 2 39 6q6 2 17.5 4t17.5 2q27 0 71 -8q35 -6 56 -20q10 -14 10 -17l4 -8l4 -8t2 -10t2 -8l6 -19 q33 -90 45 -153q10 -51 23 -158l6 -90l6 -90q6 -39 23 -86q14 -43 41 -80q88 176 172 366q80 180 129 367q14 49 24 70l13 24q4 8 18 23q57 20 88 20q47 0 68 -2q41 -4 59 -8q28 -6 49 -19q43 -47 56 -96q9 -38 9 -78q0 -12 -1 -24q-4 -53 -19 -109q-14 -49 -20 -106 q-27 -92 -86 -199q-51 -92 -127 -197q-33 -47 -70 -94l-80 -94q-57 -61 -90 -92q-45 -43 -110 -88l-51 -31q-29 -18 -56 -29q-53 -20 -65 -24q-23 -6 -74 -10q-41 0 -66 8q-33 10 -47 20q-12 8 -30 31q-10 12 -19 33q-82 158 -127 295q-49 151 -55 307l-178 -176l-185 -170 l-73 -68l-68 -57q-16 -14 -33.5 -25.5t-31.5 -23.5l-64 -49l-63 -43q-20 -14 -62 -39q-8 -6 -67 -27q-31 -10 -76 -14q-82 12 -144 39q-51 23 -88 59q-33 33 -45 78q-12 43 -12 84z" />
<glyph unicode="x" horiz-adv-x="2013" d="M342 139q-5 12 -5 25.5t5 25.5q14 27 35 52q23 25 53 47q4 2 27.5 19.5t36.5 25.5l65 43l168 96l168 98l117 82l108 82l-104 139l-101 144l-38 59q-12 20 -33 62q-14 27 -21 65q-2 12 -2 24q0 19 6 42q8 12 29 26q16 12 45 19q45 12 53 12l56 6h53q18 0 51 -4 q29 -4 43 -8q18 -6 31 -18q31 -31 37 -43q16 -33 24 -48q37 -61 76 -145q16 -33 74 -145q100 45 192 108q84 57 164 121q8 8 19.5 17.5l24.5 19.5t22 16q55 45 63 53q18 10 33 21q6 6 10 8t9.5 6l11.5 8q14 10 37 23q4 2 45 12q51 -4 88 -14q40 -12 67 -31q31 -20 41 -39 q10 -17 10 -35q0 -7 -2 -14q-23 -35 -71 -86q-35 -35 -101 -82q-45 -33 -120 -76q-121 -70 -132 -75l-135 -72q-25 -14 -61.5 -32.5t-71.5 -39.5q72 -72 115 -125l102 -129l92 -118l95 -113q6 -8 12 -17.5t12 -17.5q20 -31 23 -35q10 -20 12 -34q2 -18 0 -39 q-12 -18 -35 -31q-27 -14 -51 -23q-37 -12 -66 -16q-2 0 -65 -6q-10 -1 -20 -1q-51 0 -82 15q-49 23 -70 39q-29 16 -60 51q-23 25 -38 56q-51 82 -117 174q-72 100 -119 176q-43 -20 -117 -66l-106 -67q-45 -29 -98 -72l-47.5 -35.5l-49.5 -36.5q-23 -23 -37 -35 q-2 -2 -39 -34l-40 -33q-27 -23 -37 -35q-23 -12 -39 -27q-25 -20 -39 -28q-29 -16 -45 -23q-33 -12 -56 -14q-59 4 -94 16q-39 14 -63 37q-23 20 -33 47z" />
<glyph unicode="y" horiz-adv-x="1716" d="M618 1051q0 31 13 96q6 33 33 94q18 25 20 27q12 12 31 24l39 19q18 8 51 8q24 3 46 3q14 0 30 -1q35 -2 61 -16q29 -14 41 -29q14 -16 14 -35q-1 -12 0 -25q0 -20 2 -61q2 -22 2 -44t-2 -44q2 -41 17 -92q16 -61 28 -92q12 -51 39 -95q29 -47 64 -88q162 137 266 213 l291 205q55 43 119 88l127 86q23 18 63 29q27 6 80 6q53 -4 80 -14t49 -33q20 -20 23 -39q1 -9 1 -16q0 -16 -5 -29q-10 -18 -29 -35q-29 -25 -41 -33l-45 -30q-10 -6 -26.5 -18.5t-18.5 -14.5l-115 -68l-113 -69q-125 -78 -262 -178q-131 -96 -235 -189q-102 -90 -197 -194 q-84 -92 -149 -201l-33 -51q-12 -20 -45 -49q-20 -16 -35 -23q-16 -8 -45 -14q-16 -4 -49 -9q-23 -3 -35 -2h-14q-35 0 -66 11q-29 8 -41 22q-14 14 -18 35q-4 18 2 35q10 33 43 98q18 39 55 96q35 55 70 99q41 49 96 96q-74 39 -109 74q-41 43 -69 88q-25 39 -45 96 q-20 53 -31 96q-12 46 -18 92q-5 32 -5 95z" />
<glyph unicode="z" horiz-adv-x="2004" d="M451 170q35 55 110 125q59 53 152 119q96 68 172 114l174 111l205 131l209 129l206 131q135 86 199 131q-25 4 -37 4q-6 0 -17.5 1t-17.5 1q-94 0 -141 -2q-51 -2 -143 -10q-217 -16 -324 -27q-162 -16 -321 -24q-23 -2 -80.5 -2t-81.5 4q-35 6 -58 18q-22 12 -12 37 q53 41 135 70q74 25 172 45q82 16 189 27q121 12 182 20q213 20 399 23q33 1 68 0q155 0 321 -11q41 -2 111 -14q57 -10 96 -27q8 -4 22.5 -8t22.5 -8q25 -10 37 -21q20 -16 27 -24q8 -10 8 -29q-63 -55 -156 -117q-47 -33 -172 -110l-178 -109l-176 -108 q-143 -94 -203 -129l-207 -125q-119 -76 -194 -131q-92 -68 -164 -139v-9q95 3 184 19l181 30q37 6 89 15.5t107 21.5l197 39q47 8 76 10q25 2 77 7q27 0 80 -4q33 -2 72 -15q31 -8 45 -26.5t2 -40.5q-6 -14 -20 -27q-12 -10 -35 -23q-18 -10 -45 -20l-45 -16l-88 -19 l-86 -18l-293 -54q-147 -25 -295 -43q-162 -20 -297 -28q-100 -6 -190 -6q-53 0 -103 2q-27 4 -41 8q-16 6 -29 14q-4 2 -12 7.5t-12 9.5t-21 16q-32 39 -32 84z" />
<glyph unicode="{" horiz-adv-x="1206" d="M342 649q12 31 59 56q37 18 101 28q78 12 121 15q86 4 114 4h11h30q20 0 31 -2h65h21q2 0 9 1t11 1q-78 25 -137 63q-49 33 -96 80q-6 6 -16.5 20.5t-16.5 20.5q-10 14 -22 43q-8 18 -9 45q0 25 15 47q23 68 90 127q68 57 174 109q47 25 109 43q58 18 122 30 q57 10 129 14.5t127 -1.5q47 -2 98.5 -16.5t80.5 -30.5q31 -16 55 -41q23 -23 12 -52q0 -20 -16 -30q-23 -16 -43 -21q-33 -8 -58 -8q-41 0 -57 4q-20 4 -65 8l-68 6q-55 6 -113 0q-59 -6 -108 -24q-53 -20 -84 -45q-35 -29 -37 -58q0 -28 18 -49q20 -25 45 -43 q31 -23 60 -41q20 -12 57 -37l64 -36q33 -18 57 -39q25 -18 45 -43q16 -20 21 -47q-8 -18 -21 -29q-15 -12 -37 -25q-14 -8 -47 -20l-51 -17q35 -10 45 -14q14 -6 39 -18q18 -8 26.5 -20.5t6.5 -26.5l-13 -19q-27 -20 -67 -45l-78 -43l-40.5 -20.5t-39.5 -18.5l-82 -41 q-66 -31 -78 -37q-61 -33 -73 -41q-37 -25 -62 -45q-33 -29 -45 -49q25 -10 78 -26q70 -23 84 -25q57 -12 92 -14q49 -2 102 0q25 4 64 0q29 -4 47 -13t25 -24q6 -18 -2 -33q-8 -18 -29 -35q-12 -10 -49 -30.5t-60 -26.5q-41 -12 -71 -17q-109 -10 -232 3q-102 10 -200 45 q-46 15 -86 36q-43 23 -68 45q-27 25 -41 56q-10 25 0 59q12 47 61 94q51 47 109 88q55 37 152 84q94 45 176 72q-45 2 -139.5 2t-139.5 2q-27 0 -92 4q-51 4 -90 13q-41 10 -64 26q-24 18 -16 43z" />
<glyph unicode="|" horiz-adv-x="651" d="M315 27q-2 72 21 157q31 141 74 285q41 137 98 285q25 72 74 192l82 197q6 16 13 32.5t13 34.5q12 33 29 70q20 49 35 74q18 33 53 73q4 2 8 8.5t8 10.5l27 16q55 12 90 6q33 -6 57 -26q20 -18 31 -41q6 -12 10 -41q-10 -41 -14 -90q-4 -57 -10 -90q-35 -176 -45 -219 q-18 -84 -72 -220l-29 -71q-14 -37 -30 -72q-8 -23 -29 -72q-14 -33 -27 -71q-8 -20 -10 -30.5t-14 -31.5q-4 -20 -8.5 -32.5t-12.5 -32.5q-29 -55 -47 -109q-12 -37 -49 -110q-29 -57 -72 -107q-49 -55 -125 -96q-45 0 -69 12q-27 14 -39 31q-14 20 -17 39q-4 29 -4 39z " />
<glyph unicode="}" horiz-adv-x="1204" d="M272 111q10 12 13 22q2 8 22 19q45 14 78 14q41 0 59 -2q23 -4 68 -8q10 0 32.5 -3t35.5 -6q63 -6 118 3q66 10 109 26q45 16 80 45t37 58q0 23 -20.5 47t-45.5 43q-23 18 -61 39q-34 18 -62 36l-59 37q-41 25 -58 39q-25 22 -43 43q-16 20 -20 47q6 16 23 29 q15 12 36 25q18 10 45 20q31 10 54 16q-29 8 -43 15l-20.5 7t-20.5 9q-18 10 -29 23q-10 14 -4 28l12 15q59 41 66 45q49 29 76 43l81 41l84 41l40 20t36 19q74 39 76 41q18 12 61 45q25 18 43 49q-31 12 -75 26q-49 14 -84 23q-31 6 -92 14q-43 6 -103 2q-23 -4 -61 0 q-25 2 -47 15q-20 10 -26.5 24.5t3.5 30.5q6 12 29 35q10 10 47 30q29 16 59 25q41 12 72 16q61 6 119 7q59 0 114 -7q74 -8 107 -16q39 -10 92 -29q46 -15 86 -37q37 -20 66 -45q27 -25 41 -55q12 -29 4 -59q-16 -49 -66 -97q-53 -49 -110 -88q-51 -37 -150 -84 q-92 -45 -174 -71q45 -2 137 -2t137 -2q27 0 93 -4q59 -4 90 -11q39 -8 67 -26q25 -16 17 -43q-10 -25 -33 -39q-33 -20 -55 -29q-35 -12 -72 -18q-53 -8 -80 -11q-80 -6 -82 -6q-14 0 -38.5 -1t-35.5 -1h-10h-61q-10 2 -33 2h-33h-20q-2 0 -9.5 -1t-11.5 -1q82 -29 133 -63 q68 -45 99 -78q8 -10 30 -41q10 -14 23 -43q10 -25 10 -45q0 -27 -10 -47q-29 -66 -96 -127q-66 -59 -170 -109q-52 -25 -110.5 -43t-123.5 -30q-57 -10 -127 -15q-86 -4 -127 0q-49 6 -96 19q-55 14 -80 30q-39 18 -57 41q-23 27 -15 54z" />
<glyph unicode="~" horiz-adv-x="1933" d="M494 737q6 25 34 47t68 37q53 20 84 29q16 4 39.5 11t48.5 13q127 29 190 41q106 20 193 21q68 0 113 -14q57 -18 92 -33q49 -20 96 -30.5t111 -14.5q78 4 135 14q86 16 127 29q51 14 117 26q74 14 120 13q49 -4 74 -8q33 -6 66 -17q29 -10 49 -27q18 -14 20 -34 q-6 -16 -28 -33q-10 -8 -50 -25q-45 -16 -67 -22q-45 -12 -76 -12q-135 -35 -266 -62q-135 -27 -275 -31q-72 4 -118 15q-43 10 -97 32q-29 12 -94 33q-49 16 -113 19q-58 -3 -116.5 -12.5t-110.5 -24.5q-63 -18 -100 -35q-63 -27 -88 -43h-2q-47 4 -66 10q-25 8 -53 23 q-29 16 -39 28q-15 19 -18 37z" />
<glyph unicode="&#x85;" horiz-adv-x="2142" d="M295 150q6 12 18 24q14 14 31 23l17.5 9l21.5 11q6 4 20.5 10t22.5 11q16 4 47 14t45 14q49 16 100 17q45 0 72 -7q20 -4 41 -20q12 -10 17 -33q4 -25 2 -37q-4 -29 -9 -39q-4 -12 -8 -32q0 -25 -12 -41q-15 -22 -43 -37q-20 -10 -66 -23q-37 -10 -84 -6q-51 2 -98 17 q-53 16 -76 30q-35 18 -53 43t-6 52zM977 150q14 33 43 53q45 33 74 47q18 10 84 33q43 14 98 14q72 0 106 -16q45 -20 60 -43q16 -25 16 -58q0 -27 -14 -59q-6 -25 -28.5 -43.5t-59.5 -34.5q-37 -15 -80 -25q-37 -8 -90 -4q-51 0 -94 13q-45 12 -72 30q-27 16 -39 43t-4 50 zM1690 98q0 33 6 49q20 53 92 93q29 20 65 30q39 12 82 13q59 -2 107 -19q49 -16 72 -39q25 -25 30.5 -53.5t-14.5 -56.5q-18 -31 -43 -45.5t-72 -32.5q-27 -10 -88 -23q-41 -8 -92 -8q-47 4 -78 14q-37 14 -45 33q-22 22 -22 45z" />
<glyph unicode="&#x2026;" horiz-adv-x="2142" d="M295 150q6 12 18 24q14 14 31 23l17.5 9l21.5 11q6 4 20.5 10t22.5 11q16 4 47 14t45 14q49 16 100 17q45 0 72 -7q20 -4 41 -20q12 -10 17 -33q4 -25 2 -37q-4 -29 -9 -39q-4 -12 -8 -32q0 -25 -12 -41q-15 -22 -43 -37q-20 -10 -66 -23q-37 -10 -84 -6q-51 2 -98 17 q-53 16 -76 30q-35 18 -53 43t-6 52zM977 150q14 33 43 53q45 33 74 47q18 10 84 33q43 14 98 14q72 0 106 -16q45 -20 60 -43q16 -25 16 -58q0 -27 -14 -59q-6 -25 -28.5 -43.5t-59.5 -34.5q-37 -15 -80 -25q-37 -8 -90 -4q-51 0 -94 13q-45 12 -72 30q-27 16 -39 43t-4 50 zM1690 98q0 33 6 49q20 53 92 93q29 20 65 30q39 12 82 13q59 -2 107 -19q49 -16 72 -39q25 -25 30.5 -53.5t-14.5 -56.5q-18 -31 -43 -45.5t-72 -32.5q-27 -10 -88 -23q-41 -8 -92 -8q-47 4 -78 14q-37 14 -45 33q-22 22 -22 45z" />
<glyph horiz-adv-x="612" d="M578 1268q6 10 2 20q-4 12 4 23q6 12 32 22q14 6 48 15q16 4 53 8q29 2 53 4q57 -10 84 -29q35 -25 53 -45q12 -14 33 -51q10 -18 31 -51q57 -109 69 -228q0 -2 1 -6t1 -6q0 -4 -4 -12q-8 -14 -24 -27q-10 -8 -39 -20q-6 -2 -49 -13q-18 -4 -56 -8q-53 6 -88 25 q-34 18 -55 43q-29 33 -39 51t-31 51q-37 61 -55 115q-22 60 -24 119z" />
<glyph unicode="&#x2018;" horiz-adv-x="612" d="M578 1268q6 10 2 20q-4 12 4 23q6 12 32 22q14 6 48 15q16 4 53 8q29 2 53 4q57 -10 84 -29q35 -25 53 -45q12 -14 33 -51q10 -18 31 -51q57 -109 69 -228q0 -2 1 -6t1 -6q0 -4 -4 -12q-8 -14 -24 -27q-10 -8 -39 -20q-6 -2 -49 -13q-18 -4 -56 -8q-53 6 -88 25 q-34 18 -55 43q-29 33 -39 51t-31 51q-37 61 -55 115q-22 60 -24 119z" />
<glyph horiz-adv-x="595" d="M483 922q-2 12 2 34q25 61 74 117q51 57 119 111l59 51q35 31 68 53q47 31 82 45q53 20 106 27q37 -2 64 -17q29 -14 39 -26q10 -14 14 -33q2 -16 -4 -37q-8 -35 -35 -73q-27 -41 -57 -74q-23 -25 -76 -70l-84 -69l-53 -35q-37 -25 -58 -35q-37 -18 -67.5 -28.5 t-77.5 -10.5q-31 0 -63 12q-25 9 -37 25q-11 15 -15 33z" />
<glyph unicode="&#x2019;" horiz-adv-x="595" d="M483 922q-2 12 2 34q25 61 74 117q51 57 119 111l59 51q35 31 68 53q47 31 82 45q53 20 106 27q37 -2 64 -17q29 -14 39 -26q10 -14 14 -33q2 -16 -4 -37q-8 -35 -35 -73q-27 -41 -57 -74q-23 -25 -76 -70l-84 -69l-53 -35q-37 -25 -58 -35q-37 -18 -67.5 -28.5 t-77.5 -10.5q-31 0 -63 12q-25 9 -37 25q-11 15 -15 33z" />
<glyph horiz-adv-x="1312" d="M639 1231v10t2 10q4 16 8 23q10 12 35 22q22 9 49 13q6 0 17.5 2t20.5 3t17 1q20 0 54 4q47 -12 76 -31q23 -14 45 -45q14 -18 28 -51q14 -31 27 -49q25 -51 49 -119q25 -66 35 -119v-12q0 -6 -6 -12q-4 -16 -17 -27q-14 -12 -39 -18q-37 -10 -51 -13q-18 -2 -51 -2 q-53 8 -90 28.5t-60 43.5q-20 20 -40 51q-12 18 -37 51q-37 61 -56 115q-20 53 -16 121zM1210 1300q0 14 2 23q10 16 33 23q27 8 49 10q37 4 58 4h51q51 -12 84 -33q39 -25 55 -43q23 -27 37 -51q12 -20 33 -49q29 -59 47 -115q14 -47 18 -117q-2 -4 -2 -12t-6 -12 q-6 -12 -22 -25q-4 -2 -41 -18q-16 -6 -50 -15q-29 -6 -53 -6q-55 10 -83.5 26.5t-51.5 43.5q-20 23 -33 51q-10 25 -28 49q-35 70 -56 121q-23 55 -39 123q0 4 -1 11t-1 11z" />
<glyph unicode="&#x201c;" horiz-adv-x="1312" d="M639 1231v10t2 10q4 16 8 23q10 12 35 22q22 9 49 13q6 0 17.5 2t20.5 3t17 1q20 0 54 4q47 -12 76 -31q23 -14 45 -45q14 -18 28 -51q14 -31 27 -49q25 -51 49 -119q25 -66 35 -119v-12q0 -6 -6 -12q-4 -16 -17 -27q-14 -12 -39 -18q-37 -10 -51 -13q-18 -2 -51 -2 q-53 8 -90 28.5t-60 43.5q-20 20 -40 51q-12 18 -37 51q-37 61 -56 115q-20 53 -16 121zM1210 1300q0 14 2 23q10 16 33 23q27 8 49 10q37 4 58 4h51q51 -12 84 -33q39 -25 55 -43q23 -27 37 -51q12 -20 33 -49q29 -59 47 -115q14 -47 18 -117q-2 -4 -2 -12t-6 -12 q-6 -12 -22 -25q-4 -2 -41 -18q-16 -6 -50 -15q-29 -6 -53 -6q-55 10 -83.5 26.5t-51.5 43.5q-20 23 -33 51q-10 25 -28 49q-35 70 -56 121q-23 55 -39 123q0 4 -1 11t-1 11z" />
<glyph horiz-adv-x="1247" d="M510 918q-4 23 0 34q6 23 29 60q14 25 47 57q6 6 17 18.5t21.5 21.5t18.5 17l64 58q49 35 65 49q23 18 72 51q45 31 82 45q59 23 104 31q37 0 67.5 -10.5t41.5 -22.5q14 -18 14 -33q0 -16 -10 -37q-23 -47 -43 -77q-25 -35 -62 -76q-23 -25 -75 -74q-45 -41 -86 -72 q-45 -29 -52 -32q-20 -16 -55 -35q-29 -16 -63 -29q-29 -10 -76 -10q-37 0 -63.5 10t-39.5 23q-16 17 -18 33zM1042 831q0 8 13 17l12 8t10 8q40 31 74 62q23 20 66 63l63 66l59 65q27 20 47 43q23 25 48 47q16 14 61 39q35 18 84 25q33 0 70 -12q28 -9 43 -25 q16 -16 18 -33q4 -18 -2 -35q-16 -47 -35 -75q-16 -25 -59 -72q-35 -37 -78 -72l-50 -36.5t-40 -28.5q-14 -8 -26.5 -18.5t-26.5 -18.5q-33 -23 -62 -35q-45 -20 -69 -29q-41 -14 -78 -16q-23 -2 -60 2q-35 4 -49 10q-23 10 -31 21q-10 14 -2 30z" />
<glyph unicode="&#x201d;" horiz-adv-x="1247" d="M510 918q-4 23 0 34q6 23 29 60q14 25 47 57q6 6 17 18.5t21.5 21.5t18.5 17l64 58q49 35 65 49q23 18 72 51q45 31 82 45q59 23 104 31q37 0 67.5 -10.5t41.5 -22.5q14 -18 14 -33q0 -16 -10 -37q-23 -47 -43 -77q-25 -35 -62 -76q-23 -25 -75 -74q-45 -41 -86 -72 q-45 -29 -52 -32q-20 -16 -55 -35q-29 -16 -63 -29q-29 -10 -76 -10q-37 0 -63.5 10t-39.5 23q-16 17 -18 33zM1042 831q0 8 13 17l12 8t10 8q40 31 74 62q23 20 66 63l63 66l59 65q27 20 47 43q23 25 48 47q16 14 61 39q35 18 84 25q33 0 70 -12q28 -9 43 -25 q16 -16 18 -33q4 -18 -2 -35q-16 -47 -35 -75q-16 -25 -59 -72q-35 -37 -78 -72l-50 -36.5t-40 -28.5q-14 -8 -26.5 -18.5t-26.5 -18.5q-33 -23 -62 -35q-45 -20 -69 -29q-41 -14 -78 -16q-23 -2 -60 2q-35 4 -49 10q-23 10 -31 21q-10 14 -2 30z" />
<glyph horiz-adv-x="1081" d="M457 639q0 45 18 88q12 51 64 100q55 53 131 91q72 37 178 59q102 23 207 16q76 0 141 -18q72 -20 109 -47q46 -25 67 -62q23 -41 12 -73q-18 -61 -69 -119q-52 -58 -141 -111q-51 -31 -95 -47q-49 -20 -112 -37q-66 -16 -121 -22q-86 -8 -125 -6q-92 2 -156 32 q-59 29 -83.5 68t-24.5 88z" />
<glyph unicode="&#x2022;" horiz-adv-x="1081" d="M457 639q0 45 18 88q12 51 64 100q55 53 131 91q72 37 178 59q102 23 207 16q76 0 141 -18q72 -20 109 -47q46 -25 67 -62q23 -41 12 -73q-18 -61 -69 -119q-52 -58 -141 -111q-51 -31 -95 -47q-49 -20 -112 -37q-66 -16 -121 -22q-86 -8 -125 -6q-92 2 -156 32 q-59 29 -83.5 68t-24.5 88z" />
<glyph horiz-adv-x="1292" d="M494 707q37 29 88 43q35 10 112.5 18t118.5 8q45 0 115 4q152 -4 225 -4q23 -2 78 -2q27 0 80 -4q31 -2 78 -10q45 -8 65 -15q29 -8 45 -26q16 -16 14 -37q-10 -18 -26 -29q-18 -12 -45 -22q-18 -6 -56 -15q-41 -8 -59 -8q-172 -6 -342 -6q-55 0 -170 -1t-170 -1 q-27 2 -67 14q-33 10 -52 21q-25 18 -32 33q-8 19 0 39z" />
<glyph unicode="&#x2013;" horiz-adv-x="1292" d="M494 707q37 29 88 43q35 10 112.5 18t118.5 8q45 0 115 4q152 -4 225 -4q23 -2 78 -2q27 0 80 -4q31 -2 78 -10q45 -8 65 -15q29 -8 45 -26q16 -16 14 -37q-10 -18 -26 -29q-18 -12 -45 -22q-18 -6 -56 -15q-41 -8 -59 -8q-172 -6 -342 -6q-55 0 -170 -1t-170 -1 q-27 2 -67 14q-33 10 -52 21q-25 18 -32 33q-8 19 0 39z" />
<glyph horiz-adv-x="2101" d="M502 686q0 10 8 21q39 25 100 41q53 14 121 20q63 6 127 6q45 0 123 4q233 2 469 0h233q39 0 118 -1t118 -1q25 -2 78 -2q12 0 26.5 -1t31 -3t26.5 -2q53 -4 82 -8q45 -6 69 -15q29 -8 52 -24q18 -14 22 -39q-16 -20 -32.5 -28.5t-53.5 -20.5q-20 -6 -61 -15 q-45 -8 -64 -8q-657 -12 -1407 -8q-47 0 -76 10q-59 23 -61 23q-16 8 -25 14q-10 8 -16 17q-8 12 -8 20z" />
<glyph unicode="&#x2014;" horiz-adv-x="2101" d="M502 686q0 10 8 21q39 25 100 41q53 14 121 20q63 6 127 6q45 0 123 4q233 2 469 0h233q39 0 118 -1t118 -1q25 -2 78 -2q12 0 26.5 -1t31 -3t26.5 -2q53 -4 82 -8q45 -6 69 -15q29 -8 52 -24q18 -14 22 -39q-16 -20 -32.5 -28.5t-53.5 -20.5q-20 -6 -61 -15 q-45 -8 -64 -8q-657 -12 -1407 -8q-47 0 -76 10q-59 23 -61 23q-16 8 -25 14q-10 8 -16 17q-8 12 -8 20z" />
<glyph horiz-adv-x="2320" d="M700 1260q0 6 5 18q0 4 4 10t4 8q25 16 43 19l53 6q76 2 213 10l211 12q57 4 164 9q111 4 166 8q45 -4 75.5 -18.5t30.5 -34.5q-6 -12 -22 -23q-18 -10 -37 -16q-14 -4 -47 -8q-16 -2 -45 -7q-40 -3 -74 -6q-45 -4 -60 -4h-53q-8 0 -24.5 -1t-24.5 -1q-82 -129 -123 -215 q-52 -108 -92 -215q-8 -12 -14 -33q-4 -12 -21 -33q-18 -25 -31 -30q-27 -14 -57 -21l-49 6q-23 2 -41 13q-16 8 -25 18q-8 12 -6 25q4 33 19 63l14 31.5l16 36.5l37 67q10 18 29 70l39 109q12 39 20 108q-94 -4 -139 -4q-92 0 -139 -2q-27 11 -19 25zM1487 766q16 74 16 76 q10 39 21 63q29 66 41 101q16 45 41 102q16 39 55 100q33 53 76 99q16 16 45 32q23 12 65 17q23 0 41.5 -6.5t30.5 -12.5q8 -4 20 -16q8 -10 17 -18q6 -12 37 -84q12 -29 28 -86q8 -29 17 -86q4 -29 0 -91q55 47 116 113l111 111q29 29 41 43q25 29 39 43q20 20 51 41 q29 18 70 30q66 -6 104 -28q35 -20 51 -54q14 -29 15 -65q0 -23 -4 -64q-4 -20 -9 -34q-2 -6 -6 -16.5t-6 -16.5q-12 -25 -18 -35q-16 -25 -19 -35q-2 -6 -4 -18.5t-2 -20.5q-2 -8 -5 -22.5t-3 -18.5q-10 -35 -23 -69q-12 -33 -38 -70q-12 -20 -37 -39q-29 -20 -66 -26h-31 q-8 0 -28 4q-27 18 -29 22q-6 9 -6 19q0 2 6 28q4 18 12 29q49 78 68 156q16 43 16 77q0 43 -14 78q-27 -35 -88 -104q-41 -47 -107 -103l-51 -43q-2 -2 -21.5 -19.5t-29.5 -25.5q-31 -23 -59 -41q-43 -27 -72 -37q-39 4 -55 17q-18 16 -19 33q-2 25 -10 73q-4 23 -8 76 q-6 39 -15 78q-4 33 -32 74q-37 -66 -54 -99q-25 -49 -43 -98q-10 -20 -10 -35q0 -10 -4 -35q-6 -33 -6 -34q-2 -6 -6 -16.5t-6 -16.5q-2 -12 -15 -27q-6 -8 -22 -24q-16 -14 -39 -17q-6 0 -16.5 -2t-18.5 -3t-14 -1q-27 0 -47 8q-15 6 -25 19q-8 10 -8 24q0 4 -1 13.5 t-1 13.5z" />
<glyph unicode="&#x2122;" horiz-adv-x="2320" d="M700 1260q0 6 5 18q0 4 4 10t4 8q25 16 43 19l53 6q76 2 213 10l211 12q57 4 164 9q111 4 166 8q45 -4 75.5 -18.5t30.5 -34.5q-6 -12 -22 -23q-18 -10 -37 -16q-14 -4 -47 -8q-16 -2 -45 -7q-40 -3 -74 -6q-45 -4 -60 -4h-53q-8 0 -24.5 -1t-24.5 -1q-82 -129 -123 -215 q-52 -108 -92 -215q-8 -12 -14 -33q-4 -12 -21 -33q-18 -25 -31 -30q-27 -14 -57 -21l-49 6q-23 2 -41 13q-16 8 -25 18q-8 12 -6 25q4 33 19 63l14 31.5l16 36.5l37 67q10 18 29 70l39 109q12 39 20 108q-94 -4 -139 -4q-92 0 -139 -2q-27 11 -19 25zM1487 766q16 74 16 76 q10 39 21 63q29 66 41 101q16 45 41 102q16 39 55 100q33 53 76 99q16 16 45 32q23 12 65 17q23 0 41.5 -6.5t30.5 -12.5q8 -4 20 -16q8 -10 17 -18q6 -12 37 -84q12 -29 28 -86q8 -29 17 -86q4 -29 0 -91q55 47 116 113l111 111q29 29 41 43q25 29 39 43q20 20 51 41 q29 18 70 30q66 -6 104 -28q35 -20 51 -54q14 -29 15 -65q0 -23 -4 -64q-4 -20 -9 -34q-2 -6 -6 -16.5t-6 -16.5q-12 -25 -18 -35q-16 -25 -19 -35q-2 -6 -4 -18.5t-2 -20.5q-2 -8 -5 -22.5t-3 -18.5q-10 -35 -23 -69q-12 -33 -38 -70q-12 -20 -37 -39q-29 -20 -66 -26h-31 q-8 0 -28 4q-27 18 -29 22q-6 9 -6 19q0 2 6 28q4 18 12 29q49 78 68 156q16 43 16 77q0 43 -14 78q-27 -35 -88 -104q-41 -47 -107 -103l-51 -43q-2 -2 -21.5 -19.5t-29.5 -25.5q-31 -23 -59 -41q-43 -27 -72 -37q-39 4 -55 17q-18 16 -19 33q-2 25 -10 73q-4 23 -8 76 q-6 39 -15 78q-4 33 -32 74q-37 -66 -54 -99q-25 -49 -43 -98q-10 -20 -10 -35q0 -10 -4 -35q-6 -33 -6 -34q-2 -6 -6 -16.5t-6 -16.5q-2 -12 -15 -27q-6 -8 -22 -24q-16 -14 -39 -17q-6 0 -16.5 -2t-18.5 -3t-14 -1q-27 0 -47 8q-15 6 -25 19q-8 10 -8 24q0 4 -1 13.5 t-1 13.5z" />
<glyph unicode="&#xa2;" horiz-adv-x="1497" d="M328 639q0 43 12 70q12 39 39 73q33 43 63 72q41 37 82 68q47 35 97 63q61 35 114 62q70 33 135 53q74 23 145.5 37t153.5 14q4 8 25 59q10 29 23 60q12 20 16 33q8 25 16 37t31 30q18 14 53 25q23 0 68 -4q31 -2 59 -13q31 -10 43 -20q14 -12 19 -33q-2 -20 -10.5 -65.5 l-12.5 -65.5l-6 -29q111 -12 186 -41q84 -31 140 -71q18 -12 51 -41q18 -16 37 -45q14 -23 20 -49q6 -23 -4 -54q-4 -12 -14 -26q-10 -12 -31 -27q-18 -12 -43 -18q-29 -6 -57 -5q-41 0 -66 9q-33 10 -49 20q-12 6 -31 31q-10 12 -16 33l-12.5 17l-12.5 17q-10 14 -28 31 q-25 20 -41 29q-25 12 -62 18l-33 -123l-38 -125q-18 -47 -27 -67q-12 -35 -27 -70q-12 -34 -30 -67q-16 -31 -27 -68q39 8 86 25l84 28q35 12 88 27q45 12 96 12q29 -4 43 -8q16 -6 23 -18l8 -17l-2 -14l-4 -19l-2 -8q-25 -37 -78 -65q-51 -27 -121 -49q-49 -16 -141 -35 q-29 -6 -79 -14.5t-65 -10.5l-16 -41q-2 -8 -8 -20.5t-8 -20.5q-25 -51 -31 -65q-12 -34 -37 -68q-29 -39 -61 -61q-39 -27 -107 -45q-53 -2 -92 18q-33 18 -37 45q2 14 5 28.5t5 26.5l13 56q10 41 16 69l12 68q-143 18 -243 59q-119 47 -181 99q-39 33 -59 57 q-27 35 -41 61q-16 33 -16 66zM674 641q2 -10 14 -31q10 -16 25 -28l14 -13.5l14 -13.5q33 -31 76 -51q37 -18 98 -39l48 125l17 48.5t17 51.5l39 101l80 194q-80 -29 -149 -67q-55 -31 -125 -78q-61 -43 -103 -80q-47 -43 -63 -86q-6 -17 -2 -33z" />
<glyph unicode="&#xa3;" horiz-adv-x="2271" d="M416 809q33 31 96 47t127 23q68 6 137 6q90 0 129 2q4 8 15.5 21.5t13.5 17.5q15 22 24 43q33 61 80 125q61 82 88 125q39 29 90.5 47t114.5 30q82 16 125 21l123 12q139 8 203 10q23 0 60.5 2t68.5 3.5t57 1.5q119 0 176 -3l168 -6q43 0 80 -6q39 -6 62 -20 q29 -18 38 -33q12 -18 2 -41q0 -18 -18 -31q-25 -16 -43 -22q-20 -8 -57 -15q-41 -8 -62 -8q-45 2 -133 2t-131 2q-100 4 -182 -2q-106 -8 -185 -22q-57 -12 -86 -21q-35 -10 -79 -28q-23 -8 -64 -37q-31 -20 -45 -41q-18 -20 -47 -66q-37 -57 -41 -65q23 0 72 -1t71 -1 q72 0 140 -7q20 -2 61 -10q29 -6 51 -18q25 -14 33 -27q10 -16 0 -35q-2 -10 -20 -28q-14 -14 -41 -25q-33 -12 -54 -16q-31 -6 -59 -6q-57 2 -172 -2q-86 -3 -172 0q-45 -96 -51 -111l-41 -113q-18 -57 -19 -114q0 -61 15 -113q156 20 288 51l281 68q109 27 278 63 q147 33 289 35q27 2 76 -2q37 -3 68 -12q33 -10 53 -25q25 -16 31 -31l2 -6q-66 -41 -156 -73q-66 -25 -182 -58q-63 -18 -195 -51q-23 -6 -90.5 -21.5t-101.5 -25.5l-207 -49q-70 -16 -209 -45q-70 -14 -213 -35q-119 -16 -215 -23q-59 2 -115 13q-47 8 -86 34 q-18 14 -24 25q-8 14 -15 29q-4 12 -8 28q0 6 -2 14.5t-4 14.5q-18 68 -12 139q6 78 26 144q20 61 49 125q29 66 64 125h-70q-10 0 -32.5 -1t-32.5 -1h-64q-41 0 -61 2q-37 -2 -64 10q-33 16 -41 24q-16 14 -22 31t-2 37z" />
<glyph unicode="&#xa5;" horiz-adv-x="1808" d="M365 279q31 33 79 45q70 16 111 18q61 3 123 0q61 -2 113 0l53 74q25 33 71 69q-106 4 -159 4q-106 0 -158 3q-33 0 -63 10q-23 8 -46 22q-18 12 -24 31q-6 20 -4 35q12 20 49 37q25 10 78 22q41 8 92 13q16 2 45 5t41 3q-37 71 -61.5 141.5t-30.5 146.5q-10 61 -4 142 q6 74 39 141q18 25 20 27q16 16 29 24l39 19q18 8 51 8q37 6 78 2q35 -2 61 -16q29 -14 41 -29q14 -16 14 -35q-3 -43 0 -86q4 -57 2 -88q8 -47 19 -94q6 -33 27 -94q18 -53 38 -91q25 -43 64 -88q82 74 127 109l139 104l144 103l147 102q55 43 119 88l125 86q20 18 65 29 q27 6 80 6q51 -4 78 -14t49 -33q20 -20 23 -39q4 -31 -2 -45q-10 -23 -27 -35q-29 -25 -41 -33q-37 -27 -47 -32.5t-21.5 -14t-23.5 -16.5q-80 -45 -115 -68l-113 -69l-194 -127q-88 -59 -178 -133q10 0 34.5 -1t38.5 -1q27 0 76 -4q35 -2 70 -13q33 -8 53 -20 q25 -14 33 -27q10 -16 0 -39q-2 -16 -27 -33q-27 -18 -51 -26t-65 -15q-39 -6 -68 -4q-51 -2 -152 -2q-25 0 -75 1t-76 1l-22.5 -23t-16.5 -16.5t-15.5 -15.5t-23.5 -22q-41 -41 -68 -76q23 -4 46 0q14 2 45 2q14 -2 45 -2q8 0 24.5 1t22.5 1q10 0 33.5 -1t37.5 -1 q53 0 80 -2q23 -2 74 -11q33 -6 61 -16q23 -8 37 -27q14 -16 4 -38q-8 -20 -32.5 -35t-59.5 -25q-23 -6 -71 -14q-25 -4 -70 -4q-135 -4 -203 -4h-198q-10 -23 -31 -47.5t-51 -45.5q-29 -20 -72 -32q-51 -14 -94 -13q-47 0 -84 16.5t-39 39.5q-4 14 0 45q4 27 14 45l-86 6 l-88 4q-35 2 -65 12q-35 10 -52 23q-18 14 -28 33q-9 19 -6 37z" />
<glyph unicode="&#xa9;" horiz-adv-x="2617" d="M362 385q-18 53 3 109q16 61 65 132.5t115 129.5q70 59 162 118q100 63 198 109q113 57 219 96q125 45 246 74q135 33 266 47q150 16 271 14q145 0 252 -16q121 -18 219 -51q109 -37 178 -78q80 -47 129 -100q115 -106 139.5 -229.5t-35.5 -254.5q-25 -59 -67 -102 q-45 -45 -117 -94q-63 -43 -151 -84q-86 -39 -179 -70q-203 -66 -399 -94q-209 -31 -416 -31q-211 -2 -415.5 33t-356.5 94q-68 27 -147 70q-72 39 -115 82q-46 45 -64 96zM696 487q-14 -39 0 -75q14 -35 52 -66q39 -33 88 -55q45 -20 110 -41q139 -41 273 -57 q164 -20 305 -21q143 0 291 18q145 18 284 56q61 16 127 43q47 18 109 57q51 33 80 64q31 35 43 69q43 98 36 197q-6 94 -79 184q-31 43 -86.5 80t-126.5 64q-63 25 -162 40q-90 16 -193 13q-102 0 -207 -13q-109 -12 -204 -36q-88 -23 -187 -60q-96 -37 -164 -76 q-154 -82 -256 -182.5t-133 -202.5zM952 553q12 37 47 72q34 34 80 67q43 33 103 62q86 43 116 55q74 29 129 47q90 29 138 41q63 16 143 27q82 10 152 10q61 -4 92 -8q55 -8 82 -17q25 -8 34 -12q8 -4 29 -18q10 -8 17 -21q6 -10 0 -22q-8 -18 -25 -33q-14 -12 -47 -27 q-35 -16 -62 -20q-45 -8 -67 -8q-25 0 -62 8q-35 8 -61 10q-78 -6 -156 -29q-61 -18 -139 -51q-70 -31 -119 -61q-55 -35 -76 -74q-12 -27 -2 -43q12 -18 41 -31q27 -12 70 -18q35 -6 84 -2q14 2 38.5 2t39.5 2q51 4 78 10q20 2 38.5 5t36.5 5q49 4 78 4q34 0 62 -6 q27 -6 45 -18q23 -14 26 -27q6 -14 -4 -33q-8 -18 -20 -28q-18 -14 -37 -23q-37 -16 -49 -18q-35 -8 -58 -10q-55 -10 -165 -23q-57 -6 -164 -10q-37 0 -111 4q-55 3 -104 12t-93 25q-51 18 -77 32q-68 34 -92 87q-25 53 -9 104z" />
<glyph unicode="&#xad;" d="M479 686q0 12 6 21q43 29 95 41q72 16 116 20q82 8 127 8t119 4q31 -2 90 -2q14 0 44 -1t46 -1q61 0 92 -2t93 -2q10 0 33.5 1t35.5 1q25 0 74 -4h76q27 0 80 -4q57 -4 80 -8q33 -6 65 -17q25 -8 47 -26q18 -15 19 -37q-8 -14 -33 -29q-27 -14 -49 -22q-18 -6 -60 -15 q-31 -6 -61 -6q-242 -6 -484 -6q-317 0 -479 2q-45 0 -71 10q-51 20 -56 23q-12 6 -22 16l-17 17q-6 9 -6 18z" />
<glyph unicode="&#xae;" horiz-adv-x="2760" d="M393.5 448.5q-16.5 77.5 20.5 159.5q22 68 73 135q49 63 131 129q78 63 179 119q94 53 213 105q109 49 233 90q143 47 254 69q132 28 270 43q139 16 275 13q145 0 254 -17q119 -18 225 -49q92 -27 186 -76q74 -39 140 -100q61 -52 98 -111q35 -55 51 -120q14 -59 8 -127 t-30.5 -131.5t-87.5 -126.5q-61 -61 -148 -117q-80 -51 -194 -100q-98 -43 -228 -82q39 -14 56 -29q23 -18 12 -41q-6 -12 -27 -23q-23 -10 -41 -16q-12 -4 -49 -8q-33 -4 -47 -4q-80 -4 -133 4q-63 8 -119 29q-158 -29 -270 -39q-135 -12 -271 -13q-170 -4 -313 15 q-139 16 -272 59q-137 43 -221 92q-95 55 -154 123q-57 68 -73.5 145.5zM727 489q6 -59 41 -108q37 -53 102 -94q63 -41 168 -66l29 74q14 37 33 72l39 75q6 16 17 43t13 33q16 41 23 94q6 43 18 95q6 31 23 92q12 46 31 92q12 25 20 37q14 23 33 35q45 20 84 28 q61 12 92 15q10 0 29.5 2t36 3t30.5 1q33 0 94 4h107q72 4 106 2q78 -4 115 -4q39 0 117 -4q47 -2 113 -11q47 -6 98 -22q45 -14 71.5 -39t38.5 -51q10 -23 11 -56q0 -29 -11 -59q-8 -25 -36 -53q-23 -23 -60 -49.5t-78 -46.5l-84 -41q-92 -39 -200.5 -74t-223.5 -47 q43 -27 76 -53q45 -37 64 -56q2 -2 28.5 -24.5t40.5 -32.5q45 -35 82 -51q84 16 201 57q82 29 174 78q70 37 133 94q55 49 74 107q20 55 29 98q8 41 4 96q-2 45 -23 94q-18 47 -51 88q-29 41 -88 80q-51 35 -129 64q-63 23 -164 41q-72 12 -190 12q-125 0 -216 -10 q-94 -10 -210 -35q-88 -18 -201 -53q-88 -27 -187 -70q-76 -31 -165 -82q-80 -45 -140 -92q-70 -55 -104 -98q-41 -49 -60 -107q-24 -59 -18 -117zM1319 182q29 -4 84 -4q12 0 42 -1t44 -1q41 0 127 4q94 4 133 8q-25 16 -74 58l-71 57l-45 25q-14 8 -48 24q-23 12 -57 19 q-41 8 -65 10q-10 -16 -23 -49l-9 -21.5t-9 -25.5q-10 -29 -17 -52zM1466 666q-8 -45 7 -91q109 0 213 13q86 10 202 43q49 12 90 31q29 12 74 40q33 20 55 48q18 23 27 51q6 23 -10 33q-18 12 -47 18q-20 4 -64 8q-25 2 -67 2q-29 2 -82.5 -2t-83.5 -4h-82q-14 0 -41 -1 t-41 -1q-41 -4 -55 -12q-25 -14 -35 -27q-18 -23 -21 -29q-4 -8 -7 -15t-5 -13q-17 -41 -27 -92z" />
<glyph unicode="&#xb4;" horiz-adv-x="491" d="M700 1491q-2 10 5 25q12 23 14 26l57 70q29 35 74 69q45 37 98 60q51 23 133 33q25 0 43 -7q25 -8 33 -14q18 -14 21 -18q6 -10 2 -23q0 -12 -11 -22q-6 -6 -18 -23q-18 -20 -66 -68q-33 -33 -88 -67q-45 -29 -110 -51q-63 -23 -142 -23q-6 0 -34 12q-17 7 -11 21z" />
<glyph unicode="&#x2000;" horiz-adv-x="884" />
<glyph unicode="&#x2001;" horiz-adv-x="1771" />
<glyph unicode="&#x2002;" horiz-adv-x="884" />
<glyph unicode="&#x2003;" horiz-adv-x="1771" />
<glyph unicode="&#x2004;" horiz-adv-x="589" />
<glyph unicode="&#x2005;" horiz-adv-x="442" />
<glyph unicode="&#x2006;" horiz-adv-x="294" />
<glyph unicode="&#x2007;" horiz-adv-x="294" />
<glyph unicode="&#x2008;" horiz-adv-x="219" />
<glyph unicode="&#x2009;" horiz-adv-x="352" />
<glyph unicode="&#x200a;" horiz-adv-x="96" />
<glyph unicode="&#x2010;" d="M479 686q0 12 6 21q43 29 95 41q72 16 116 20q82 8 127 8t119 4q31 -2 90 -2q14 0 44 -1t46 -1q61 0 92 -2t93 -2q10 0 33.5 1t35.5 1q25 0 74 -4h76q27 0 80 -4q57 -4 80 -8q33 -6 65 -17q25 -8 47 -26q18 -15 19 -37q-8 -14 -33 -29q-27 -14 -49 -22q-18 -6 -60 -15 q-31 -6 -61 -6q-242 -6 -484 -6q-317 0 -479 2q-45 0 -71 10q-51 20 -56 23q-12 6 -22 16l-17 17q-6 9 -6 18z" />
<glyph unicode="&#x2011;" d="M479 686q0 12 6 21q43 29 95 41q72 16 116 20q82 8 127 8t119 4q31 -2 90 -2q14 0 44 -1t46 -1q61 0 92 -2t93 -2q10 0 33.5 1t35.5 1q25 0 74 -4h76q27 0 80 -4q57 -4 80 -8q33 -6 65 -17q25 -8 47 -26q18 -15 19 -37q-8 -14 -33 -29q-27 -14 -49 -22q-18 -6 -60 -15 q-31 -6 -61 -6q-242 -6 -484 -6q-317 0 -479 2q-45 0 -71 10q-51 20 -56 23q-12 6 -22 16l-17 17q-6 9 -6 18z" />
<glyph unicode="&#x2012;" d="M479 686q0 12 6 21q43 29 95 41q72 16 116 20q82 8 127 8t119 4q31 -2 90 -2q14 0 44 -1t46 -1q61 0 92 -2t93 -2q10 0 33.5 1t35.5 1q25 0 74 -4h76q27 0 80 -4q57 -4 80 -8q33 -6 65 -17q25 -8 47 -26q18 -15 19 -37q-8 -14 -33 -29q-27 -14 -49 -22q-18 -6 -60 -15 q-31 -6 -61 -6q-242 -6 -484 -6q-317 0 -479 2q-45 0 -71 10q-51 20 -56 23q-12 6 -22 16l-17 17q-6 9 -6 18z" />
<glyph unicode="&#x202f;" horiz-adv-x="352" />
<glyph unicode="&#x205f;" horiz-adv-x="442" />
<glyph unicode="&#x20ac;" horiz-adv-x="2213" d="M301 510q20 31 61 45q47 16 99 23q74 8 112 10q18 0 52 1t51 3l10 26q14 41 21 52l26 53h-78h-77q-47 0 -66 6q-23 8 -45 23q-16 10 -22.5 28.5t1.5 34.5q27 31 78 49q45 16 111 27q41 6 125 10q43 2 117 6q72 76 182 162q96 76 237 143q61 29 140 58q72 27 157 45 q94 20 166 28.5t170 4.5q76 0 144 -13q86 -16 127 -28q61 -18 108 -43q66 -33 92 -52q43 -29 76 -57q39 -35 59 -63q25 -33 33 -68q9 -37 0 -74q-4 -18 -16 -35q-20 -25 -37 -34q-25 -14 -59 -25q-33 -8 -74 -6q-76 4 -117 22q-47 23 -70 52q-20 25 -41 63q-25 45 -38 66 q-12 18 -37 30q-33 16 -54 23q-27 8 -65 14q-37 6 -76 6q-92 0 -166 -20q-72 -20 -141 -53q-63 -31 -115 -72q-66 -53 -88 -76q37 0 58 2q33 4 61 0h80q12 0 26.5 -1t31 -3t26.5 -2q41 -2 78 -12q45 -10 65 -21q27 -12 39 -30.5t4 -42.5q-2 -18 -28 -35q-16 -10 -62 -23 q-34 -9 -74 -12q-27 -2 -75 -2h-191h-190l-41 -72q-18 -33 -31 -71q51 0 78 2q41 4 78 0h79q2 0 82 -7q31 -2 78 -10q35 -6 64 -18q27 -12 39 -30.5t6 -41.5q-6 -18 -31 -35q-25 -15 -61 -24q-37 -10 -76 -13q-27 -2 -74 -2q-25 0 -76 -1t-77 -1q-98 0 -150 2q0 -29 6 -55 q8 -33 23 -53q18 -25 55 -43.5t100 -18.5q143 4 213 9q113 6 209 32l96 31l93 35q45 16 104 27q76 12 109 14q43 0 61 -8q22 -9 31 -25q8 -14 6 -31q-2 -12 -18 -32l-7 -19q0 -2 -12 -14q-31 -31 -70 -53q-45 -25 -94 -43l-108 -37l-111 -31q-80 -20 -227 -47 q-117 -22 -234 -25q-166 -6 -295 29q-125 33 -206 88q-78 51 -125 129q-41 70 -45 146q-70 4 -105 4t-104 4q-43 0 -70 8q-25 8 -51 22q-22 12 -31 31q-8 17 -2 35z" />
<glyph unicode="&#xe000;" horiz-adv-x="1335" d="M0 1335h1335v-1335h-1335v1335z" />
<glyph unicode="&#xfb01;" horiz-adv-x="2291" d="M1915 164l13 110q6 47 28 111q29 92 68 193l76 192l75 191l35 86l43 104l27 55q10 23 37 56q25 31 59 51q37 23 94 37q18 2 35 1.5t33 -1.5q27 -2 57 -15q20 -8 41 -24.5t25 -28.5q7 -25 7 -50q0 -37 -15 -77q-20 -59 -39 -108l-47 -109q-29 -78 -45.5 -115t-45.5 -114 q-31 -86 -39 -121q-12 -49 -26 -121l-29 -113q-14 -51 -37 -112l-34 -66q-14 -29 -52 -70q-29 -31 -78 -57t-120 -35q-18 0 -47 4q-18 2 -35 13q-25 14 -27 16q-4 4 -10 11.5t-8 9.5q-2 12 -5.5 25t-5.5 24q-4 14 -8 47zM354 170q-1 9 0 18q0 21 4 45q6 20 19 48 q16 33 22 49l47 100q14 33 39 102q12 33 19 60q8 37 16 57l19 62q6 14 12 30.5t10 30.5q23 43 31 82t29 82q10 35 28 78q2 6 35 78q6 10 14 30q6 14 15 29q16 23 43 41q14 8 65 31q49 20 76 26q45 10 84 17q121 16 170 22l172 19q45 6 150 14q98 8 149 14q94 4 141 4 q92 0 138 -4q57 -6 94 -20q40 -15 67 -37q6 -4 13.5 -10l13.5 -11l7 -7t9 -8t6 -7q6 -8 15 -25q3 -7 3 -14q0 -5 -1 -12q-12 -18 -39 -25q-31 -8 -57 -10q-41 -4 -66 -4q-41 0 -57 -2q-72 -2 -219 -2q-98 0 -217 -11q-35 -4 -105 -16q-52 -9 -98 -24q-39 -12 -86 -35 q-39 -18 -66 -45q-31 -31 -63 -78q-23 -33 -37 -80q-8 -20 -8 -29q78 0 118 2l119 6q20 0 61.5 1.5t61.5 3.5q31 2 62 1l61 -1q49 0 139 -5q59 -2 127 -20q57 -23 68 -53q6 -16 6 -33q0 -19 -8 -37q-6 -16 -33 -33q-20 -12 -61 -16q-53 -8 -74 -8h-72q-55 -2 -170 -2 q-57 0 -172 -4q-96 -4 -170 -15q-86 -12 -162 -37q-16 -20 -30 -47q-12 -23 -21 -47l-18 -47q-14 -41 -19 -47l-39 -104l-30 -105l-23 -45q-12 -23 -39 -47q-27 -23 -59 -37q-31 -13 -74 -13q-9 0 -18 1q-70 6 -107 26q-43 23 -59 48q-17 26 -21 61z" />
<glyph unicode="&#xfb02;" horiz-adv-x="3141" d="M1946 176q-1 16 -1 29q0 28 5 51q-4 27 0 41l5 20.5t5 24.5q8 29 41 111q16 43 54 112l63 115l55 117q18 55 31 100q16 66 27 100q16 66 28.5 96.5l40.5 96.5q12 29 27 45q16 18 47 43q23 18 68 35q27 10 90 18q24 1 41 1q34 0 57 -5q35 -8 61 -27q20 -14 31 -38 q6 -14 6 -48q0 -29 -8 -51l-7 -21.5t-9 -23.5q-31 -74 -84 -168l-96 -168l-91 -170q-53 -104 -75 -170q-6 -27 -15 -53q0 -4 -5 -23.5t-7 -29.5q-4 -37 -4 -51q0 -35 6 -52h28l187 15q143 20 213 35l60 13t65 15l57.5 14.5t71.5 16.5q78 16 117 27q53 14 119 20q17 2 35 2 q16 0 46 -2q35 -2 66 -16q25 -10 35 -31q3 -6 3 -12q0 -14 -13 -29q-33 -43 -88 -72q-66 -35 -132 -57q-70 -25 -151 -43l-154 -37q-162 -35 -327 -55q-118 -15 -232 -15q-49 0 -98 3q-78 6 -82 6q-37 6 -76 16q-45 12 -63 23q-29 16 -43 32q-29 43 -31 74zM354 170 q-1 9 0 18q0 21 4 45q6 20 19 48q16 33 22 49l47 100q14 33 39 102q12 33 19 60q8 37 16 57l19 62q6 14 12 30.5t10 30.5q23 43 31 82t29 82q10 35 28 78q2 6 35 78q6 10 14 30q6 14 15 29q16 23 43 41q14 8 65 31q49 20 76 26q45 10 84 17q121 16 170 22l172 19 q45 6 150 14q98 8 149 14q94 4 141 4q92 0 138 -4q57 -6 94 -20q40 -15 67 -37q6 -4 13.5 -10l13.5 -11l7 -7t9 -8t6 -7q6 -8 15 -25q3 -7 3 -14q0 -5 -1 -12q-12 -18 -39 -25q-31 -8 -57 -10q-41 -4 -66 -4q-41 0 -57 -2q-72 -2 -219 -2q-98 0 -217 -11q-35 -4 -105 -16 q-52 -9 -98 -24q-39 -12 -86 -35q-39 -18 -66 -45q-31 -31 -63 -78q-23 -33 -37 -80q-8 -20 -8 -29q78 0 118 2l119 6q20 0 61.5 1.5t61.5 3.5q31 2 62 1l61 -1q49 0 139 -5q59 -2 127 -20q57 -23 68 -53q6 -16 6 -33q0 -19 -8 -37q-6 -16 -33 -33q-20 -12 -61 -16 q-53 -8 -74 -8h-72q-55 -2 -170 -2q-57 0 -172 -4q-96 -4 -170 -15q-86 -12 -162 -37q-16 -20 -30 -47q-12 -23 -21 -47l-18 -47q-14 -41 -19 -47l-39 -104l-30 -105l-23 -45q-12 -23 -39 -47q-27 -23 -59 -37q-31 -13 -74 -13q-9 0 -18 1q-70 6 -107 26q-43 23 -59 48 q-17 26 -21 61z" />
<glyph unicode="&#xfb03;" horiz-adv-x="3854" d="M3477 164l13 110q6 47 28 111q29 92 68 193l76 192l75 191l35 86l43 104l27 55q10 23 37 56q25 31 59 51q37 23 94 37q18 2 35 1.5t33 -1.5q27 -2 57 -15q20 -8 41 -24.5t25 -28.5q7 -25 7 -50q0 -37 -15 -77q-20 -59 -39 -108l-47 -109q-29 -78 -45.5 -115t-45.5 -114 q-31 -86 -39 -121q-12 -49 -26 -121l-29 -113q-14 -51 -37 -112l-34 -66q-14 -29 -52 -70q-29 -31 -78 -57t-120 -35q-18 0 -47 4q-18 2 -35 13q-25 14 -27 16q-4 4 -10 11.5t-8 9.5q-2 12 -5.5 25t-5.5 24q-4 14 -8 47zM1917 170q-1 9 0 18q0 21 4 45q6 20 19 48 q16 33 22 49l47 100q14 33 39 102q12 33 19 60q8 37 16 57l19 62q6 14 12 30.5t10 30.5q23 43 31 82t29 82q10 35 28 78q2 6 35 78q6 10 14 30q6 14 15 29q16 23 43 41q14 8 65 31q49 20 76 26q45 10 84 17q121 16 170 22l172 19q45 6 150 14q98 8 149 14q94 4 141 4 q92 0 138 -4q57 -6 94 -20q40 -15 67 -37q6 -4 13.5 -10l13.5 -11l7 -7t9 -8t6 -7q6 -8 15 -25q3 -7 3 -14q0 -5 -1 -12q-12 -18 -39 -25q-31 -8 -57 -10q-41 -4 -66 -4q-41 0 -57 -2q-72 -2 -219 -2q-98 0 -217 -11q-35 -4 -105 -16q-52 -9 -98 -24q-39 -12 -86 -35 q-39 -18 -66 -45q-31 -31 -63 -78q-23 -33 -37 -80q-8 -20 -8 -29q78 0 118 2l119 6q20 0 61.5 1.5t61.5 3.5q31 2 62 1l61 -1q49 0 139 -5q59 -2 127 -20q57 -23 68 -53q6 -16 6 -33q0 -19 -8 -37q-6 -16 -33 -33q-20 -12 -61 -16q-53 -8 -74 -8h-72q-55 -2 -170 -2 q-57 0 -172 -4q-96 -4 -170 -15q-86 -12 -162 -37q-16 -20 -30 -47q-12 -23 -21 -47l-18 -47q-14 -41 -19 -47l-39 -104l-30 -105l-23 -45q-12 -23 -39 -47q-27 -23 -59 -37q-31 -13 -74 -13q-9 0 -18 1q-70 6 -107 26q-43 23 -59 48q-17 26 -21 61zM354 170q-1 9 0 18 q0 21 4 45q6 20 19 48q16 33 22 49l47 100q14 33 39 102q12 33 19 60q8 37 16 57l19 62q6 14 12 30.5t10 30.5q23 43 31 82t29 82q10 35 28 78q2 6 35 78q6 10 14 30q6 14 15 29q16 23 43 41q14 8 65 31q49 20 76 26q45 10 84 17q121 16 170 22l172 19q45 6 150 14 q98 8 149 14q94 4 141 4q92 0 138 -4q57 -6 94 -20q40 -15 67 -37q6 -4 13.5 -10l13.5 -11l7 -7t9 -8t6 -7q6 -8 15 -25q3 -7 3 -14q0 -5 -1 -12q-12 -18 -39 -25q-31 -8 -57 -10q-41 -4 -66 -4q-41 0 -57 -2q-72 -2 -219 -2q-98 0 -217 -11q-35 -4 -105 -16q-52 -9 -98 -24 q-39 -12 -86 -35q-39 -18 -66 -45q-31 -31 -63 -78q-23 -33 -37 -80q-8 -20 -8 -29q78 0 118 2l119 6q20 0 61.5 1.5t61.5 3.5q31 2 62 1l61 -1q49 0 139 -5q59 -2 127 -20q57 -23 68 -53q6 -16 6 -33q0 -19 -8 -37q-6 -16 -33 -33q-20 -12 -61 -16q-53 -8 -74 -8h-72 q-55 -2 -170 -2q-57 0 -172 -4q-96 -4 -170 -15q-86 -12 -162 -37q-16 -20 -30 -47q-12 -23 -21 -47l-18 -47q-14 -41 -19 -47l-39 -104l-30 -105l-23 -45q-12 -23 -39 -47q-27 -23 -59 -37q-31 -13 -74 -13q-9 0 -18 1q-70 6 -107 26q-43 23 -59 48q-17 26 -21 61z" />
<glyph unicode="&#xfb04;" horiz-adv-x="4704" d="M3508 176q-1 16 -1 29q0 28 5 51q-4 27 0 41l5 20.5t5 24.5q8 29 41 111q16 43 54 112l63 115l55 117q18 55 31 100q16 66 27 100q16 66 28.5 96.5l40.5 96.5q12 29 27 45q16 18 47 43q23 18 68 35q27 10 90 18q24 1 41 1q34 0 57 -5q35 -8 61 -27q20 -14 31 -38 q6 -14 6 -48q0 -29 -8 -51l-7 -21.5t-9 -23.5q-31 -74 -84 -168l-96 -168l-91 -170q-53 -104 -75 -170q-6 -27 -15 -53q0 -4 -5 -23.5t-7 -29.5q-4 -37 -4 -51q0 -35 6 -52h28l187 15q143 20 213 35l60 13t65 15l57.5 14.5t71.5 16.5q78 16 117 27q53 14 119 20q17 2 35 2 q16 0 46 -2q35 -2 66 -16q25 -10 35 -31q3 -6 3 -12q0 -14 -13 -29q-33 -43 -88 -72q-66 -35 -132 -57q-70 -25 -151 -43l-154 -37q-162 -35 -327 -55q-118 -15 -232 -15q-49 0 -98 3q-78 6 -82 6q-37 6 -76 16q-45 12 -63 23q-29 16 -43 32q-29 43 -31 74zM1917 170 q-1 9 0 18q0 21 4 45q6 20 19 48q16 33 22 49l47 100q14 33 39 102q12 33 19 60q8 37 16 57l19 62q6 14 12 30.5t10 30.5q23 43 31 82t29 82q10 35 28 78q2 6 35 78q6 10 14 30q6 14 15 29q16 23 43 41q14 8 65 31q49 20 76 26q45 10 84 17q121 16 170 22l172 19 q45 6 150 14q98 8 149 14q94 4 141 4q92 0 138 -4q57 -6 94 -20q40 -15 67 -37q6 -4 13.5 -10l13.5 -11l7 -7t9 -8t6 -7q6 -8 15 -25q3 -7 3 -14q0 -5 -1 -12q-12 -18 -39 -25q-31 -8 -57 -10q-41 -4 -66 -4q-41 0 -57 -2q-72 -2 -219 -2q-98 0 -217 -11q-35 -4 -105 -16 q-52 -9 -98 -24q-39 -12 -86 -35q-39 -18 -66 -45q-31 -31 -63 -78q-23 -33 -37 -80q-8 -20 -8 -29q78 0 118 2l119 6q20 0 61.5 1.5t61.5 3.5q31 2 62 1l61 -1q49 0 139 -5q59 -2 127 -20q57 -23 68 -53q6 -16 6 -33q0 -19 -8 -37q-6 -16 -33 -33q-20 -12 -61 -16 q-53 -8 -74 -8h-72q-55 -2 -170 -2q-57 0 -172 -4q-96 -4 -170 -15q-86 -12 -162 -37q-16 -20 -30 -47q-12 -23 -21 -47l-18 -47q-14 -41 -19 -47l-39 -104l-30 -105l-23 -45q-12 -23 -39 -47q-27 -23 -59 -37q-31 -13 -74 -13q-9 0 -18 1q-70 6 -107 26q-43 23 -59 48 q-17 26 -21 61zM354 170q-1 9 0 18q0 21 4 45q6 20 19 48q16 33 22 49l47 100q14 33 39 102q12 33 19 60q8 37 16 57l19 62q6 14 12 30.5t10 30.5q23 43 31 82t29 82q10 35 28 78q2 6 35 78q6 10 14 30q6 14 15 29q16 23 43 41q14 8 65 31q49 20 76 26q45 10 84 17 q121 16 170 22l172 19q45 6 150 14q98 8 149 14q94 4 141 4q92 0 138 -4q57 -6 94 -20q40 -15 67 -37q6 -4 13.5 -10l13.5 -11l7 -7t9 -8t6 -7q6 -8 15 -25q3 -7 3 -14q0 -5 -1 -12q-12 -18 -39 -25q-31 -8 -57 -10q-41 -4 -66 -4q-41 0 -57 -2q-72 -2 -219 -2 q-98 0 -217 -11q-35 -4 -105 -16q-52 -9 -98 -24q-39 -12 -86 -35q-39 -18 -66 -45q-31 -31 -63 -78q-23 -33 -37 -80q-8 -20 -8 -29q78 0 118 2l119 6q20 0 61.5 1.5t61.5 3.5q31 2 62 1l61 -1q49 0 139 -5q59 -2 127 -20q57 -23 68 -53q6 -16 6 -33q0 -19 -8 -37 q-6 -16 -33 -33q-20 -12 -61 -16q-53 -8 -74 -8h-72q-55 -2 -170 -2q-57 0 -172 -4q-96 -4 -170 -15q-86 -12 -162 -37q-16 -20 -30 -47q-12 -23 -21 -47l-18 -47q-14 -41 -19 -47l-39 -104l-30 -105l-23 -45q-12 -23 -39 -47q-27 -23 -59 -37q-31 -13 -74 -13q-9 0 -18 1 q-70 6 -107 26q-43 23 -59 48q-17 26 -21 61z" />
</font>
</defs>
</svg>
