<?xml version="1.0" standalone="no"?>
<!DOCTYPE svg PUBLIC "-//W3C//DTD SVG 1.1//EN" "http://www.w3.org/Graphics/SVG/1.1/DTD/svg11.dtd" >
<svg xmlns="http://www.w3.org/2000/svg">
<metadata>
This is a custom SVG webfont generated by Font Squirrel.
Copyright   : Copyright c Iconian FontsShyFonts Type Foundry 2000
</metadata>
<defs>
<font id="webfontNKNSuDR1" horiz-adv-x="894" >
<font-face units-per-em="2048" ascent="1638" descent="-410" />
<missing-glyph horiz-adv-x="768" />
<glyph unicode=" "  horiz-adv-x="768" />
<glyph unicode="&#x09;" horiz-adv-x="768" />
<glyph unicode="&#xa0;" horiz-adv-x="768" />
<glyph unicode="!" horiz-adv-x="456" d="M106 121q0 29 9 53q10 29 24 43q16 16 41 31q20 12 47 18q20 6 43 2q31 2 53.5 -10t28.5 -36.5t4 -51.5q-3 -28 -18 -55q-10 -25 -27 -41q-25 -25 -39 -33q-27 -16 -47 -21q-33 -8 -45 -6q-20 4 -41 23q-14 12 -24 37q-9 18 -9 47zM311 471q4 33 11 47q6 16 14 45 q41 104 49 121l57 123l31 67q6 16 14.5 33l16.5 33q6 16 11 32.5l11 35.5l25 65q29 72 35 86q16 37 47 82q31 41 37 47q27 27 41 35q29 16 43 18q20 2 41 -4q18 -12 24 -34q6 -25 4 -46q-4 -27 -12 -53t-14 -51q-41 -111 -88 -201l-111 -198q-28 -43 -55 -92 q-29 -53 -58 -95q-35 -51 -65 -88q-39 -45 -82 -73q-20 6 -27 24q-4 12 0 41z" />
<glyph unicode="&#x22;" horiz-adv-x="702" d="M473 950q6 39 19 78q16 53 22 76q6 16 14.5 32.5t14.5 32.5q20 45 32 68q14 29 46 61q23 27 59 50q6 0 8 2q4 4 8 4l17 4q18 -2 28 -17q8 -10 9 -32q0 -27 -2 -41q-2 -8 -5.5 -20.5t-3.5 -18.5l-30 -96l-35 -97q-2 -4 -9.5 -23.5l-11.5 -29.5q-12 -37 -22 -55.5 t-35 -50.5q-16 -23 -47 -39l-21 -2h-12q-29 14 -39 46.5t-4 67.5zM752 854q-6 23 0 51q6 31 18 60q6 16 16 55l17 39q4 8 8 20l4 12.5t4 10.5q16 45 22.5 67.5t26.5 67.5l7.5 14.5l7.5 14.5q8 20 14 30.5t23 26.5q14 12 28 18q20 6 33 5q16 -6 26.5 -22.5t12.5 -33.5 q4 -18 0 -41l-4 -39q-4 -27 -27 -90q-20 -61 -33 -92q-2 -6 -22 -53q-8 -18 -29 -55q-12 -23 -39 -50q-18 -18 -51 -36q-23 -8 -31 -11q-26 6 -32 31z" />
<glyph unicode="#" horiz-adv-x="970" d="M330 711q12 29 37 45q31 18 55 24q37 8 57 8q10 0 27.5 1.5t23.5 1.5q10 31 62 163q-23 4 -47 0q-25 -3 -49 0q-29 2 -39 31q-8 12 -6 27q0 2 2 14t4 18q20 27 45 39q33 16 51 20.5t55 8.5q18 2 51 6q14 35 23 47q20 31 35 49q25 29 41 39q25 16 51 19q25 2 37 -17 q10 -16 4 -41q-2 -6 -19 -47l-18 -47q57 -4 84 -4t84 -4q2 6 8 22.5t8 22.5q6 14 23 43q20 37 37 51q18 18 39 17q18 0 28 -8l23 -19l8 -10l6 -17l4 -14l-4 -12l-5 -20.5l-5 -20.5l-5 -20.5l-5 -20.5q8 0 24.5 -3t20.5 -3q16 -2 41 -15q20 -10 28 -26q10 -18 5 -43 q-10 -18 -13 -23q-8 -12 -20 -20l-25 -12q-12 -6 -24 -7h-43q-8 0 -22.5 1t-20.5 1l-31 -82l-31 -79q25 -4 41 -4q12 0 41 -5q23 -4 35 -16t10 -33q-10 -18 -20 -32q-8 -10 -29 -31q-20 -16 -33 -23q-18 -9 -37 -12h-37q-6 0 -17 -1t-17 -1l-25 -53l-24 -54q-12 -25 -37 -43 t-50 -18q-33 0 -41 18.5t-6 40.5q4 37 11 54q12 37 18 51q-45 -2 -88 0q-43 3 -86 0q-10 -25 -16 -45q-10 -37 -17 -47q-4 -14 -22 -29l-31 -22.5t-33 -14.5q-16 -6 -33 -6q-23 10 -28.5 28.5t-5.5 43.5q0 8 10 49q4 14 7 27.5t5 21.5q-66 4 -102 8q-27 4 -37 21 q-12 18 -6 43zM692 788q31 2 90.5 2.5t89.5 2.5q4 10 13.5 38.5t15.5 42.5l27 82h-174z" />
<glyph unicode="$" horiz-adv-x="870" d="M225 532q0 14 4 23l9 14q6 4 13 10.5t11 8.5q12 4 19 4q16 -4 20 -4l18 -6l64 -25q41 -16 63 -22q49 -14 66 -17q43 -8 72 -10q23 0 37 2q20 2 38 12q25 12 35 21q14 10 21 35q12 27 8 49q-4 25 -14 41q-14 20 -29 30q-25 16 -39 23q-86 25 -100 31q-8 2 -103 30 q-6 2 -17 9.5t-15 9.5q-18 9 -31 24q-10 14 -14.5 35t8.5 43q12 27 34 45q20 16 46 33q16 10 53 27q14 6 27.5 11l23.5 9q78 29 115 37q74 16 110 22l47 101l47 102l27 45q20 35 31 45q16 18 39 35q16 12 49 17q29 0 41 -5q14 -6 31 -20q10 -10 14 -31q3 -18 -6 -43 q-20 -47 -27 -57q-14 -25 -33 -53l-32 -60q-14 -25 -25 -57q0 -4 2 -6t2 -8l16 -2h7q33 -6 55 -21q16 -10 45 -31q16 -12 24.5 -20t20.5 -25q6 -8 10 -30q4 -18 -2 -37q-6 -12 -16 -19q-12 -8 -20.5 -10t-20.5 -2h-21q-33 4 -47 4q-25 0 -45 6q-16 4 -45 8q-16 2 -49 2h-23 q-10 0 -26 -4q-12 -3 -25 -12q-10 -8 -16 -22q-4 -18 2 -29l12 -25l7 -7q7 -7 12 -11q10 -8 20 -19q18 -14 60 -43q23 -14 63 -45q12 -10 21 -26q12 -20 16 -31q6 -14 6 -34.5t-8 -39.5q-10 -29 -27 -47q-18 -23 -41 -41q-14 -12 -47 -37q-16 -12 -49 -28q-76 -39 -104 -52 q-51 -20 -107 -26l-4 -12l-18 -54l-19 -53q-10 -39 -14 -51q-4 -14 -9.5 -26.5t-9.5 -26.5l-24 -58q-14 -31 -35 -55q-27 -31 -59 -39q-31 -8 -66 -8q-31 4 -33 6q-16 6 -22 23q2 8 6 20q0 2 2 10t4 11l31 73q16 37 33 72q23 39 36 76q8 18 15.5 38.5t15.5 39.5v6 q-41 2 -86 16q-27 8 -72 37q-33 20 -57 55q-23 31 -33 74v22z" />
<glyph unicode="%" horiz-adv-x="1218" d="M154 10q0 18 6 39q14 31 41 62l51 59l135 147l137 146l434 473l441 473q2 4 8 8t10 8.5t8.5 10.5t10.5 10q4 4 20 16q12 9 25 13q14 0 35 -9q16 -6 26 -20q12 -14 14 -33q2 -16 -4 -39q-59 -84 -131 -170q-94 -109 -147 -164l-154 -157l-151 -158l-291 -303l-285 -305 q-20 -25 -28 -33q-25 -25 -29 -31q-16 -20 -26.5 -34.5t-26.5 -34.5q-10 -14 -31 -29q-14 -10 -37 -10q-25 4 -33 10q-14 12 -20 25q-8 20 -8 30zM430 895q0 16 4 49q4 27 12 51q4 8 8.5 25.5t8.5 26.5q16 39 53 98q31 49 74 92q43 51 94 76q57 29 109 35q28 3 55 0 q35 -4 51 -11q25 -9 43 -24q18 -16 27 -37q14 -45 4 -107q-8 -47 -33 -114q-14 -49 -49 -111q-31 -51 -84 -102q-51 -49 -107 -72q-57 -25 -118 -18q-55 -2 -95 24q-40 28 -49 74q-8 18 -8 45zM588 958.5q2 -16.5 12 -28.5q10 -14 33 -10q31 -4 55 12q23 14 45 37 q20 18 35 47q18 33 23 51q12 27 18 47q4 14 8 47q-2 20 -22 31q-18 10 -41 6q-27 -2 -54 -22q-29 -20 -43 -41q-20 -27 -30 -52l-11.5 -27.5t-9.5 -21.5q-8 -18 -14 -37q-6 -22 -4 -38.5zM739 199q6 51 31 104q18 51 53 117q31 57 82 106q55 49 121 68q72 20 125 20 q53 4 88 -20q37 -25 45 -70q12 -41 2 -90q-8 -45 -31 -96q-20 -51 -57 -105q-41 -57 -82 -96q-55 -55 -102 -80q-61 -33 -115 -34q-63 -12 -100 12q-35 25 -51 67q-15 42 -9 97zM913 227q4 -23 18.5 -35t45.5 -6q23 0 41 13q20 14 33 28q20 25 28 39q10 16 17 37l16 49 q10 31 10 51q0 23 -10 39.5t-39 16.5q-20 0 -51 -10q-20 -6 -43 -33q-18 -23 -29 -45q-18 -43 -20 -47q-4 -12 -15 -50q-6 -22 -2 -47z" />
<glyph unicode="&#x26;" horiz-adv-x="1050" d="M248 399q2 39 22 93q12 47 43 90q25 35 72 77q35 33 90 64q45 25 94 45q-45 51 -63 129q0 8 -2 16.5t-4 18.5q-4 25 -4 37q0 25 2 37q4 20 12 41q10 29 34.5 63.5t49.5 58.5q29 29 59 54q29 23 66 43q66 43 137 65q74 23 137 23q25 0 82 -4q29 -2 78 -15q35 -8 68 -28 q29 -16 49 -52q0 -4 1 -8t1 -10q0 -2 1 -9t1 -11q-23 -41 -53 -70q-8 -8 -16.5 -15.5t-16.5 -15.5q-14 -14 -39 -18q-16 4 -41 8q-39 6 -41 6q-14 2 -43 10t-45 11q-53 10 -96 8l-37 -6q-8 -2 -39 -15q-18 -8 -35 -22q-15 -12 -24 -31q-10 -23 -13 -41q-4 -29 -4 -41 q0 -18 6 -35q8 -18 21 -28q31 -25 65 -33l40 -12.5t36 -10.5q20 -4 42 -7t42 -7q27 -6 84 -14q6 14 20 32q12 16 29 29q18 14 35 21q25 8 37 6q25 0 41 -13q18 -14 22 -28q6 -18 6 -39q0 -16 -12 -45q-55 -143 -106 -250l-121 -250q-14 -29 -74 -119q-39 -59 -100 -102 q-25 -16 -64 -33q-29 -12 -63 -18q-39 -8 -64 -11q-10 -2 -30.5 -2t-30.5 -2q-41 -2 -92 9q-29 6 -78 30q-29 14 -66 47t-53 60q-12 20 -33 71q-14 37 -20 80q-6 37 -2 88zM459 424q0 -29 8 -47q10 -25 25 -41q14 -18 32 -33q37 -28 86 -43q39 -12 109 -12q14 0 43 4 q10 2 22.5 3t22.5 3l78 176l80 176l-31 6q-6 2 -15.5 3.5t-15.5 1.5l-31 6q-10 2 -32 2q-33 0 -103 -8q-47 -6 -104 -23q-23 -6 -49.5 -16.5t-46.5 -24.5q-20 -16 -41 -35q-16 -16 -27 -45q-10 -22 -10 -53z" />
<glyph unicode="'" horiz-adv-x="401" d="M457 895v31q10 63 20 98q16 57 29 86l24 64q10 27 31 65q25 45 41 64q27 31 60 51q16 8 34 8q20 -2 28.5 -14.5t12.5 -28.5q2 -10 2 -35q0 -6 -1 -18.5t-1 -16.5l-12 -75q-6 -40 -25 -80q-14 -33 -28 -70q-20 -49 -33 -72q-16 -29 -45 -65q-20 -25 -66 -51q-6 -2 -16 -2 q-8 0 -14 -3q-20 4 -27 11q-8 8 -12 24q-2 9 -2 29z" />
<glyph unicode="(" horiz-adv-x="813" d="M236 410q8 80 45 188q35 102 96 215q55 102 133 209q59 78 172 195q92 94 205 161q51 31 98 47q49 18 96 15q23 -4 39 -17q14 -10 21 -30q6 -18 6 -41q0 -20 -10 -45q-16 -20 -33 -25q-8 -2 -41 -16q-113 -45 -197 -115q-98 -80 -161 -162q-70 -86 -123 -188 q-47 -88 -84 -193q-33 -84 -47 -162q-16 -86 -2 -151q18 -66 61 -119q47 -59 98 -90q6 -2 24.5 -10t29.5 -15q14 -8 51 -22q8 -8 10 -14q4 -10 -2 -19q-6 -18 -23 -39q-6 -6 -36 -33q-12 -10 -41 -22t-43 -14q-25 -6 -52 -2q-29 4 -45 8q-29 8 -41 16l-37 25 q-66 47 -106.5 122.5t-52.5 163.5q-18 81 -8 179z" />
<glyph unicode=")" horiz-adv-x="811" d="M160 -4q-6 18 0 41q2 10 12 20q6 6 18 13q16 8 25 10q16 4 23 6q53 14 104 45q55 33 98 70q51 43 88 84q41 43 78 90q80 102 133 203q61 117 95 210q33 84 32.5 164t-24.5 148q-25 66 -78 117q-57 53 -121 75q-2 0 -10 3t-12 5q-8 2 -20.5 10.5t-16.5 14.5t-4 23 q10 20 26 38q14 14 39 29q29 16 45 21q6 2 21.5 6l23.5 6q29 4 84 0q37 -2 74 -16l16.5 -11.5l18.5 -13.5t14 -12q25 -20 41 -43q45 -61 66 -129q25 -78 26 -152q2 -78 -12 -164q-14 -76 -47 -170q-53 -137 -131 -254q-83 -123 -185 -239l-96 -109q-43 -47 -112 -106 q-53 -45 -123 -78q-65 -31 -129 -25q-22 3 -37 13q-10 6 -27 22q-8 10 -16 35z" />
<glyph unicode="*" horiz-adv-x="757" d="M324 731q16 33 45 53q10 8 30.5 19.5t28.5 17.5l72 39l24.5 12.5t20.5 11.5t24 13q-25 27 -37 39q-20 18 -38 39q-12 12 -17 18q-8 12 -12 21q-2 6 -8 26q-4 12 2 27q14 29 47 55q29 23 63 27h9l4 -1q4 -1 6 -1l16 -10l11.5 -17.5l13.5 -20.5l12 -18l37 -55l16 47l17 47 q2 2 9 20.5l11 28.5q12 23 29 48q16 23 39 38q27 18 51 19q27 -4 41 -21q16 -18 8 -43l-37 -84l-37 -82q16 12 54 33l53 33q16 10 49 27q16 8 49 12q31 -6 45.5 -26.5t3.5 -55.5q-2 -12 -12 -29q-6 -10 -27 -22q-51 -23 -122 -62l-123 -65l69 -60q33 -29 70 -57 q18 -23 0 -57q-4 -10 -16 -31q-6 -10 -25 -28.5t-29 -24.5q-16 -10 -33 -10q-25 0 -38 14q-16 16 -27 24q-10 16 -29 31q-8 6 -24 31q-2 -18 -15 -55q-6 -18 -14 -56q-18 -37 -57 -55q-20 -10 -39 -16q-25 -8 -37 -9q-16 0 -23 11q-8 12 -8 22v27q4 20 6 28q8 37 17 60 l24 61q-14 -8 -29.5 -18l-31.5 -21l-62 -36q-4 -2 -12 -4.5t-10 -2.5q-6 -2 -19 -2q-25 4 -33 8.5t-24 16.5q-14 10 -18 20.5t-4 30.5z" />
<glyph unicode="+" horiz-adv-x="729" d="M281 668q0 23 4 37t22.5 28.5t30.5 18.5q2 0 14.5 5t20.5 7q12 2 33 6q14 4 47 8q14 2 39 2q6 0 18 1t18 1h35q25 74 62 148q6 12 22 33q14 16 31 30q16 12 33 19q25 8 37 8q29 0 43 -21q12 -18 6 -49q-10 -25 -28.5 -88t-29.5 -88q25 -2 74 -2q51 0 74 -6q10 -2 31 -10 q12 -4 22 -18.5t12 -25t-6 -34.5q-8 -20 -14 -29q-6 -10 -25 -22q-14 -10 -28 -17q-20 -8 -31 -8q-14 0 -43 -1t-43 -1t-43 -1t-43 -1l-29 -78l-16 -37q-8 -25 -13 -39q-8 -16 -24 -32q-18 -18 -37 -27q-16 -10 -37 -16q-14 -4 -39 -9q-31 12 -37 41q-4 23 2 62q4 27 23 69 q2 6 20 66q-14 2 -38 2q-6 0 -18.5 -1t-20.5 -1q-12 2 -37 2h-39q-18 0 -29 10l-12 11l-6 12l-2 2q-6 17 -6 33z" />
<glyph unicode="," horiz-adv-x="401" d="M27 -117q-2 18 4 43q20 59 61 107q41 51 84 98l43 45q14 16 47 45q20 18 51 35q28 15 56 18q16 -4 22 -10q10 -10 13 -20q2 -8 2 -27q0 -12 -7 -29q0 -2 -1 -7t-3 -7q-4 -8 -6 -14q-9 -28 -24 -56q-14 -25 -37 -51q-35 -41 -43 -47l-47 -45l-37 -33q-25 -25 -39 -34 q-8 -6 -41 -25q-23 -12 -45 -16q-6 2 -14.5 2t-14.5 2q-22 6 -24 26z" />
<glyph unicode="-" d="M365 668q-4 18 8 39q27 31 53 41q39 16 63 20q41 8 63.5 8t59.5 4q14 -2 45 -2q6 0 22.5 -1t22.5 -1q31 0 45.5 -2t47.5 -2q6 0 17 1t17 1q10 0 35 -4q37 0 58 -2q43 -4 59 -10q25 -10 41 -29q14 -16 8 -51q-16 -33 -49 -51q-31 -16 -66 -21q-123 -6 -239 -6 q-162 0 -242 2q-23 0 -33 10l-12 11.5l-12 11.5q-10 17 -12 33z" />
<glyph unicode="." horiz-adv-x="440" d="M137 106q2 25 17 56q8 25 28 47q18 20 43 39q22 15 49 24q31 10 52 11q23 2 45 -9q20 -10 28 -24q9 -15 13 -37q4 -23 -6 -47q-8 -27 -29 -57q-16 -25 -43 -52q-16 -14 -58 -39q-33 -18 -59 -16q-35 0 -51 14q-18 15 -25 37q-8 24 -4 53z" />
<glyph unicode="/" horiz-adv-x="761" d="M63.5 36.5q-6.5 20.5 2.5 37.5q20 59 53 106l74 103l90 112l90 115l108 139l109 139l168 205q94 113 178 201q20 20 57 61q55 61 58 64q8 8 28 24q14 10 33 21q27 12 35 14q18 2 31 -2q2 0 7 -2t7 -2l12 -6q4 -2 8 -10q2 -6 0 -15q-14 -41 -30 -63l-14.5 -22.5 t-11.5 -17.5l-15 -21l-51 -66l-52 -66l-354 -456l-375 -449q-16 -14 -49 -51q-25 -29 -53 -53q-31 -27 -57 -43q-31 -18 -64 -19q-16 2 -22.5 22.5z" />
<glyph unicode="0" horiz-adv-x="1019" d="M281 453q12 94 51 206q39 111 96 215q55 100 135 205q6 6 82 95q29 33 94 86q49 41 107 65q57 27 110 29q90 0 148 -33q61 -35 90 -88q33 -57 41 -129q8 -68 2 -152q-6 -70 -29 -159q-18 -74 -49 -154q-37 -102 -96 -207q-57 -100 -139 -194q-33 -39 -90 -88 q-39 -35 -103 -72q-49 -29 -110 -49q-53 -18 -109 -15q-57 0 -96 21q-40 22 -68 55q-27 31 -43 80t-22 88q-14 89 -2 195zM465 383q0 -41 8 -68q8 -31 33 -51q23 -18 65 -22q31 -2 70 10q31 10 70 35q16 10 61 51q27 23 51 59q47 61 86 133q37 70 60 138q28 74 49 147 q16 57 24 146q4 43 -2 73q-6 39 -18 60q-14 27 -41 43q-25 15 -61 12q-41 -2 -78 -25q-33 -18 -68 -57q-33 -37 -55 -70l-22.5 -32.5l-24.5 -36.5q-33 -51 -88 -158q-39 -76 -68 -158l-22 -73q-10 -33 -21 -78q-8 -35 -8 -78z" />
<glyph unicode="1" horiz-adv-x="477" d="M201 63q-2 14 2 43q2 18 10 46q10 35 14 45l17 45q12 41 57 151l64 152l67 155q6 16 19.5 48l23.5 57.5l19 48.5l20 59l18 58q6 16 11 57q4 29 0 53q-18 25 -21 27q-12 12 -18 27q-6 12 -8 30q-2 16 6 37q18 41 22 49q6 8 35 43q14 16 43 35q25 16 49 19 q35 -6 59.5 -24.5t41.5 -47.5q14 -27 20 -59q6 -37 4 -68q-16 -86 -45 -158l-61 -168q-20 -55 -70 -166q-49 -121 -72 -170q-49 -111 -67 -168l-17 -43l-16 -45q-10 -37 -12 -41l-17 -40q-2 -2 -16 -39q-4 -8 -23 -37q-10 -16 -30 -33q-16 -14 -41 -21q-31 -6 -53 7 q-21 11 -35 36z" />
<glyph unicode="2" horiz-adv-x="1056" d="M272 117q4 33 11 49q10 33 34 74q20 35 48 71l55 70q29 37 57 65l158 164l156 162l22 24.5l18.5 20.5l22.5 27q6 8 19.5 23.5l23.5 27.5t18 23l52 75q25 39 39 78q10 25 10 41q0 18 -6 35q-4 12 -23 22q-12 8 -39 5q-57 0 -112 -21l-111 -43q-39 -23 -55 -45 q-12 -14 -22.5 -29.5t-18.5 -25.5q-20 -31 -51 -49.5t-64 -18.5q-27 -4 -39 8q-14 14 -14 33q0 27 4 43q2 12 16 43q27 53 51 78q34 34 74 61q43 29 82 49.5t84 36.5q92 35 176 47q80 12 170 9q27 0 47 -11q18 -9 31 -24q16 -18 21 -37q8 -29 10 -43q4 -31 0 -98 q-2 -47 -25 -101q-14 -43 -28 -71q-16 -33 -44 -70q-2 -4 -53 -66q-27 -33 -55 -63l-137 -141l-140 -142q-66 -68 -114 -129q-59 -72 -88 -141l65.5 11t46.5 7q74 12 113 23q27 4 53.5 10l52.5 12q51 8 107 13q20 4 33 -2q12 -10 18 -21q2 -4 5 -12t5 -12l7 -25 q2 -12 -5 -29q-35 -29 -77 -49q-49 -23 -84 -33l-86 -24q-49 -10 -84 -21l-97 -18q-14 -2 -29.5 -4t-35 -4t-29.5 -4q-29 -4 -94 -8q-33 -2 -90 2q-23 0 -41 14q-14 12 -21 33q-6 25 -4 45z" />
<glyph unicode="3" horiz-adv-x="1030" d="M297 129q-4 35 6 59q2 14 19 27q14 10 30 14q4 0 8.5 1t8.5 1h18l64 5q45 4 63 10q78 18 131 39q66 25 125 63q20 12 61 41q20 14 54 47q25 25 45 56q16 27 31 59q6 14 10 35q2 18 0 32.5t-17 24.5q-10 8 -30 8q-102 0 -172 -12q-88 -16 -177 -55q-16 -10 -49 -23 q-16 -6 -49 -22q-18 2 -33 16q-8 8 -20 29q-8 14 -12 34.5t2 40.5q8 20 22 37q10 10 33 31q12 10 41 27l41 24l111 58q80 41 108 57q29 18 51 35q16 12 47 43q25 25 39 47q15 25 25 49q0 2 3 10l5 13q4 16 4 24q0 10 -4 19q-4 6 -18 10q-25 -2 -54 -13q-18 -6 -55 -22 t-55 -27q-41 -23 -56 -28q-12 -6 -84 -47q-45 -27 -88 -43q-14 2 -30 12q-14 8 -25 22q-8 10 -14 27q-6 14 0 33q2 6 10 14q4 4 12 16q20 25 56 54q41 33 63.5 47t67.5 39l67 37q14 8 23.5 11t21 8l25.5 11q57 25 72 29q51 16 69 20q45 8 70 9q51 0 86 -20.5t61 -53.5 q25 -31 33 -72q10 -47 -6 -90q-10 -31 -35 -67q-29 -45 -45 -66l-55 -61l-58 -58q68 4 109 -20q43 -25 66 -70q23 -47 20 -100q-4 -59 -33 -119q-23 -57 -55 -109q-39 -61 -76 -102q-35 -41 -92 -90q-49 -43 -104 -80q-41 -29 -111 -68q-47 -27 -115 -51q-70 -27 -114 -32 q-57 -8 -109 -7q-29 4 -49 21q-14 12 -31 41q-4 18 -8 51z" />
<glyph unicode="4" horiz-adv-x="954" d="M274 662q4 31 11 45q20 57 57 114l74 111l82 110q47 61 92 109l41 45q14 16 45 47q23 23 47 41q23 16 53 31q23 4 39 -10q20 -16 27 -27q27 -27 14 -74q-25 -45 -72 -102l-84 -101l-88 -108q-45 -53 -75 -113l-2 -16l2 2l67 -6q35 -4 66 -12l67 -13q33 -6 70 -6h16h4 q49 115 74 184l68 181q12 25 28 77q10 35 33 76q2 4 23 35q8 12 30 31q18 14 35 20q20 6 37 4q29 -4 39 -12q18 -14 23 -29q6 -18 6 -39q0 -27 -9 -45q-18 -55 -38 -110l-43 -113l-33 -94q-15 -46 -37 -92l-16 -49q-4 -14 -9 -47q25 -10 41 -41q16 -29 0 -66q-8 -20 -16 -31 q-4 -4 -12.5 -14t-12.5 -14q-15 -15 -30 -25q-14 -8 -33 -6q-4 -6 -11.5 -20.5l-11.5 -22.5q-8 -14 -20 -43q-14 -37 -23 -66q-10 -39 -20 -63q-14 -49 -21 -64q-12 -31 -22 -63q-10 -23 -23 -45q-12 -22 -30 -43q-16 -18 -39 -35q-20 -14 -47 -18q-18 -4 -35 0t-29 12 q-8 6 -16 22q-6 10 -2 31q-2 31 10 70l24 71q8 14 20.5 47t20.5 48l21 47q0 2 8 19.5t12 27.5l6.5 19.5l6.5 19.5q8 25 10 37q-27 6 -59 6q-23 0 -64 4l-102 8q-37 2 -103 14q-45 8 -90 31q-37 18 -67 60q-9 14 -5 41z" />
<glyph unicode="5" horiz-adv-x="1042" d="M252 131q0 29 8 53q2 16 21 41q16 23 43 27q8 2 26.5 2t28.5 2q18 2 53 2q20 2 60 2q33 0 59 8q76 25 127 62q78 57 117 90l53 49q27 25 51 51q16 18 45 55q18 25 33 60q8 20 10 33q4 25 4 32q0 14 -10 25q-8 8 -29 8q-61 -6 -114 -35q-63 -33 -113 -63q-55 -39 -111 -74 l-112 -74l-58 -28q-29 -16 -59 -13q-29 2 -43 23q-15 22 -18 49q-2 27 0 57q2 27 16 62q14 43 47 125q8 23 28.5 65.5t26.5 59.5l54 121l55 120q18 39 29 52q31 41 36 47q63 49 121 71q66 25 127 37q45 8 125 13q43 2 121 2q27 0 51 -7q20 -6 41 -18q18 -23 19 -41 q0 -31 -11 -53q-2 -18 -16 -29q-16 -12 -33 -18q-18 -4 -24 -2q-12 2 -27 0q-29 2 -86 -2q-61 -4 -90 -9q-16 -2 -50 -9t-40 -9q-35 -6 -90 -33l-41 -88q-12 -29 -41 -90l-41 -90l-37 -92l-6 -19l-2 -10q49 51 100 92q53 41 114.5 74t121.5 47q57 14 116 14q72 6 117 -20 q49 -29 70 -76q23 -53 20 -110q-2 -59 -35 -127q-23 -57 -65 -121q-45 -66 -90 -111q-61 -61 -111 -100q-63 -49 -119 -86q-78 -53 -120 -78q-57 -33 -127 -59q-65 -25 -129 -37q-63 -12 -123 -6q-20 4 -43 20q-16 12 -25 37q-6 14 -6 47z" />
<glyph unicode="6" horiz-adv-x="970" d="M240 322q-2 72 26 159q39 109 103 219l131 213l67 103q23 35 72 104q27 37 80 99q49 57 90 92q25 18 55 28q28 9 56 13h26q14 0 23 -9q2 -8 4 -18t2 -12q2 -10 0 -23q0 -4 -2 -14t-4 -14q-4 -20 -8 -31l-82 -105l-84 -102l-103 -133q-53 -74 -84 -137q41 31 82 49 q47 20 84 31q39 10 84 14q57 4 82 4q31 0 61 -6q27 -6 54 -19q29 -14 45 -30q18 -18 28 -45q23 -51 17 -109q-6 -53 -29 -119q-37 -94 -102 -182q-70 -92 -152 -160q-47 -39 -88 -67q-61 -41 -94 -56q-55 -25 -98 -34q-53 -12 -97 -11q-43 0 -77 13q-31 10 -64 36 q-25 18 -45 54q-14 25 -29 63q-27 65 -30 142zM430 283q6 -23 25 -35q23 -16 43 -21q29 -6 53 -4q51 -2 113 19q57 20 110 63q57 47 88 94q35 53 56 107q14 27 16 51q4 31 -2 51.5t-27 34.5q-20 12 -49 10q-45 0 -88 -14q-31 -10 -88 -43q-47 -25 -86 -53q-49 -39 -74 -70 q-28 -31 -49 -67q-25 -41 -37 -69.5t-4 -53.5z" />
<glyph unicode="7" horiz-adv-x="950" d="M369 100q0 25 12 50q18 55 59 118l74 113l217 297l213 297q23 29 62 88l59 90q-12 0 -36.5 4t-35.5 4q-25 4 -39 4q-6 0 -18 1t-21 1q-49 0 -92 -8q-45 -8 -96 -31q-27 -14 -47 -30l-22.5 -17.5t-20.5 -17.5q-16 -16 -34.5 -28.5t-37.5 -12.5q-46 -3 -80 18q-12 8 -18 27 q-6 16 6 39q18 45 51 80q33 37 76 63q49 31 88 47q25 10 90 29q92 20 180 25q100 4 172 -4q33 -2 70 -13q45 -10 68 -26q29 -18 43 -45q16 -31 8 -72q-35 -59 -64 -98l-65 -97l-234 -319l-237 -320q-16 -18 -41 -59t-37 -59q-25 -45 -29 -54l-24 -55q-25 -43 -27 -47 q-12 -25 -33 -45q-41 -23 -79 -23q-25 -2 -46 11q-16 12 -26 30q-8 16 -8 45z" />
<glyph unicode="8" horiz-adv-x="989" d="M219 225q-10 68 14 135q14 45 50 97q34 49 79 86q61 49 105 73q47 27 113 48q-33 10 -76 38q-31 20 -58 62q-20 33 -24 78q-4 47 20 98q33 84 95 152q63 70 139 127q35 29 78 55q27 16 84 41q49 20 84 28q39 8 84 9q72 0 125 -31t83 -84q33 -53 46 -113q12 -57 -13 -135 q-10 -49 -47 -102q-35 -51 -80 -90t-100 -70q-53 -31 -109 -45q39 -20 68 -45t47 -64q18 -37 18 -79q0 -47 -20 -95q-31 -76 -90 -143q-61 -72 -131 -123q-39 -29 -76 -49q-53 -29 -80 -39q-40 -15 -80 -25q-41 -10 -78 -6q-68 0 -127 25q-55 23 -94 76q-41 51 -49 110z M446 293q10 -25 25 -37q20 -14 45 -20.5t51 -6.5q16 -2 62 7q33 6 65 22q37 25 56 43q23 23 33 55.5t7.5 55t-16.5 47.5q-10 18 -35 33q-18 10 -51 10q-37 0 -72 -15q-39 -16 -71 -36q-41 -29 -60 -48q-28 -28 -36 -61q-13 -26 -3 -49zM686 926q0 -23 14 -47q12 -23 31 -33 t51 -10q37 0 74 18q41 20 72 43q31 29 59 59q27 29 39 68q8 23 8 49q0 25 -10 45.5t-29 32.5q-16 10 -45 10q-37 0 -76 -16q-37 -14 -71 -41q-43 -33 -62 -57q-31 -37 -43 -66q-12 -27 -12 -55z" />
<glyph unicode="9" horiz-adv-x="966" d="M324 725q6 55 28 121q25 68 68 135q49 76 94 127q47 53 121 109q68 51 135 83q61 29 104 39q51 12 99 13q49 0 80 -11q41 -14 65 -32q28 -22 49 -49q18 -23 33 -64q27 -61 27 -145q0 -78 -29 -164q-43 -123 -117 -248q-68 -113 -153 -242q-45 -55 -82 -106 q-53 -74 -82 -109q-41 -51 -96 -98q-51 -45 -113 -70q-29 -4 -41 16.5t0 49.5l12 26q2 2 2 6.5t2 6.5t4.5 7t2.5 7q57 98 110 166l125 160q61 78 88 119q57 88 74 122q-51 -51 -90 -77q-47 -33 -103 -56q-61 -23 -108 -37q-61 -16 -107 -14q-63 0 -114.5 24.5t-73.5 75.5 q-20 48 -14 109zM524 743.5q4 -24.5 19 -36.5q16 -14 45 -11q47 0 94 21q12 4 94 49q31 16 84 57q43 33 76 72q16 20 49 66q27 37 37 67q12 25 4 47q-6 16 -22 31q-10 8 -41 16q-16 4 -48 4q-51 6 -114 -18q-57 -20 -113 -64q-47 -37 -90 -92q-39 -49 -57 -110 q-4 -12 -15 -51q-6 -23 -2 -47.5z" />
<glyph unicode=":" horiz-adv-x="423" d="M129 125q2 20 14 57q10 29 27 45q18 18 43 33q14 8 47 16q25 6 47 7q27 4 45 -2q20 -6 33 -19q10 -10 14 -31q4 -23 -8 -45l-33 -59q-12 -23 -43 -53l-9 -11q-9 -10 -15 -14q-10 -8 -31 -20q-14 -8 -29 -15q-15 -6 -30 -6q-35 4 -49 21q-18 20 -23 41q-4 16 0 55z M373 698q3 25 12 50q8 18 25 45q10 16 34 45q18 23 41 34q18 10 50 15q23 0 39 -10.5t22 -26.5q4 -12 4 -39q0 -18 -10 -43l-19 -51q-14 -41 -24 -53q-12 -23 -45 -41q-27 -14 -56 -15q-25 4 -45 14.5t-22 34.5q-10 14 -6 41z" />
<glyph unicode=";" horiz-adv-x="450" d="M53 -92v22q0 8 4 25q23 49 58 94q25 31 78 88l47 45q16 16 49 45q16 14 53 35q25 14 55 21q16 2 28.5 -6.5t14.5 -18.5q2 -12 0 -27q-4 -20 -10 -30l-6 -19l-6 -12q-20 -55 -66 -107q-47 -55 -92 -96l-37 -33q-18 -16 -39 -32q-25 -18 -41 -25q-25 -10 -43 -10l-14 6 l-12 2q-12 4 -15 12q-6 19 -6 21zM401 682q8 33 17 51q14 37 24 53q12 18 41 48q20 20 49 32.5t53.5 10t43.5 -20.5q20 -20 24 -39q6 -27 4 -51q-4 -33 -10 -53q-6 -25 -22 -47q-14 -20 -39 -41q-20 -16 -45 -27q-25 -9 -49 -6q-23 2 -54 10q-25 6 -35 31q-8 20 -2 49z" />
<glyph unicode="&#x3c;" horiz-adv-x="747" d="M268 676q12 25 33 45q18 18 45 35q8 6 23.5 16t23.5 16q6 4 23.5 13.5t25.5 15.5l58.5 30.5l50.5 26.5l108 58q8 6 29 14t31 15q47 27 57 30q31 14 58 23q35 12 57 14q29 -6 43 -27q16 -23 6 -53q-2 -6 -12 -28q-6 -14 -25 -23l-192 -104l-193 -109l131 -82 q43 -27 133 -76q8 -6 13 -16v-18q0 -6 -4 -23q-2 -12 -11 -23q-12 -28 -37 -49q-27 -25 -55 -26q-16 -2 -41 2q-16 2 -35 10l-30 18q-4 4 -14.5 10.5t-14.5 8.5q-37 22 -68 43l-65 47l-25 16l-26 19q-29 25 -37 28q-18 10 -35 33q-4 8 -6 10q-4 4 -4 11q-22 18 -19 49z" />
<glyph unicode="=" horiz-adv-x="921" d="M319 504q-2 14 5 35q2 14 10 24q2 4 22 19q10 8 27 14q6 2 29 8q31 6 84 10q47 4 67 2q6 0 20.5 -1t22.5 -1q14 0 43 -4q29 -2 88 -2q4 0 12.5 -1t12.5 -1q14 0 24 2q4 0 12.5 1t12.5 1q16 0 25 -2h53q31 -3 55 -12q23 -8 33 -29q10 -18 -6 -53q-10 -23 -25 -33 q-16 -14 -35 -22q-18 -9 -37 -13q-4 0 -12 -2t-14 -3t-10 -1q-104 -8 -230 -8q-100 0 -223 10q-18 0 -33 9q-6 4 -20 22q-10 13 -13 31zM434 819q0 14 10 35q20 29 54 49q27 16 65 27q33 8 70 12q10 0 31.5 1t31.5 3h39q27 0 41 -2q8 0 18.5 -1t20.5 -1h41q12 4 27 0 q8 -2 26 -2q12 4 27 0h27q25 0 51 -6q31 -6 47 -16q20 -12 32.5 -33t6.5 -49q-4 -18 -15 -33q-8 -10 -28 -23q-16 -10 -33 -12q-23 -4 -33 -2q-84 2 -252 2q-170 0 -256 -2q-16 0 -28 6q-10 4 -17 19q-4 8 -4 28z" />
<glyph unicode="&#x3e;" horiz-adv-x="747" d="M295 399q6 14 14 28.5t27 21.5l192 112l197 117l-129 90l-127 86q-10 6 -12 14q-2 6 -2 21q0 2 1 6t3 9t2 7q4 12 8 21q12 25 37 49q23 23 55 27q27 -2 57 -15q18 -6 50 -24q25 -14 45 -29q8 -6 22.5 -14t22.5 -15q70 -45 100 -71q53 -47 86 -84q6 -6 6 -11q0 -8 6 -10 q10 -12 15 -22q6 -10 2 -27q-16 -27 -35 -45q-27 -27 -43 -39q-33 -25 -49 -35l-49 -30l-111 -64q-84 -47 -108 -59l-60 -31q-49 -25 -59 -29q-53 -20 -58 -22q-31 -8 -59 -13q-27 6 -39 27q-14 24 -8 53z" />
<glyph unicode="?" horiz-adv-x="966" d="M295 106.5q-6 28.5 4 63.5q10 33 31 59q18 23 51 45q29 18 61 29q31 10 60 6q33 2 63 -6q29 -8 47 -27q23 -23 25 -47q4 -29 -14 -63q-12 -29 -29 -57q-12 -23 -43 -50q-25 -20 -53 -32q-31 -12 -58 -13q-35 0 -63 13q-41 18 -53 28q-23 23 -29 51.5zM418 582q-4 27 8 55 q12 27 35 53q12 14 49 43q28 22 55 37q12 8 26.5 16.5l29.5 16.5l151 67l152 68l51 24.5t51 28.5q23 14 45 37q20 20 33 47q10 35 -2 55q-10 16 -37 31q-23 10 -55 15q-41 4 -56 4q-45 0 -106 -11q-45 -8 -111 -36q-45 -27 -65 -50l-58 -59q-25 -31 -53 -51q-35 -25 -63 -27 q-31 0 -47 27q-14 25 0 57q14 41 47 80q35 43 65 68q37 31 80 55q66 37 82 45q82 39 172 57q82 18 166 15l61 -7q27 -2 55.5 -12t51.5 -22q25 -14 41 -33q31 -41 35 -102q4 -63 -17 -121q-29 -53 -73 -101q-39 -43 -93 -82q-53 -41 -106 -69q-61 -35 -115 -60 q-59 -29 -117 -53l-110 -49q12 -8 29 -12q31 -6 34 -6q6 0 18.5 -1.5t18.5 -1.5q10 0 35 -4q53 -4 78 -4q37 0 78 -10q2 -8 -2 -25q-2 -4 -4.5 -11t-2.5 -11q-10 -31 -32 -53q-27 -27 -56 -41q-23 0 -35 -2t-34 -2q-12 -2 -37 -2h-35q-78 0 -115 6q-59 10 -104 26 q-6 2 -41 23q-23 12 -35 31q-14 20 -16 43z" />
<glyph unicode="@" horiz-adv-x="1437" d="M281 418q2 106 49 231q29 102 86 193q63 100 137 174q84 84 172 145q102 72 193 113q92 43 202 65q94 20 197 11q109 2 199 -45.5t131 -130.5q43 -84 39 -191q-4 -113 -41 -217q-33 -100 -88.5 -186t-147.5 -166q-43 -41 -90 -70q-51 -31 -100 -49q-59 -20 -103 -29 q-57 -10 -98 -10q-76 -2 -156 10q-63 10 -141 39q-45 20 -59 29q-33 18 -52 41q-22 25 -30 55q-8 27 6 74q9 31 30 61q25 35 48 56q18 16 59 45q25 16 63 34q70 33 138 48q72 16 133 16q25 0 37 -2t36 -2q6 25 7 51q0 29 -7 49q-6 18 -22 39q-14 16 -41 27q-6 0 -18.5 2 t-18.5 2t-17.5 3l-19.5 5q-23 4 -26 23q-4 23 4 40q10 25 24 41q16 20 33 31q23 16 41 21q20 6 41 6q25 0 70 -8q29 -4 59 -23q29 -16 47 -37q20 -23 29 -53q18 -59 8 -131q-8 -66 -35 -141q-33 -88 -71 -150q-51 -82 -107 -137q59 4 121 26q63 25 115 76q51 55 77 111 q25 51 50 119q39 88 40 166q4 86 -26 145q-33 63 -92 98q-61 35 -158 29q-71 9 -147 -6q-78 -16 -152 -49q-72 -33 -145 -84q-66 -45 -127 -111q-57 -59 -101 -131q-37 -59 -61 -145q-12 -31 -29 -93q-10 -39 -14 -92q-4 -47 2 -86q6 -41 24 -76q12 -31 45 -63 q25 -25 66 -45q33 -16 82 -27q43 -10 90 -6q29 4 43 -14q14 -16 2 -45q-10 -25 -22 -39q-12 -16 -37 -33q-14 -10 -43 -22q-18 -8 -41 -9q-59 0 -115 13q-43 10 -98 39q-43 23 -80 63q-33 35 -55 84q-45 92 -43 205zM768 526q4 -12 8 -20q4 -6 17 -14q10 -8 22 -11 q8 -2 21 -10q25 -12 49 -18q16 -4 53 -9q39 29 66 62q25 31 49 72l-25 6q-4 2 -13 4t-14 2q-18 -2 -57 -2q-28 0 -55 -6l-23 -2q-25 -6 -26 -9q-4 -2 -7 -2q-5 0 -8 -2q-25 -8 -41 -20q-14 -11 -16 -21z" />
<glyph unicode="A" horiz-adv-x="1130" d="M160 160q0 37 6 57q16 55 53 117q16 29 76 110l90 125q51 72 92 123l117 193l119 188l61 82q35 47 68 84q43 47 78 72q43 31 92 43h10q34 0 65 -16.5t56 -45.5q18 -23 33 -63q10 -31 14 -74q1 -11 1 -23q0 -19 -3 -57q-4 -53 -4 -82l-25 -325q-8 -104 -37 -328 q0 -8 -2 -26.5t-2 -28.5l-6 -56q-2 -8 -5 -28.5t-5 -30.5q-6 -29 -23 -57l-2 -4q-14 -31 -35 -46q-27 -20 -53 -22q-6 0 -14 -1t-14 -1q-18 0 -27 2q-12 4 -21 8q-12 8 -14 19q-10 27 -4 53q4 18 8 55t10 74q8 49 11 74q-23 10 -41.5 16t-46.5 2l-105 -6q-57 -4 -106 -14 q-66 -12 -99 -23q-45 -14 -100 -45q-31 -27 -49 -66l-37 -69q-8 -20 -14 -31q-10 -16 -25 -29q-15 -12 -31 -18q-8 -3 -18 -3q-6 0 -14 1q-27 6 -45 24q-16 16 -23 46q-10 26 -10 51zM610 555h35h33q25 -4 35 -4h37q6 -1 12 -1q8 0 35 3q27 2 51 12q25 8 47 29q20 18 33 45 q14 51 20 115q8 74 10.5 110.5t2.5 110.5q0 70 2 106q-61 -45 -107 -100q-43 -51 -86 -115q-51 -74 -80 -121q-39 -66 -59 -124l-2 -13l-4 -12q-2 -6 -6.5 -14.5t-8.5 -14.5v-12z" />
<glyph unicode="B" horiz-adv-x="1146" d="M229 182q0 39 7 78l16 78q12 53 18 76q8 23 47 114l52 115l57 119q29 61 51 117q14 31 25 69l12 34.5t10 35.5l25 67q16 45 26 68q37 66 89 100q61 41 114 60q51 18 123 28q37 6 117 11q15 1 29 0q48 0 88 -9q57 -12 102 -36q33 -18 41 -27q23 -23 33 -41q12 -20 14 -47 q1 -7 1 -14q0 -22 -7 -45q-12 -35 -27 -66q-12 -29 -39 -66q-10 -10 -18 -19l-14.5 -16.5t-18.5 -19.5q-23 -25 -57 -53q57 -18 90 -57t45 -95q12 -53 12 -108q0 -49 -24 -119q-23 -57 -70 -110.5t-96 -92.5q-55 -43 -115 -75q-74 -41 -119 -60q-63 -29 -139 -55l-139 -47 q-23 -6 -133 -33q-50 -12 -93 -12q-16 0 -32 2q-39 10 -61.5 32.5t-30.5 51.5q-11 34 -11 67zM469 350q0 -23 8 -39q10 -18 25 -26q20 -10 43 -11h13q57 0 126 23q78 27 141 63q27 14 66 43q45 33 61 50q31 31 49 57q20 29 37 65q7 22 8 49q0 11 -2 23q-4 37 -20 60 q-8 6 -14 12l-4 4t-5 2q-14 0 -42.5 -3t-32.5 -3q-40 -3 -80 -12q-53 -12 -80 -23q-33 -12 -78 -37q-41 -25 -72 -49q-27 -23 -59 -61q-35 -41 -47 -68q-18 -37 -31 -74q-10 -18 -10 -45zM672 834q57 4 106 22q59 23 109 49q16 8 49 29l47 31q37 31 43 39q12 14 29 47 q5 14 5 30q0 8 -1 17q-2 20 -21 32q-12 12 -39 17q-8 0 -23 1t-24 3q-2 0 -24.5 -2t-34.5 -4q-37 -8 -59 -23q-29 -12 -54 -37q-29 -29 -39 -51q-10 -29 -22 -55q-6 -14 -11.5 -28.5t-11.5 -26.5q-4 -10 -14 -45q-8 -27 -10 -45z" />
<glyph unicode="C" horiz-adv-x="1083" d="M276 416q-1 14 0 27q0 103 39 206q45 121 117 230q76 115 172 213q51 55 98 96q55 49 111 84q63 41 119 59q59 20 121 21q86 0 143 -39q61 -43 96 -96q37 -55 49 -130q4 -25 5 -49q0 -49 -17 -102q-2 -20 -16 -37q-12 -15 -31 -25q-25 -12 -37 -14q-27 -4 -35 -2 q-37 4 -55 25q-16 18 -22 51q0 16 -2.5 32.5t-4.5 34.5l-6 66q-4 37 -20 53q-23 23 -56 23q-47 0 -90 -19q-49 -20 -86 -49q-35 -27 -75 -67q-35 -35 -66 -76q-63 -76 -119 -166q-55 -92 -84 -174q-16 -55 -18 -66q-4 -23 -8 -63q-2 -23 2 -60q4 -33 16 -53q18 -53 68 -84 q43 -27 103 -27q7 0 13 1q31 0 76 10t78 26q6 4 27.5 16.5l31.5 18.5q29 18 58 39q6 4 17 12.5t18 12.5q16 10 38 14q20 2 30.5 -8t10.5 -26.5t-6 -35.5q-4 -12 -12 -32q-25 -55 -70 -101q-47 -47 -100 -80q-59 -41 -111 -63q-55 -23 -114 -27q-17 -2 -34 -1q-41 0 -83 10 q-51 12 -96 41q-43 27 -76 63q-33 35 -55 84q-46 90 -52 203z" />
<glyph unicode="D" horiz-adv-x="1124" d="M209 158q-1 8 -1 16q0 29 9 55q6 14 18.5 47l18.5 48q6 12 10 24l8 25q8 23 23 47q8 18 20 55l19 55q12 41 26.5 80t26.5 78q6 12 14.5 39t14.5 41l33 80q25 55 47 113q8 23 26.5 64.5t22.5 49.5q23 53 55 113q25 43 68 108q57 16 86 21l88 16q16 2 48 5t48 5q68 8 96 11 q18 2 35 1q52 0 96 -14q61 -18 104.5 -53t71.5 -84q29 -51 41 -108q7 -32 7 -73q0 -25 -3 -54q-6 -61 -34 -133q-27 -84 -68 -154q-49 -86 -94 -145q-52 -71 -117 -136q-53 -53 -135 -120q-76 -66 -143 -109q-74 -47 -154 -84q-78 -35 -158 -51q-55 -11 -96 -11q-28 0 -53 5 q-45 4 -68 18q-25 16 -41 45q-12 23 -16 64zM485 297q47 0 105 20q49 18 100 50q55 35 98 71q74 61 91 76q31 27 88 84q31 31 80 92q35 43 67 96q31 51 49 101q6 25 15 49l5 15.5t5 17.5t2 16q4 33 4 47q0 25 -8 43q-10 18 -27 31q-20 14 -36.5 18t-45.5 9q-33 4 -49 4 q-16 -2 -47 -2q-35 0 -51.5 -2.5t-48.5 -2.5q-8 0 -24.5 -1t-25.5 -1q-53 -47 -90 -102q-31 -45 -61 -115q-31 -68 -49 -120q-25 -70 -45 -119l-64 -189q-27 -82 -37 -186z" />
<glyph unicode="E" horiz-adv-x="1083" d="M233 190q6 59 19 113q10 47 29 113q6 20 19 60l17 52q12 33 21.5 63l15.5 50l66 168q41 104 72 168q45 96 88 164q41 68 116 153q92 29 144 35q94 12 141 14q51 4 154 5q70 0 147 -11q31 0 49 -8q20 -8 30.5 -28.5t10.5 -40.5q0 -27 -8 -50q-2 -8 -10 -28l-19 -31 q-4 -6 -22 -21q-12 -9 -31 -6q-152 12 -229 15q-51 1 -99 1q-75 0 -143 -3q-37 -53 -53 -82q-29 -51 -41 -84q-4 -16 -8 -24.5t0 -22.5q76 0 114 4q80 8 115 10q58 6 117 6h112q31 0 50 -8q14 -6 34 -27q14 -14 19 -39q2 -20 -10 -51q-12 -29 -35 -45q-25 -18 -51 -26 q-18 -6 -55.5 -10.5t-51.5 -6.5q-57 -6 -158 -14q-70 -6 -161 -23q-43 -10 -78 -28q-43 -23 -74 -52q-35 -31 -57 -65q-20 -33 -35 -76q-20 -59 -23 -102q-4 -66 -4 -101q23 0 76 9q23 4 78 20q16 4 78 29q20 8 38.5 17l36.5 17q51 25 154 66q76 31 156 37q25 4 36 -6 q14 -10 17 -25q4 -16 0 -35q-3 -18 -12 -37q-16 -29 -27 -43q-16 -23 -35 -38q-78 -59 -178 -103q-63 -27 -186 -72q-111 -39 -181 -57q-83 -23 -158 -23q-9 0 -18 1q-33 4 -55 14q-29 14 -43 35q-22 46 -22 93q0 10 1 21z" />
<glyph unicode="F" horiz-adv-x="933" d="M225 74q-2 17 -1.5 33.5t1.5 33.5q2 23 11 72q6 43 14 72l16 71l39 156q27 92 49 160q47 125 101 225l125 223q2 4 13 22.5l17 28.5q16 25 35 50l43 36q14 12 47 25q57 20 103 29q37 6 100 14q61 14 109 16q70 4 104 5q35 -4 61.5 -12.5t49 -29t28.5 -44.5q2 -9 2 -20 q0 -20 -8 -44q-8 -29 -37 -51q-25 -20 -59 -27q-57 -12 -103 -12q-55 0 -81 2q-23 0 -64 4q-20 2 -63 2q-4 0 -12.5 -1t-12.5 -1q-16 0 -25 -2q-47 -47 -71 -98q-27 -55 -47 -107l-9 -18v-17l-2 -8l95 6q66 4 96 9l96 8q46 3 67 3q14 0 27 -1q16 0 45 -8q18 -4 37 -21 q15 -12 25 -31q10 -20 10 -43q2 -4 2 -10q0 -4 -4 -12q-12 -29 -25 -39q-20 -16 -41 -29q-18 -10 -45 -18q-29 -8 -43 -10l-131 -17q-35 -4 -133 -14l-55 -6q-18 -2 -55 -10.5t-56 -14.5q-28 -9 -55 -24q-10 -29 -20 -66q-6 -23 -23 -68q-14 -59 -20 -77l-25 -78l-33 -84 q-14 -39 -41 -80q-18 -39 -57 -70q-28 -23 -58 -23q-4 0 -8 1q-27 10 -28 12q-15 11 -17 27z" />
<glyph unicode="G" horiz-adv-x="1175" d="M299 485q4 117 49 240q47 119 115 211q76 104 168 190q47 47 94 86t106 72q66 37 113 51q59 18 115 19h15q82 0 155 -29q74 -31 135 -84l10 -10t10 -8q6 -6 19 -23q10 -12 12 -26q3 -14 3 -23q0 -5 -1 -10q0 -2 -2 -4t-2 -4q-4 -4 -4 -9l-12 -14l-19 -10q-27 -27 -45 -31 q-31 2 -59 18l-53 29q-16 10 -54 27q-31 14 -61 16q-11 1 -22 1q-34 0 -68 -7q-46 -9 -92 -31q-61 -29 -90 -49q-51 -37 -80 -65q-74 -66 -131 -160q-55 -92 -84 -174q-31 -84 -41 -152q-6 -37 -6 -70q0 -38 8 -73q2 -33 18 -64q14 -27 41 -51q25 -23 57 -31q32 -9 58 -8h14 q35 0 62 8q41 12 61 23q39 20 61 37q18 14 54 49q49 47 86 104q35 55 57 117q16 37 18 53q4 37 9 52q-14 -2 -39 -7.5t-39 -7.5l-78 -16q-53 -12 -80 -16q-53 -8 -80 -11q-20 -2 -39 13q-14 12 -18 32q-6 23 -4 41q4 33 10 45q4 12 8 17q8 8 13 14q61 35 124 49 q61 14 125 33q29 6 63 14.5l68 16.5q53 12 125 16q51 0 72 -22q23 -27 29 -60q2 -13 2 -27q0 -24 -6 -53q-9 -43 -25 -80q-4 -16 -16 -49l-25 -49q-47 -100 -117 -188q-74 -92 -159 -170q-39 -37 -90 -74q-49 -35 -97 -59q-53 -27 -102 -41.5t-100 -14.5h-13q-52 0 -100 21 q-49 20 -82 57q-37 41 -59 82q-16 31 -37 96q-31 102 -31 199v16z" />
<glyph unicode="H" horiz-adv-x="1107" d="M221 152q-1 7 -1 15q0 21 5 46q4 12 8.5 34.5t8.5 35.5q12 45 20 69q23 78 49 146l56 145q20 53 59 148l59 149q16 37 23 55q12 37 20 56q14 37 23 57q16 37 22 55l25 47q16 33 27 47q14 20 34 41q16 16 48 27q11 2 22 2q23 0 41 -8q29 -12 41 -39q8 -18 12 -63 q1 -6 1 -12q0 -30 -13 -60l-4 -12l-6 -21l-2 -4q-20 -49 -33 -74l-37 -73l-41 -74q-8 -14 -33 -76l-6 -18q0 -14 -2 -21q55 0 166 4q25 1 56 1q19 0 56.5 -0.5t55.5 -0.5q8 2 18 12q6 6 14.5 18.5t10.5 20.5q4 12 8 21l27 90l20 88q4 16 9.5 31.5t8.5 28l7 30.5q16 57 26 88 l15 41q6 14 22 43q10 18 31 35q14 12 43 12q33 -4 49 -20q20 -20 29 -41q9 -25 12 -55q2 -20 2 -58q-2 -39 -14 -121q-8 -49 -33 -125q-12 -37 -18 -53q-18 -49 -21 -55l-41 -113l-37 -119q-16 -55 -30 -118l-31 -113q-12 -45 -41 -113l-25 -49q-8 -16 -28 -49 q-12 -20 -39 -43q-23 -20 -49 -29q-23 -6 -39 0q-18 8 -27 19q-8 12 -14 29q-6 18 -6 34q0 37 4 55.5t12 59.5q4 20 16 57l17 60q14 41 20 82q6 43 6 82q-37 0 -53 2t-53 2q-25 -2 -70 -6q-10 0 -34.5 -2.5t-34.5 -2.5q-2 0 -30 -3t-42 -3q-27 0 -72 -4q-10 -41 -32 -155 q-15 -77 -37 -154q-14 -37 -23 -57q-8 -18 -28 -56q-18 -34 -44 -55q-16 -14 -34 -14q-6 0 -13 2q-33 6 -49 22q-23 23 -30 43q-11 23 -15 54z" />
<glyph unicode="I" horiz-adv-x="1038" d="M225 143q0 6 4 23q10 18 21 22q14 8 26 11q16 4 27 4h27q20 2 61 2q35 0 66 8q6 10 8 22.5t8 22.5q29 90 62 170q14 39 31.5 81l35.5 87l74 174q39 90 67 174q27 66 33 90q12 47 19 90l-52 -8q-14 -2 -26 -3t-27 -3q-6 0 -24.5 -1t-28.5 -1q-39 0 -55 4q-27 6 -41.5 20.5 t-1.5 49.5q25 35 51 53q29 20 65 37q45 20 70 26q37 10 70 21q70 20 143 27q56 5 104 4h37q41 -4 64 -7q33 -2 63 -12q37 -12 54 -24q20 -16 26 -50q-20 -39 -47 -59q-29 -23 -68 -33q-25 -2 -77 -10q-27 -4 -76 -12q-20 -49 -29 -74l-31 -74q-14 -39 -30 -75l-31 -74 q-6 -14 -20 -64l-21 -61q-6 -14 -20.5 -63.5t-20.5 -63.5q-20 -66 -35 -100q-8 -20 -20 -56.5t-17 -44.5q-10 -29 -28 -100q-8 -33 -8 -64q0 -15 2 -30q4 0 14 -1t14 -1q18 0 29 2h16l23 2h10q10 0 27 4q8 2 26 2q18 2 54 2q25 0 45 -12q18 -28 12 -56q-6 -31 -18 -51 q-6 -14 -17 -27q-10 -14 -22 -18q-127 -23 -275 -29q-63 -3 -119 -2q-74 0 -143 4q-16 2 -53 10.5t-51 16.5q-22 12 -37 31q-16 20 -17 47q-2 8 -2 20z" />
<glyph unicode="J" horiz-adv-x="1060" d="M283 629q0 27 8 51q2 8 14 25q8 12 23 18q14 8 28 10q10 2 29 2q33 0 47 -10q18 -12 31 -31q12 -20 18 -41q4 -16 4 -47q4 -82 4 -119q0 -78 3 -118q0 -25 6 -47.5t18 -40.5q10 -14 31 -29q18 -12 47 -12q35 10 57 30q20 18 43 52q33 49 37 57q6 14 33 55l63 137 q27 59 56 138q33 90 63 202q29 106 35 199q2 20 -2 39q-6 20 -27 22h-24q-23 -4 -49 0q-23 2 -45 15q-16 8 -27 28q-8 18 4 48q2 8 20 34q10 16 29 30.5t37 21.5q15 5 27 4h10q46 1 85 1q63 0 118 -3q88 -6 196 -23q31 -12 49 -37q14 -20 19 -57q-2 -10 -2 -29q0 -15 -6 -30 q-6 -16 -25 -23q-16 -6 -31 -2q-14 -2 -47 -2t-49 -2q-20 -2 -39 -17q-23 -16 -28 -36q0 -4 -1.5 -13.5t-3.5 -13.5l-6 -25q-25 -139 -53 -239q-31 -111 -82 -246l-47 -117q-29 -70 -55 -119q-29 -53 -68 -112q-35 -51 -88 -109q-47 -41 -106 -63q-55 -20 -113 -21 q-53 0 -92 21q-37 20 -66 55q-27 33 -45 76q-20 45 -31 82q-25 109 -32 184q-5 51 -5 107q0 43 3 90z" />
<glyph unicode="K" horiz-adv-x="1058" d="M213 100q0 12 4 37q0 6 2 17.5t4 17.5q8 33 23 76q4 12 11 37.5t11 38.5l13 49q10 39 14 51l16 53q4 14 9.5 26.5t9.5 26.5q2 8 8 24.5t8 25.5q2 4 8 22.5t11 28.5l22 51.5t23 50.5q18 46 30 92q10 39 31 90q4 14 14.5 44t14.5 45q18 49 37 88q6 12 16 35.5t12 27.5 q14 33 33 66q16 29 43 59q23 25 59 45q17 5 31 5q5 0 10 -1q20 -4 33 -12q10 -8 19 -27q6 -16 4 -37q-10 -49 -21 -84q-18 -55 -26.5 -83.5t-10.5 -41.5q-2 -10 -5 -19t-5 -19l189 133l186 133q43 29 88 37q23 5 44 4.5t40 -4.5q39 -2 53 -33q8 -15 8 -32t-8 -36 q-16 -45 -53 -80q-41 -39 -82 -61l-104 -59l-107 -62q-20 -14 -43 -28q-35 -25 -41 -31l-12 -11.5l-14.5 -13.5t-10.5 -12q-14 -16 -24 -41q-6 -31 -7 -59q0 -16 9 -54q4 -18 16 -51l18 -49l54 -129l53 -125q10 -29 16 -51q8 -33 11 -51q3 -28 0 -56q-4 -33 -15 -59 q-8 -16 -14 -24.5t-18 -20.5q-10 -10 -23 -17q-16 -8 -25 -8q-14 -4 -41 0q-20 4 -34 13q-6 2 -25 22q-12 12 -18 29q-10 37 -23 74l-24 71q-14 37 -25.5 71t-22 59.5t-26.5 70.5l-80 201q-37 -98 -62 -177l-55 -178q-4 -8 -8 -25.5t-4 -19.5q-12 -41 -14 -47 q-16 -37 -27 -57q-20 -41 -35 -60q-39 -43 -82 -55q-25 -8 -47 -8q-15 0 -27 4q-15 9 -18 25q-2 9 -2 32z" />
<glyph unicode="L" horiz-adv-x="1038" d="M254 211q-2 23 -2 45q0 45 8 94q10 61 39 148q27 84 82 219l94 221q31 55 57 109q37 74 58 108q31 52 67 98q35 45 91 80q9 1 16 2q12 0 20 -4q14 -6 20.5 -18.5t6.5 -30.5q0 -20 -8 -37q-23 -61 -43 -123q-14 -41 -47 -123l-41 -98l-41 -98q-8 -18 -21.5 -56t-15.5 -45 q-25 -66 -39 -100q-4 -16 -29 -94q-14 -43 -24 -98q-10 -51 -10 -93q0 -43 18 -79q74 4 131 14q55 10 135 29q18 4 53 11t52 11q57 14 104 16q5 0 9 1q40 0 65 -25q28 -28 31 -68q1 -7 1 -11q0 -8 -4 -15q-14 -14 -24 -21q-4 -2 -29 -12q-90 -41 -164 -64q-125 -37 -163 -47 q-53 -12 -160 -28q-53 -8 -104 -9q-25 0 -50 3q-41 4 -63 20q-25 18 -43 43q-14 18 -25 57q-8 31 -8 68z" />
<glyph unicode="M" horiz-adv-x="1507" d="M240 190q2 23 10 68q25 111 45 188q20 80 59 193q18 57 67.5 168t78.5 166q35 57 63 108q35 63 64 105q34 49 73 86q39 35 93 57q25 2 49 -4q20 -6 36.5 -22.5t24.5 -34.5q6 -14 10 -45q1 -14 1 -29q0 -36 -5 -80q0 -4 -5 -45t-7 -63q-2 -18 -3 -36t-3 -36q-3 -32 -3 -50 q0 -11 1 -20q0 -4 1 -14t1 -16q0 -12 4 -33q2 -10 10 -27q6 -12 23 -18l149 172l150 174q34 31 67 67q45 49 70 72q47 43 74 62q41 29 84 40q66 -4 100 -40q37 -40 43 -99q1 -23 1 -43q0 -40 -5 -76q-9 -61 -25 -122q0 -14 -4 -22.5t-8 -25.5l-22 -61q-2 -4 -10.5 -27.5 t-14.5 -35.5l-29 -66q-6 -12 -14 -35.5t-10 -27.5q-12 -20 -15 -41q-2 -10 -14 -41q-18 -66 -25 -125q-4 -41 -16 -123l-18 -117q-10 -68 -29 -119q-23 -29 -55 -41q-37 -14 -64 -16q-6 0 -21.5 -1t-23.5 -1q-31 0 -43 6q-12 15 -12 37q0 6 -1 20.5t-1 22.5q10 121 31 203 l47 204q10 41 22 84q16 57 27 86q8 20 20.5 61.5t20.5 61.5q4 16 14 64q4 18 8 59q-70 -63 -131 -131q-53 -57 -117 -143q-74 -98 -106 -148l-100 -149l-19.5 -31.5l-15.5 -26l-15.5 -26l-19.5 -31.5q-4 -4 -10 -12t-11 -12q-12 -16 -20 -25q-14 -14 -23 -21 q-16 -12 -26 -14h-10q-46 0 -74 25q-35 31 -37 73q-7 33 -7 75q0 17 1 40q2 57 12 121q8 82 15 123q5 35 5 77q0 20 -1 44q-20 -18 -50 -64q-23 -35 -36 -69q-4 -8 -25 -72q-16 -49 -25 -72q-6 -14 -20 -63l-18 -64q-2 -12 -5.5 -24.5t-5.5 -24.5q-4 -14 -8 -47l-6 -45 q-4 -35 -10 -47q-2 -8 -15 -43q-8 -20 -26 -43q-15 -18 -37 -31q-14 -8 -29 -8q-8 0 -16 2q-39 4 -64 24q-23 18 -28 58q-3 19 -4 41q1 13 2 28z" />
<glyph unicode="N" horiz-adv-x="1148" d="M236 104q-3 9 -3.5 20t3.5 21q0 92 24 191q23 88 55 194l25 68q20 55 27 70q18 51 63 153l70 154q35 61 55 102q29 59 51 99q25 41 60 86q33 41 75 69q37 0 58 -14q23 -16 35 -41q16 -33 20 -53q8 -29 14 -56q16 -127 23 -190l16 -193l8 -77q2 -31 11 -78l18 -74 q10 -39 27 -70q23 33 39 68q10 23 26 68q25 74 41 131l33 127q8 33 17.5 64.5l17.5 60.5q25 82 39 124q8 25 20 58q12 31 31 63q14 25 43 49q23 20 59 21q35 -6 56 -29q18 -20 24 -53q3 -15 3 -32t-3 -36q-6 -35 -18 -69q-10 -41 -29 -96l-33 -99l-65 -198l-82 -222 l-82 -223l-8 -22q-27 -49 -33 -58q-25 -37 -39 -55q-31 -35 -49 -49q-29 -23 -61 -29q-57 4 -87 29q-37 33 -51 65q-20 43 -30 84q-20 80 -23 84l-43 207q-6 27 -37 209q-29 -20 -47 -43q-16 -23 -33 -51q-4 -8 -24 -53l-21 -54l-26 -84q-14 -53 -23 -84q-23 -59 -27 -84 q-10 -53 -22 -84q-12 -29 -18 -45q-16 -41 -21 -51q-10 -20 -31 -41q-14 -14 -47 -18q-25 4 -37 10q-16 8 -24 23q-2 10 -5 18t-5 18z" />
<glyph unicode="O" horiz-adv-x="1091" d="M299 504q15 114 61 227q43 119 103 213q66 106 155 197q45 49 95 86q53 41 106 67q66 33 113 45q49 13 92 13h18q52 0 99 -13q47 -12 80 -39q37 -31 59 -63q23 -35 33 -84q16 -57 16 -122q0 -32 -4 -64q-12 -94 -47 -201q-37 -102 -111 -240q-65 -120 -159 -227 q-29 -35 -99 -104q-47 -47 -112 -93q-61 -43 -123 -65q-60 -23 -112 -23h-13q-61 0 -107 23q-47 23 -75 61q-35 45 -48 86q-14 45 -20 101q-8 48 -8 102t8 117zM500 377q0 -31 6 -55q6 -27 24.5 -45.5t49.5 -20.5q43 0 92 25q35 16 82 57q37 33 73 78l62 80q51 80 106 178 q49 88 80 182q14 39 27 98q5 27 5 59q0 15 -1 34q0 47 -27 75q-29 33 -78 33q-9 1 -16 1q-32 0 -61 -11q-41 -16 -76 -39q-33 -23 -70 -55q-23 -20 -55 -66q-53 -63 -96 -147q-49 -94 -70 -152q-25 -68 -37 -127q-16 -86 -20 -127v-55z" />
<glyph unicode="P" horiz-adv-x="952" d="M211 123q4 25 8 39q4 8 10.5 23.5l11.5 27.5t9 23q12 37 31 73q31 70 53 131l49 131l43 146q8 31 20.5 68.5t22.5 78.5l39 140l45 139q0 2 2 7t4 7l4 12q16 37 39 68t60 57q35 23 75 33q63 14 74 16l94 7q61 4 92 4q78 0 145.5 -29t102.5 -84q37 -59 43 -131q1 -12 1 -25 q0 -60 -23 -129q-10 -41 -41 -92q-25 -43 -68 -88q-35 -37 -84 -74q-66 -49 -92 -61q-98 -55 -215 -88q-108 -31 -215 -49q-8 -25 -14 -37l-13 -37q-6 -20 -12 -37.5t-10 -34.5q-12 -45 -19 -69l-16 -68q-12 -45 -21 -67q-10 -29 -24 -53.5t-41 -45.5q-47 -20 -72 -20 q-39 0 -55 4q-18 4 -29 16q-12 16 -14 31q-2 9 -2 17.5t2 19.5zM639 743q63 4 127 25q51 16 127 53q33 14 57 31l56 39q16 14 45 47q16 18 32 55q11 37 11 70q0 26 -7 49q-8 31 -20 49q-16 23 -47 25q-15 2 -32 2q-29 0 -64 -6q-51 -8 -101 -37q-49 -28 -86 -68 q-41 -45 -55 -92q-18 -55 -33 -123q-11 -54 -11 -99q0 -10 1 -20z" />
<glyph unicode="Q" horiz-adv-x="1048" d="M266 373q0 78 27 178q2 6 5 20.5t5 22.5l12 41q49 127 107 227q72 123 147 215q45 55 88 99q45 45 105 88q53 39 112.5 63.5t118.5 24.5h14q46 0 80 -19q45 -25 66 -55q29 -43 39 -82q8 -31 12 -92q2 -25 2 -49q0 -73 -14 -152q-16 -90 -57 -211l-41 -102 q-14 -35 -52 -101q-35 -63 -63 -100q-35 -45 -82 -90q12 -57 25 -86q8 -23 34 -80q6 -22 7 -43q0 -31 -9 -47q-12 -29 -41 -51q-31 -25 -59 -27q-6 -2 -14 -2q-2 0 -7.5 -1t-7.5 -1q-20 66 -34 96q-23 47 -58 80q-23 -31 -47 -51q-18 -16 -59 -41q-27 -16 -62 -27 q-27 -8 -61 -8q-51 0 -84 17q-43 20 -64 45q-27 29 -43 63q-14 31 -26 76q-21 74 -21 162zM430 354q-1 -9 -1 -17q0 -20 5 -42q6 -27 24.5 -45.5t53.5 -24.5q20 0 39 8q16 8 37 21q18 12 35 29q14 14 24 34q-10 31 -20 52q-12 25 -23 51q-14 27 -16 53q-4 35 4 62 q8 25 34.5 43t53.5 14q53 -4 88 -33q33 -29 43 -76q33 37 39 49q10 18 27 56q2 4 11 23.5t13 29.5l21 55q20 55 45 138q14 45 30 139q3 28 7 61q2 17 1.5 31.5t-1.5 28.5q-4 31 -17 49q-14 20 -47 26q-45 -6 -86 -34q-43 -29 -74 -64q-45 -49 -63 -78l-53 -78 q-117 -175 -185 -362l-18 -64q-8 -23 -21 -67q-6 -23 -10 -68z" />
<glyph unicode="R" horiz-adv-x="1196" d="M221 92q-2 12 -1.5 24.5t1.5 24.5q4 35 10 52q25 84 52 145q31 72 59 145l66 154l63 154q16 45 27 96q6 33 22 98q12 61 23 92q20 61 32 94q8 20 27 52q16 27 36.5 47t47.5 37q25 14 55 18q98 12 197 18q78 5 142 5h53h10q56 0 100 -29q47 -31 68 -82q23 -47 26 -111 q0 -8 1 -15q0 -57 -19 -114q-12 -37 -31 -65q-18 -31 -47 -60q-47 -47 -57 -55l-62 -49q-63 -49 -141 -88q-74 -37 -150 -49q39 -33 109 -103q43 -43 96 -110q4 -6 11.5 -15.5l13.5 -17.5l12 -16q23 -27 37 -52q20 -37 28.5 -57t12.5 -65l-6 -41q-2 -20 -17 -39 q-10 -25 -26 -43q-20 -23 -43 -29q-18 -5 -35 -5t-31 5q-31 10 -47 27q-18 18 -31 43q-6 10 -20 51l-25 61q-12 31 -32 58q-61 88 -113 143q-61 68 -129 129q-23 -33 -37 -63q-8 -16 -14 -35t-13 -35q-4 -10 -10 -31.5t-10 -32.5l-16 -63q-10 -35 -33 -84q-31 -68 -39 -82 q-23 -39 -59 -70q-27 -22 -55 -21l-13 1q-23 2 -47 16q-23 12 -29 37zM680 788q55 0 123 23q55 18 125 53l59 31q29 14 57 37q37 29 50 43q18 20 32 53q13 30 13 53q0 11 -6 31q-6 16 -23 27q-15 9 -32 8h-9q-31 2 -60.5 1.5t-60.5 -1.5l-121 -4q-16 -4 -28 -19 q-12 -10 -21 -26q-10 -16 -16 -33q-8 -20 -12 -29l-45 -125q-23 -66 -25 -123z" />
<glyph unicode="S" horiz-adv-x="1089" d="M215 92q2 27 2 78q0 41 12 84l9 12l16 6q20 -2 43 -12q6 -2 20.5 -8t22.5 -8q10 -4 45 -15q27 -8 47 -10q27 -2 90 -2q31 0 101 12q53 10 102 27q51 18 96 47q39 25 80 70q31 33 55 96q2 8 11 29q4 10 8 30q2 14 0 27q-2 8 -21 12q-12 0 -38.5 -1t-41.5 -1q-27 0 -79 -4 q-27 -2 -80 -2q-27 0 -76 -4q-20 0 -66 4q-23 2 -63 10q-25 4 -55 21q-29 14 -45 33q-18 22 -25 49q-6 31 -4 55q4 43 10 64q14 49 21 63q18 51 45 94q25 39 63 90q23 29 76 82q39 39 86 76q37 29 92 64q43 27 98 51q41 18 101 32q36 9 74 9h22q63 0 115 -15q61 -16 98 -41 q45 -29 70 -71q27 -47 26 -103q2 -8 2 -14.5t-2 -15.5q-8 -20 -26 -27q-16 -6 -33 -2q-41 4 -66 14q-47 20 -57 27q-41 14 -59 22q-31 12 -66 13q-13 1 -25 1q-43 0 -98 -16q-66 -18 -127 -55q-68 -33 -112 -82q-53 -55 -72 -110q-10 -18 -10 -41q0 -20 8 -35 q8 -12 24.5 -22.5t40.5 -6.5q33 0 66 6q16 2 32.5 5t32.5 5l68 13q35 6 66 6q25 0 69 -8q33 -6 60 -21q33 -18 49 -35q18 -18 33 -51q17 -43 16 -86q0 -16 -2 -33q-10 -66 -37 -133q-23 -53 -53.5 -96t-77.5 -86q-37 -35 -94 -74q-55 -37 -99 -59q-109 -57 -208 -84 q-96 -25 -174 -26q-15 0 -29 1q-68 10 -109 29q-65 29 -94 47z" />
<glyph unicode="T" horiz-adv-x="1112" d="M440 82q-1 5 0 11q0 20 9 40l36 92q25 57 41 88l90 185q41 82 82 184q16 45 72 223q33 111 49 219l-145 -6q-49 -2 -148 -10q-14 6 -14 18v23q0 2 -1 6t-1 6q2 6 4 17.5t4 17.5q4 20 8 35q20 31 47 39q10 4 56 14q76 10 223 27q72 8 223 16q84 6 164 6q84 0 160 -6 q23 -4 37 -14q16 -12 26 -29q12 -16 19 -33q3 -10 3 -23q0 -8 -1 -18q-10 -27 -27 -43q-20 -20 -41 -28q-33 -12 -49 -15q-2 0 -20.5 -3t-26.5 -3q-31 -3 -63 -3q-21 0 -44 1q-16 2 -51 2t-53 2l-94 -217l-92 -217l-93 -217l-94 -217q-6 -10 -35 -68q-25 -49 -38 -71 q-22 -34 -50 -62q-23 -23 -67 -37q-11 -1 -20 -1q-19 0 -31 5q-22 9 -37 25q-13 12 -17 39z" />
<glyph unicode="U" horiz-adv-x="1026" d="M281 334q6 76 38 172l43 121l46 121l51 122q14 35 51 121l6 19l10 16v10q4 10 15 45q2 12 5 24.5t5 22.5q4 12 8 46q2 20 14 47q23 43 78 75q25 16 49 27q25 8 52 12q37 -18 45 -49q7 -25 7 -54q0 -10 -1 -20q-4 -41 -19 -84q-6 -20 -14 -40.5t-14 -40.5l-54 -134 l-18 -46l-15 -38.5t-20 -46.5q-27 -70 -55 -135q-37 -90 -53 -135q-15 -43 -25 -86q-12 -57 -14 -86v-39q0 -18 6 -35q6 -14 18.5 -26.5t34.5 -12.5q51 6 94 37q37 27 74 74q33 43 57 90l48 86l110 270l107 271q10 25 34 78q16 37 43 75l31 45q14 18 35 37q12 10 37 23 q18 10 41 6q43 -12 59 -47q12 -16 19 -33q2 -7 2 -15q0 -11 -4 -26q-12 -18 -27 -35q-4 -6 -8 -10t-5 -6t-5.5 -7t-8.5 -12q-20 -33 -37 -71q-25 -57 -28 -72l-23 -72q-4 -12 -7 -23t-6 -20.5t-7 -25.5l-23 -72q-14 -51 -22 -72q-20 -57 -86 -200q-41 -88 -113 -199 q-27 -39 -88 -108q-47 -53 -100 -95q-51 -39 -107 -63q-47 -21 -97 -21h-13q-11 -1 -22 0q-34 0 -62 9q-35 10 -70 34q-31 20 -51 52q-20 29 -33 67q-20 57 -20 125z" />
<glyph unicode="V" horiz-adv-x="1032" d="M385 68q-2 11 -2 21.5t2 21.5q2 14 2 45l12 118q4 35 21 119q23 117 24 125q8 53 25 123q29 170 41 287q10 94 27 282v7l1 4l1 4q8 18 26 32l37 25q18 10 39 14q12 2 41 11q35 -2 49 -27t14 -55.5t-6 -67.5q-8 -53 -10 -65l-57 -222l-54 -221q-8 -41 -12 -59 q-8 -37 -8 -58q0 -8 -2 -22t-2 -23v-36q0 -10 8 -27q6 -12 23 -16q33 23 57 53q33 41 47 61q8 12 22.5 36t18.5 30q35 55 41 63l92 154l90 153l74 111l76 109l37 43q25 33 39 47q27 27 41 39q12 10 49 24q27 -10 37 -28q20 -35 22 -41q8 -25 12 -52q1 -6 1 -13q0 -17 -5 -42 q-10 -31 -24 -53q-20 -33 -37 -51l-45 -52l-45 -51l-70 -98l-65 -98l-91 -144l-92 -141l-94 -139q-63 -88 -104 -135q-25 -31 -58 -64q-41 -41 -65 -57q-49 -33 -74 -43q-35 -14 -78 -15q-23 4 -35 19t-14 35z" />
<glyph unicode="W" horiz-adv-x="1308" d="M252 188q0 55 4 84q2 16 10 48t8 36q8 37 23 88l11 37l14 47q8 23 20 68t23 68q29 80 67 167q31 70 82 168l64 109q25 45 67 98q41 51 78 80q43 35 94 49q5 1 10 1q23 0 33 -13q12 -16 12 -41t-8 -49l-16 -49l-41 -86l-43 -82q-8 -18 -23 -35q-16 -20 -22 -33l-101 -182 q-47 -88 -81 -186q-16 -43 -27 -99q-5 -28 -5 -62q0 -16 1 -34q70 63 115 125q51 70 90 139q53 94 77 144q39 76 78 143l31 61q16 31 35 62q8 12 20.5 28.5t28.5 28.5t33 19q25 8 35 6q43 0 63 -27q18 -25 18 -61q0 -31 -10 -78q-2 -6 -8 -35t-8 -41q-18 -76 -27 -100 l-28 -99q-29 -127 -37 -178q-8 -57 -8 -114q0 -28 2 -56q37 39 57 74q16 27 45 80q8 16 21.5 46t15.5 36l37 82l69 176l68 176l33 86q12 35 37 84q8 18 24 47q14 31 21 37l8 14l14 17q29 27 39 22q39 -2 61.5 -28.5t28.5 -57.5q3 -17 3 -35.5t-3 -38.5q-10 -61 -14 -75 q-2 -8 -10.5 -29t-10.5 -29q-14 -41 -22 -57l-39 -96l-37 -99q-8 -31 -29 -88q-2 -8 -7 -22.5t-7 -22.5q-4 -10 -7 -21.5t-7 -21.5q-35 -90 -76 -168q-45 -86 -105 -164q-51 -68 -59 -77q-29 -35 -70 -72q-39 -37 -81 -57q-47 -23 -89 -29q-9 -1 -18 -1q-43 0 -72 23 q-35 29 -51 70q-16 43 -20 96q-2 37 -11 101l-63 -99q-43 -61 -78 -98q-41 -43 -92 -76q-49 -31 -109 -30q-39 4 -61 16q-29 16 -47 37q-20 23 -28.5 49t-12.5 59z" />
<glyph unicode="X" horiz-adv-x="1073" d="M203 145q2 2 4 8.5t2 8.5t2 8t2 8q18 49 59 107q35 49 78 98l88 94l88 94q49 55 66 72q45 49 65 74q-4 86 -14 151q-8 55 -20 150q-4 37 -9 59q0 2 -6 60q-2 20 -2 61q0 29 10 66q6 14 18.5 26.5t27.5 18.5q2 2 12 6t16 6l31 6l33 4q14 2 28 -4q6 -4 15 -16l5 -10.5 t5 -12.5q12 -35 18 -69l13 -72q14 -55 16 -100q2 -51 12 -101q41 57 90 115l95 110q29 29 43 46q29 33 43 47q29 29 45 41q23 16 53 30q29 -4 41 -12q18 -12 27 -29q8 -18 12 -41q1 -6 1 -11q0 -14 -5 -34q-29 -70 -80 -139q-53 -72 -107 -129q-92 -96 -120 -123l-123 -119 q8 -84 30 -168q14 -55 39 -165q8 -41 29 -123q12 -51 16 -127q-23 -33 -55 -47q-20 -14 -35 -19q-6 -2 -17 -5l-18 -5q-35 4 -55 20q-20 18 -33 45q-16 37 -22 58q-14 47 -19 55q-18 71 -30 141q-12 72 -27 144l-104 -140l-105 -139q-10 -10 -45 -55q-16 -20 -49 -57 q-25 -27 -57.5 -47.5t-63.5 -22.5q-37 6 -53 35q-10 16 -10 36q0 14 6 33z" />
<glyph unicode="Y" horiz-adv-x="958" d="M305 117q0 31 12 57q25 63 54 111q39 63 71 106q39 51 84 103l84 100q-53 0 -82 18q-35 23 -51 54q-25 45 -28 75q-5 34 -5 60v22q0 86 25 172q27 92 57 174q12 27 25 45q10 14 35 39q14 14 43 31q23 14 47 16q25 0 35 -10t14 -30q4 -25 2 -37q0 -6 -1 -19.5t-3 -19.5 l-31 -123l-30 -123q-4 -14 -5 -47q0 -25 7 -43q6 -16 22 -31q14 -12 41 -12q40 15 74 43q31 25 63 61q27 29 56 68q39 51 53 67l53 70l53 70l56 67q8 10 61 64q16 12 35 14q17 3 24 3q5 0 9 -1q45 -8 65 -45q14 -24 14 -51q0 -17 -6 -35q-14 -37 -32 -67q-23 -35 -45 -64 q-47 -59 -52 -63l-53 -62l-131 -137q-86 -94 -127 -143l-133 -183l-129 -184q-16 -29 -53 -82t-54 -80q-4 -4 -12 -16.5t-14 -18.5t-14.5 -18t-14.5 -19q-10 -12 -34.5 -28.5t-39.5 -18.5q-31 0 -53 13q-20 12 -30.5 36.5t-10.5 51.5z" />
<glyph unicode="Z" horiz-adv-x="1058" d="M225 150q12 25 17 34q8 20 16 33q45 72 121 162l131 151q123 135 295 308l299 301q-4 0 -72 12q-29 5 -55 5q-11 0 -21 -1h-43q-12 0 -41 -4h-41h-40q-49 -4 -72 -4q-10 0 -33.5 2t-36.5 2l-37 6q-18 3 -30 12q-14 10 -17 21q-4 12 2 29q31 41 76 65q43 25 88 37 q51 14 94 16q35 2 86 11l84 4h41h41q57 -4 92 -11q41 -8 84 -32q33 -18 54 -60q9 -19 9 -42q0 -21 -7 -48q-25 -78 -78 -149q-35 -47 -113 -138l-166 -176l-172 -170l-149 -149q-49 -49 -135 -160q100 6 209 25q90 14 213 47q4 2 12 2q2 0 14 4q20 2 41 0q18 -2 35 -12 q14 -8 20 -25q6 -14 -8 -41q-20 -37 -33 -49q-25 -25 -51 -37q-98 -37 -209 -59q-76 -16 -207 -35q-12 -2 -34.5 -5t-41 -5t-34.5 -2q-14 -1 -30 -1q-38 0 -77 5q-18 2 -39 18q-10 8 -26 29q-2 4 -8 13l-13 20q-6 12 -6 25q0 9 2 16z" />
<glyph unicode="[" horiz-adv-x="776" d="M215 127q0 47 14 90l50 152q33 98 47 149l49 156q20 61 57 155q46 120 98 240q53 123 129 238q2 2 5.5 6t5.5 6q4 4 12 8q109 25 190 27q92 4 177 -19q33 -8 47 -37q16 -33 4 -67q-2 -16 -19 -29q-2 -2 -13 -10t-15 -12l-35 -17q-20 -6 -35 -4q-96 16 -197 10v-4 q-8 -16 -20 -37q-12 -18 -18 -36l-54 -144l-28.5 -69.5t-26.5 -71.5l-55 -145l-26.5 -76t-25.5 -70l-18 -49q-14 -41 -20 -51q-4 -12 -9.5 -24.5t-9.5 -24.5l-9 -23.5t-9 -28.5q-12 -33 -17 -49q-8 -33 -14 -49q49 -8 78 -8q55 0 84 2q12 2 33 2q8 0 32 4q10 0 31 -4 q16 -4 27 -14q12 -12 14 -24.5t-6 -31.5q-4 -12 -21 -37q-14 -20 -28 -32q-27 -23 -37 -27q-23 -10 -41 -12q-80 -18 -162 -19q-90 0 -149 11q-12 2 -25 10q-2 2 -8 6t-8 6q-25 31 -25 78z" />
<glyph unicode="\" horiz-adv-x="765" d="M512 1221q2 20 2 61q0 29 14 64q10 14 29 24q20 10 34.5 12t33.5 -2q14 -4 22 -12q10 -10 17 -22l12 -25q2 -10 5 -31.5t5 -32.5l12 -63q4 -20 31 -199q10 -70 23 -204q0 -47 4 -142l6 -141q4 -37 8 -115q4 -74 8 -112q0 -8 -1 -25.5t-1 -28.5q0 -35 -2 -53 q-4 -33 -8 -53q-6 -23 -18 -53q-6 -22 -25 -37q-20 -16 -41 -23q-33 4 -47 21q-20 25 -25 43q-8 31 -10 55q-4 35 -8 53q-41 299 -53 449q-20 238 -23 461q-2 20 -2 65.5t-2 65.5z" />
<glyph unicode="]" horiz-adv-x="776" d="M172 137q0 8 6 15l15 14q2 2 7 5t7 5l12 12q18 8 35 17q18 6 33 4q33 -4 98 -8q33 -2 100 -2v2q10 23 21 39q8 12 20 36l24.5 69t27.5 73l53 139l55 145l53 146l19 51l20 51q4 10 10.5 28.5t8.5 22.5q2 8 8 24.5t8 25.5q10 23 18 51q4 16 17 49q-76 12 -162 6 q-12 -2 -33 -2q-8 0 -32 -4q-12 0 -33 4q-18 4 -27 12q-9 9 -12 25q-2 14 6 33q2 8 20 35q8 12 29 32q12 12 37 25q18 8 41 12q160 35 311 10q16 -4 25 -8q10 -4 16 -14q12 -14 19 -35q6 -18 6 -41q0 -29 -4 -45q-6 -29 -15 -45q-14 -49 -47 -152q-37 -117 -47 -151 l-49 -156q-25 -77 -55 -153l-101 -244q-49 -115 -131 -240q-2 -4 -8 -10t-10 -8q-102 -23 -191 -23q-102 0 -176 17q-37 10 -49 39q-12 32 -4 67z" />
<glyph unicode="^" horiz-adv-x="735" d="M362 770q10 25 39 74q18 33 50 69l55 68q6 6 55 68q20 18 60 61l61 64q31 31 66 59q33 27 71 43q29 -10 53 -39q16 -18 31 -57q12 -35 19 -70q8 -45 14 -68q2 -18 3 -34.5t3 -34.5q6 -68 6 -72q0 -35 -6 -72q-6 -35 -22 -77q-6 -16 -17 -27q-10 -12 -26 -20 q-14 -8 -29 -15q-16 -6 -29 -6q-4 0 -11 -1t-11 -1q-10 0 -23 4q-8 2 -16 10q-6 6 -6 17q-4 106 -9 153l-12 150l-113 -152l-112 -153q-8 -16 -29 -21q-12 -2 -33 -2q-23 4 -34 8q-10 4 -25 19q-16 12 -20 22q-7 13 -3 33z" />
<glyph unicode="_" horiz-adv-x="1157" d="M150 59q0 18 4 31q37 41 84 60q53 23 92 26q61 8 94 8q59 0 88 4.5t57 -0.5q18 -2 54 -2q74 -4 112 -4h62q41 -4 61 -4q20 -2 62 -2h61q29 -14 35 -18q25 -16 33 -27q14 -18 14 -37q0 -25 -16 -47q-18 -22 -43 -31q-25 -8 -48 -12q-378 -9 -749 0q-10 2 -27 10 q-14 8 -20 19q-10 20 -10 26z" />
<glyph unicode="`" horiz-adv-x="346" d="M676 1599q0 6 6 68q2 8 2 22.5t4 22.5q8 23 33 41q23 16 49 21q33 -6 49 -33q14 -25 19 -60q2 -23 -2 -69q-6 -49 -9 -70q-4 -12 -8 -26q-2 -8 -10 -25q-8 -14 -18 -21q-2 -2 -10.5 -6l-12.5 -6q-35 0 -57.5 22.5t-28.5 53t-6 65.5z" />
<glyph unicode="a" horiz-adv-x="1064" d="M162 92q-1 7 -1 15q0 13 3 36q4 27 12 54q18 55 43 110l53 113q45 86 60 112l61 109l127 213q43 70 137 209l74 92q39 49 84 90q43 41 96 72q52 31 111 37q43 0 76 -23q31 -20 45 -53q14 -29 20 -76q3 -22 4 -47q0 -16 -2 -33q-4 -102 -16 -180q-18 -111 -33 -182 q-23 -109 -35 -180q-15 -89 -18 -179q0 -14 1 -28.5t1 -28.5v-57q-2 -14 -10 -58q-6 -31 -21 -59q-12 -29 -22.5 -43t-33 -36.5t-36.5 -31.5q-18 -10 -45 -14q-25 -6 -45.5 0t-32.5 21q-12 16 -18 34.5t2 42.5q8 31 22 103q14 74 21 100h-98q-33 0 -50 2q-33 4 -49 2 q-31 0 -88 -4q-61 -4 -90 -10q-23 -43 -53 -90q-37 -57 -53 -88q-12 -16 -25 -37q-8 -14 -29 -39q-14 -16 -35 -31q-18 -12 -40 -12q-20 2 -46 16q-22 12 -28 37zM571 539q53 -2 162 -2h164l33 155l33 156q2 25 10 74q4 25 4 71q0 25 -4 70q-2 31 -19 59q-82 -63 -127 -129 q-63 -88 -98 -145q-37 -59 -82 -156z" />
<glyph unicode="b" horiz-adv-x="1144" d="M233 213q2 39 19 82q16 53 31 80q6 10 19 37.5t22 42.5q4 8 47 110l21.5 52l23.5 59q46 129 86 258l76 260q53 53 116 84q51 25 131 47q72 16 129 23q66 6 125 6q43 0 121 -13q61 -10 105 -43q18 -12 36 -36q12 -18 21 -52q3 -15 3 -34q0 -12 -1 -25q-4 -35 -14 -61 q-12 -37 -33 -72q-23 -39 -45.5 -69.5t-57.5 -65.5q-23 -23 -63 -60q47 -27 68 -67q23 -45 28 -97q5 -25 5 -50.5t-5 -53.5q-8 -49 -30 -111q-25 -63 -68 -114q-41 -51 -100 -97q-63 -49 -119 -79q-72 -39 -123 -58q-131 -51 -248 -65q-60 -7 -115 -8q-63 0 -120 10 q-27 4 -37 10q-18 10 -27 23q-10 12 -16 32q-8 27 -11 35q-2 18 -2 39t2 41zM444 238q26 -2 54 -3q48 0 100 7q70 8 158 39q33 12 78 36q33 16 71 54q35 31 58 65q25 37 36 74q15 31 19 61q2 27 -8 56q-8 23 -33 37q-23 14 -57 10q-49 -2 -103 -19q-35 -10 -104 -39 q-33 -16 -99 -53q-55 -31 -88 -69q-4 -8 -26 -66l-23 -63q-14 -37 -20 -66zM639 793q39 12 129 36q78 20 133 45q74 33 123 70q55 43 90 109q10 20 10 37q0 20 -6 34.5t-20 22.5q-10 6 -35 6q-63 0 -96 -2q-59 -4 -101 -18q-43 -14 -92 -56q-45 -39 -65 -86q0 -4 -2 -8 t-4.5 -8t-4.5 -8t-2 -9l-16 -40q-8 -18 -14 -41l-13 -43q-2 -10 -6 -20.5z" />
<glyph unicode="c" horiz-adv-x="1058" d="M270 414q12 94 47 200q43 121 117 242q76 123 172 225q53 61 101 103q57 51 114 88q63 41 125 61q56 19 110 19h15q76 -4 129 -41q49 -35 82 -97q35 -61 45 -120q5 -26 5 -52q0 -45 -15 -92q-2 -8 -14 -35q-10 -20 -25 -34q-12 -12 -33 -23q-18 -8 -39 -6 q-33 0 -55.5 22.5t-28.5 51.5q-4 23 -8 63l-6 66q-10 35 -35 55q-24 19 -56 19q-5 0 -9 -1q-47 0 -88 -20q-43 -23 -78 -53q-41 -37 -70 -72q-41 -49 -59 -76q-47 -68 -103 -170q-49 -94 -78 -174q-10 -23 -28 -84l-11.5 -47t-7.5 -35q-6 -31 -6 -59q0 -39 4 -53 q6 -20 22.5 -37t43.5 -17q9 -1 19 0q25 0 85 7q47 6 113 32q37 16 53 29l53 37q25 16 55.5 28.5t57.5 12.5q22 3 31 -6q12 -12 12 -25q0 -8 -4 -33q-2 -16 -12 -32l-6 -19q-2 -4 -9 -14q-29 -37 -45 -53q-25 -25 -55.5 -45.5t-58.5 -34.5l-62 -31q-61 -28 -123 -49 q-59 -20 -121 -21h-14q-41 0 -82 15q-45 16 -74 45q-35 35 -53 69.5t-28 83.5q-14 60 -15 121q0 33 4 66z" />
<glyph unicode="d" horiz-adv-x="1042" d="M229 217q4 45 19 90q25 80 49 144l55 143q35 76 66 151l63 152q10 18 25 64q12 41 20 61q6 16 13.5 33.5t11.5 29.5l24 64l33 65q16 31 47 62q29 29 64 43q37 16 69 18q86 8 127 9q72 0 123 -9q53 -8 109 -32q49 -23 88 -64q35 -41 47 -94q11 -46 11 -92q0 -10 -1 -21 q-4 -82 -14 -125q-16 -68 -37 -127q-45 -137 -139 -272q-92 -132 -215 -246q-53 -49 -125 -102q-57 -41 -141 -82q-70 -33 -144 -49q-42 -9 -81 -9q-29 0 -56 5q-23 2 -41 12q-18 9 -31 24q-16 20 -22 33t-15 37q-3 24 -3 49q0 16 1 35zM475 309q11 -1 22 0q37 0 72 8 q49 12 97 33q43 18 92 58q43 34 80 73q80 78 133 170q52 92 86 185q8 27 10 35t10 34q2 8 5 25.5t5 25.5q4 14 9 52q2 12 1.5 24t-1.5 23q-2 18 -17 39q-18 18 -37 26q-20 8 -43 15q-25 6 -51 6q-8 0 -25.5 1t-25.5 1q-8 -2 -25 -2h-26q-8 -2 -27 -2q-4 0 -12 -1t-14 -1 q-37 -45 -62 -86q-16 -29 -45 -90q-20 -43 -39 -91l-37 -90l-43 -121l-21.5 -63.5t-19.5 -56.5q-18 -51 -32 -117q-17 -78 -19 -113z" />
<glyph unicode="e" horiz-adv-x="1083" d="M236 135q0 8 1 28.5t1 29.5q4 78 16 135q18 82 37 139q39 115 102 248l121 246l61 120l66 121q25 31 51 49q33 23 60 33q37 14 65 23l62 16q106 20 202 25q37 1 68 1q63 0 113 -6q45 -4 65 -30q14 -18 14 -40q0 -14 -6 -32t-16 -31q-12 -14 -28.5 -24t-30.5 -15 q-12 -4 -33 -4h-68q-45 0 -67 2q-12 1 -23 1q-33 0 -70 -7q-61 -12 -96 -24q-49 -20 -92 -52q-47 -35 -70 -77q-4 -10 -9 -18.5t-9 -18.5q-8 -16 -14 -35l-9 -23q0 -4 -2 -11t-4 -11q68 4 119 14q39 8 121 21q72 14 119 22q44 7 87 7l29 -1q27 0 39 -4q16 -6 29 -18 q10 -10 14 -31q2 -18 -10 -41q-10 -33 -31 -49q-22 -18 -49 -30.5t-55 -18.5q-16 -4 -53 -8t-76 -7.5t-76 -7.5q-68 -6 -151 -22q-51 -16 -80 -35q-43 -29 -70 -55q-33 -33 -53 -68q-23 -39 -35 -76q-23 -59 -31 -112q-6 -37 -10 -113q70 14 152 47q16 6 149 68l76 33 q41 16 76 28q43 14 75 23q37 9 74 12q7 1 14 1q36 0 58 -15q29 -18 35 -54v-6q-39 -39 -93 -75q-20 -14 -102 -58q-63 -35 -108 -51q-37 -14 -107 -47l-108 -45l-111 -43q-78 -27 -109 -33q-66 -14 -106 -14q-33 4 -55 14q-20 10 -35 35q-10 26 -10 55z" />
<glyph unicode="f" horiz-adv-x="882" d="M207 109q-1 12 -1 24q0 19 3 37q10 57 12 63l19 48l18 49l43 100q14 33 39 102q10 27 20 60q14 49 19 57q12 41 20 62q10 31 23 61q12 29 29 82q12 37 28 82q20 53 31 78q4 12 31 78l12 30q6 14 14 29q23 43 66 72q41 27 88 43q70 18 88 22l90 19q31 6 78 14t78 14 q49 4 71 4q45 0 68 -4q29 -6 43 -20q18 -18 29 -37q8 -20 14 -43q3 -11 3 -22q0 -14 -5 -29q-10 -20 -23 -25q-20 -8 -30 -10q-20 -4 -33 -4q-23 0 -31 -2q-37 -2 -108 -2q-49 0 -111 -11q-47 -10 -108 -40q-55 -28 -93 -80q-6 -8 -43 -78q-25 -45 -34 -80q-2 -6 -7 -14 q-2 -2 -3 -7.5t-1 -7.5q41 0 62 2q41 4 59 6q10 0 31.5 2.5t32.5 2.5q31 2 59 0q25 0 70 -5q31 -2 59 -20q25 -25 25 -53q0 -43 -13 -70q-6 -16 -22 -33q-12 -12 -35 -16q-29 -8 -37 -8h-37q-29 -2 -84 -2q-31 0 -88 -4q-51 -4 -88 -15q-47 -14 -88 -37q-27 -43 -43 -94 q-20 -61 -35 -94l-37 -104l-36 -105q-2 -4 -8.5 -19.5l-10.5 -25.5q-12 -23 -29 -47q-15 -22 -36 -37q-18 -13 -39 -13q-4 0 -9 1q-35 6 -49 26q-18 25 -20 48z" />
<glyph unicode="g" horiz-adv-x="1085" d="M279 438q12 102 51 217q47 135 127 256t200 230q49 47 121 94q47 33 135 68q61 25 138 38q45 8 89 9q22 0 42 -2q23 0 47 -6.5t42.5 -18.5t26.5 -33q4 -9 4 -19q0 -13 -6 -30q-4 -10 -8 -22q-2 -4 -10 -23q-6 -12 -16 -18q-12 -8 -25 -9q-12 4 -16 5h-17q-24 3 -46 2 q-29 0 -60 -5q-55 -8 -115 -30q-55 -20 -113 -56q-47 -29 -100 -81q-96 -90 -160 -201q-61 -106 -102 -221q-12 -29 -27 -80q-8 -31 -16 -84q-3 -24 -3 -48q0 -15 1 -32q4 -41 18.5 -67.5t45 -45t77.5 -18.5h11l94 22q49 23 98 66q35 33 76 88q35 49 55 96q14 23 25 53 q8 25 22 54q8 16 14 45q8 33 11 47q-16 -2 -54 -6q-28 -3 -55 -13q-8 -2 -26.5 -5t-28.5 -5q-31 -6 -53 -4q-20 -2 -37 4q-14 6 -21 19q-8 16 -8 30q0 18 8 35l6 19l13 16v2q16 18 41 33q8 4 45 20q27 8 84 31l86 31q63 18 84 22q39 8 82 8q49 -6 75 -38q29 -37 27 -82 l-6 -43q-2 -14 -15 -43q-35 -88 -45 -109l-53 -106q-47 -94 -102 -166q-63 -84 -139 -150q-49 -45 -78 -65q-43 -31 -88 -54q-49 -25 -88 -34q-40 -11 -74 -11h-15h-14q-44 0 -92 15q-43 14 -84 47q-35 29 -59 71q-25 41 -33 91q-18 70 -18 138q0 30 4 62z" />
<glyph unicode="h" horiz-adv-x="1095" d="M219 139q0 41 8 80l11.5 46t9.5 34q20 66 35 98q29 66 41 101l51 104l43 105q12 33 32.5 98t28.5 98q12 47 31 94l39 95q20 47 29 63q14 31 34 66q25 41 45 59q27 23 64 39q12 2 22 1q30 0 45 -15q18 -18 23 -56q1 -8 1 -17q0 -28 -7 -58q-8 -35 -25 -72l-75 -187 l-76 -186q54 -9 120 -9q19 0 39 1q66 0 99 2q37 2 100 10l37 98q12 33 33 99q6 16 20 69q4 12 10.5 35t10.5 33q16 76 39 135q2 6 16 45q6 16 27 45q12 16 37 35q18 13 40 13q4 0 9 -1q33 -4 53 -22q18 -18 24 -47q3 -15 4 -35q0 -12 -1 -27q-2 -29 -17 -63q-2 -8 -7 -24.5 l-9 -30t-8 -25.5l-27 -80q-8 -29 -28.5 -82t-28.5 -80l-37 -112l-37 -113l-22.5 -79l-18.5 -67.5t-25 -78.5l-67 -226l-6 -24q-16 -29 -52 -49q-31 -18 -61 -25q-27 -6 -43 4t-22.5 28.5t-6.5 41.5q0 29 2 43q12 61 23 92l29 94l32 99q10 29 23 100q-39 -6 -121 -10 q-39 -2 -117 -2q-51 0 -76 2l-73 4l-47 -105q-14 -35 -39 -104q-8 -20 -21 -62q-4 -10 -8 -30.5t-8 -30.5q-6 -23 -14 -61q-6 -27 -19 -60q-2 -16 -14 -29q-18 -18 -25 -20q-10 -4 -31 -8q-4 -1 -8 -1q-7 0 -18 3q-43 10 -57 37q-17 28 -17 65z" />
<glyph unicode="i" horiz-adv-x="466" d="M199 68q2 16 2 49q0 23 6 47l24 110q8 41 35 111l23.5 67.5l20.5 58.5t26 67l72 192l73 191l31.5 85t42.5 105q10 27 23 55l28 56q16 29 39 51q18 18 55 37q9 2 17.5 1.5t15.5 -1.5q12 -2 25 -15q10 -10 16 -24q8 -20 8 -29q-2 -59 -28 -127q-20 -59 -39 -108l-43 -109 l-43 -115q-23 -57 -43 -114q-33 -94 -41 -121l-35 -121l-37 -113q-25 -74 -39 -112l-13 -30.5l-15 -35.5q-14 -35 -37 -70q-20 -31 -49 -57t-68 -35q-10 0 -23 4q-10 4 -16 13q-10 14 -10 16q-2 2 -2 10.5t-2 10.5z" />
<glyph unicode="j" horiz-adv-x="1058" d="M276 494q3 114 50 233q10 23 22 29q12 8 33 14q18 6 33 6q6 0 16 1t14 1l13 -8l2 -4q18 -41 18 -88q0 -33 -4 -94q0 -80 -2 -119q-1 -14 -1 -27q0 -45 9 -86q8 -29 17 -45q14 -25 28 -37q20 -16 39 -24t53 -8q27 14 41 32q20 29 28.5 45.5t21.5 49.5q2 6 6 16t7 18.5 l5 14.5q4 8 8 24.5t8 24.5l19 51q10 29 16 51.5t17 50.5q53 150 90 275q45 150 63 270q-41 8 -65 8q-31 0 -62 11q-28 9 -43 30q-12 18 -16 52q0 31 6 49q2 12 18.5 22t28.5 13q98 8 195 8q48 0 96 -2q113 -4 274 -31q25 -14 27 -37q3 -26 3 -38q0 -8 -1 -15q-2 -14 -12 -31 q-9 -15 -25 -24q-29 -16 -33 -19q-18 -6 -32 -6q-37 -6 -72 -6q-10 0 -34.5 -1t-37.5 -1q-41 -135 -59 -201l-58 -201q-31 -113 -61 -204q-39 -119 -72 -203q-16 -45 -51 -109q-29 -55 -69 -104q-43 -51 -103 -80q-57 -27 -107 -27h-10q-59 0 -108 23q-41 18 -78 59 q-31 33 -53 86q-18 43 -33 99q-23 94 -23 190v23z" />
<glyph unicode="k" horiz-adv-x="1110" d="M219 137q10 66 21 109q10 49 30 108q10 41 29 95q10 31 35 92l16 46t19 50l37 94q8 23 18 47q12 33 16 47q4 8 10.5 25.5t8.5 19.5l16 45q41 84 49 109q22 55 49 111q29 59 64 104q33 45 90 88q15 3 26 3q19 0 29 -9q18 -16 23 -41q4 -29 -2 -55.5t-21 -57.5 q-8 -20 -20 -41q-14 -27 -21 -39q-20 -35 -22 -40l-19 -41q-8 -18 -20 -56q-4 -12 -9 -25.5t-9 -29.5q49 23 90 49q20 12 88 62l84 65l86 66q45 33 67.5 51t71.5 51q43 29 72 43q37 18 73 25q25 -2 41 -17q15 -12 25 -30q10 -20 10 -46q0 -31 -4 -47q-2 -6 -12 -16l-17 -16 l-41 -23q-14 -8 -43 -20q-12 -6 -22 -12.5t-23 -10.5l-47 -20q-104 -61 -190 -131l-178 -152q16 -45 36 -84l45 -78q27 -61 58 -110q33 -51 57 -113q29 -68 41 -121q7 -29 7 -62.5t-7 -74.5q-6 -16 -18 -33q-4 -6 -31 -27q-16 -12 -33 -18q-14 -4 -35 -8q-27 4 -41 14 q-16 14 -26 33q-16 35 -19 39q-2 10 -16 37q-29 90 -45 135l-49 133q-10 25 -23 49q-8 16 -28 45q-12 18 -39 37q-18 14 -54 21h-14q-8 0 -12 -2l-25 -62q-2 -6 -7 -19.5l-9 -23.5t-8 -18q-10 -18 -27 -60l-22 -59q-12 -29 -19 -60q-6 -29 -14 -59l-13 -53q-4 -18 -16 -55 q-3 -15 -12 -31l-19 -31q-12 -12 -28 -12q-18 0 -27 2q-39 2 -61 33q-21 26 -21 67z" />
<glyph unicode="l" horiz-adv-x="892" d="M223 176q6 40 19 80q0 18 6 41l12 45l41 111l47 112l19.5 40l16.5 35t17 40l50 117l15 45.5t17 54.5l31 100q20 66 33 97l39 96q16 37 20 45q8 14 33 43q16 18 39 35q12 10 49 18q11 2 21 2q29 0 43 -16q18 -22 18 -55.5t-12 -73.5q-10 -35 -25 -70q-49 -127 -70 -168 l-79 -168l-76 -170q-53 -125 -70 -170q-8 -27 -15 -53.5t-16 -52.5q-14 -51 -18 -103h14q41 0 97 15q66 16 110 35l70 28q18 8 34.5 16.5t34.5 14.5q51 20 64 27q27 12 63 20q14 4 41 0q14 -2 29 -16q12 -12 12 -30.5t-12 -41.5q-20 -39 -57 -71.5t-76 -57.5 q-37 -23 -84 -43q-43 -20 -84 -37q-82 -33 -174 -55q-60 -15 -119 -15q-25 0 -49 3q-37 2 -74 22q-34 18 -43 55q-4 26 -4 45q0 14 2 29z" />
<glyph unicode="m" horiz-adv-x="1320" d="M236 137q0 10 -1 20q0 68 19 140q33 127 45 168q41 127 102 270q57 135 125 269q6 10 17.5 31.5t13.5 25.5l16.5 28.5t14.5 28.5q8 10 20.5 31.5t16.5 26.5l14 22q14 23 23 33q4 6 14 16t14 17q10 12 35 32q18 15 37 25q25 12 41 14q6 1 11 1q14 0 26 -5q14 -6 22 -20 q10 -16 12 -33q2 -12 3 -37q0 -166 -13 -338q-10 -147 -45 -348q29 33 78 102l72 103l114 166q55 83 117 166q33 45 49 65q12 16 26.5 33.5l27.5 34.5l11 11t13 12t10 12q10 12 33 34q12 12 33 25q14 8 33 8q43 -12 63 -35q25 -29 33 -61.5t8 -77.5q0 -39 -10 -86 q-14 -66 -21 -88l-22 -82q-2 -4 -10.5 -30.5t-14.5 -39.5q-6 -14 -26 -69l-29 -70l-29 -67q-8 -27 -20 -80.5t-21 -79.5q-25 -94 -39 -141.5t-55 -141.5l-18 -37q-2 -6 -25 -39q-14 -20 -31 -34q-20 -16 -39 -25q-6 -1 -11 -1q-15 0 -29 5q-16 6 -28.5 18.5t-19.5 28.5 q-6 18 -6 37q3 28 13 55l18 58l59 162q37 106 52 159l43 162q18 80 18 160q-143 -242 -274 -428q-4 -6 -28 -38t-36 -50l-63 -88q-57 -72 -68 -84q-41 -45 -82 -72q-18 0 -33 10q-14 12 -20 25q-8 23 -10 31q-4 25 -4 34q0 72 6 150q8 96 14 151q2 37 5 76t5 78q3 36 3 68 q0 42 -5 79q-49 -88 -88 -190q-49 -127 -72 -193q-12 -34 -18 -67t-14 -68q-8 -45 -15 -67q-12 -45 -20 -68q-4 -12 -12 -33q-12 -31 -15 -34l-8 -19l-8 -14l-12 -15q-6 -2 -12.5 -5t-10.5 -5q-12 -4 -18 -4h-17h-14q-4 2 -14.5 6t-14.5 4q-14 2 -20 19q-11 22 -11 49 q0 6 1 12z" />
<glyph unicode="n" horiz-adv-x="1071" d="M201 158q14 41 30 78q27 55 35 75q33 76 37 84q22 40 37 80l43 141l41 142l45 139q20 61 53 139q23 41 35 74q18 49 37 80q29 49 47 72q31 37 68 57q18 2 34 -4q15 -6 25 -19q12 -16 16 -26q8 -23 11 -29q4 -25 8 -70l6 -73q0 -25 3 -78t5 -80q2 -72 17 -154 q14 -84 26 -147q14 -72 49 -137l17 33l12 32l29 105q12 52 30 104l17.5 71.5t25.5 96.5q33 111 52 166l24 66q12 37 31 65q8 14 24 39q14 20 27 31q20 16 31 20q12 5 22 5l9 -1q20 -4 28 -12q12 -12 16.5 -22.5t8.5 -31t4 -32.5q-3 -71 -25 -141q-4 -14 -9 -25.5l-9 -21.5 q-2 -2 -9.5 -20.5t-11.5 -29.5q-4 -8 -8 -23t-8 -24q-12 -33 -16 -49q-53 -170 -66 -217l-59 -217q-27 -100 -41 -139q-23 -70 -49 -142q-10 -25 -25 -47q-20 -33 -33 -47q-23 -27 -43 -39q-23 -14 -51 -20q-39 4 -53 18q-20 20 -31 41q-14 29 -22 53q-6 18 -19 52 q-23 82 -39 174q-20 111 -28 166l-19 125q-4 23 -9 62.5t-7 59.5l-41 -112l-18.5 -59.5t-16.5 -53.5q-20 -51 -37 -108q-14 -47 -37 -107l-33 -90l-38 -86l-25 -49q-15 -25 -31 -43q-14 -16 -35 -31q-16 -12 -41 -8q-39 8 -59 41q-16 25 -16 57q0 10 2 21z" />
<glyph unicode="o" horiz-adv-x="1126" d="M291 461q12 111 51 213q47 129 115 229q82 123 170 211q55 59 100 94q47 37 115 76q61 35 121 53q49 15 99 15h19q59 0 101 -21q35 -18 71 -57q23 -27 45 -80q18 -47 25 -90q12 -62 12 -129q0 -36 -4 -74q-10 -106 -49 -213q-45 -123 -115 -227q-78 -117 -170 -209 q-51 -53 -102 -94q-47 -37 -115 -76q-61 -35 -121 -53q-49 -15 -101 -15h-19q-57 0 -99 21q-45 23 -71.5 55.5t-46.5 79.5q-14 35 -23 90q-13 57 -13 121q0 39 5 80zM477 397q0 -39 15 -82q12 -35 43 -59q29 -23 86 -27q59 2 116 29q53 25 101 68q45 43 82 94q18 27 65 110 q35 61 53 111l41 104q8 25 24.5 82.5t20.5 85.5q6 43 6 84q0 39 -16 72q-15 31 -43 49q-29 20 -78 23h-10q-27 0 -68 -13q-35 -10 -75 -34q-37 -20 -72 -54q-37 -33 -61 -63q-51 -63 -97 -146q-31 -57 -65 -149q-2 -6 -14.5 -39t-18.5 -51q-15 -49 -25 -98q-10 -56 -10 -97z " />
<glyph unicode="p" horiz-adv-x="911" d="M213 145q0 20 12 58q27 92 78 225l92 227l8.5 17.5l8.5 17.5q2 6 6 15.5l8 19.5l37 115l33 116q20 74 32.5 111t40.5 111q23 45 66 82q37 31 90 51q55 20 98 28q49 9 92 13q55 0 82 -2q53 -4 80 -9q33 -6 72 -22q37 -16 59 -39q29 -29 39 -57q10 -31 15 -72q1 -17 1 -33 q0 -25 -3 -47q-4 -31 -21 -82q-14 -47 -47 -92q-31 -43 -72 -84q-35 -35 -88 -74l-90 -65q-102 -66 -213 -117t-217 -78q-29 -111 -45 -166l-51 -166q-4 -12 -9.5 -22t-9.5 -21q-9 -22 -24 -43q-14 -20 -37 -26q-17 -5 -31 -5q-5 0 -10 1q-29 2 -49 20q-18 14 -27 39 q-6 16 -6 55zM598 725q31 0 68 10q45 12 67 23l69.5 33l30 15l35.5 19q43 25 62 37q18 10 59 43q31 25 51 47q23 25 35 58q6 23 6 39q0 4 -10 30q-4 10 -18 25q-8 8 -25 20q-27 16 -63 27q-41 10 -76 10q-25 -4 -37 -4q-16 0 -41 -10q-28 -15 -49 -37q-16 -16 -37 -49 l-29 -53q-8 -18 -20 -52l-41 -118z" />
<glyph unicode="q" horiz-adv-x="1064" d="M270 324q-1 9 0 18q0 27 6 84t19 106q10 41 33 107q47 129 102 233q59 113 150 222q35 43 96 100q47 45 112 86q49 31 119 55q48 17 102 17h19q57 0 96 -19q41 -18 70 -53t43 -76q14 -37 20 -90q5 -39 6 -80q0 -54 -10 -114q-16 -104 -51 -205q-41 -111 -102 -223 q-59 -104 -156 -209q-4 -20 0 -56q4 -27 19 -47q8 -27 10 -47q2 -25 -10 -53q-23 -33 -45 -47q-31 -18 -60 -25q-4 -2 -10 -2t-8 -2h-17v2q-12 37 -18 53l-19 52q-53 -47 -106 -72q-61 -29 -113 -29q-10 -1 -19 0q-46 0 -87 13q-43 14 -84 47q-35 29 -60 69q-23 37 -32 90 q-11 42 -15 95zM473 387q0 -27 6 -53q6 -28 19 -49q10 -18 34 -33q20 -12 58 -12q5 -1 10 -1q27 0 53 13q31 14 60 41l-23 39q-12 20 -20 41q-6 14 -11 47q-2 20 9 53q12 27 37 51q23 23 57 27q18 -4 31 -25q4 -6 18 -34q4 -6 10 -17.5t8 -17.5q8 -16 31 -27q33 33 55 64 q27 37 43 69l33 72l29 72q16 47 35 127q12 55 16 122q0 6 0.5 18.5t0.5 19.5q0 11 -1 20q-4 39 -10 55q-10 25 -29 41q-20 16 -51 16q-7 1 -14 1q-32 0 -70 -11q-41 -12 -82 -36.5t-75.5 -57.5t-61.5 -72q-58 -77 -92 -159q-8 -20 -32 -76l-36 -86q-25 -68 -35 -123 q-11 -54 -10 -99q-1 -10 0 -20z" />
<glyph unicode="r" horiz-adv-x="1169" d="M233 145q0 53 7 84q10 49 20 84q20 66 33 97q6 18 22.5 52t20.5 44l41 98q18 41 39 101q14 39 39 116l37 117q33 90 40 115q4 12 48 114l11 22.5l11 22.5q8 16 31 41q31 29 57 41q31 15 62 25q12 4 36.5 8t26.5 4q41 8 62 10q18 2 34.5 4.5t32.5 2.5q10 0 32.5 1t33.5 3 q12 0 37.5 -1t37.5 -1q37 0 74 -7q45 -8 68 -16q33 -12 55 -33q29 -27 39 -49q14 -37 14 -65q0 -34 -6 -74q-4 -27 -20 -76q-12 -39 -33 -69q-18 -31 -49 -64q-31 -35 -62 -59q-61 -51 -65 -54q-66 -53 -152 -100q-80 -43 -162 -61q29 -45 50 -88q23 -47 38 -93 q23 -55 46 -88q31 -45 69 -69q68 -35 109 -72q16 -16 24 -35q8 -20 -4 -49q-8 -18 -22 -29q-20 -16 -31 -22q-12 -8 -33 -15q-8 -2 -35 -8q-13 -2 -27 -2q-19 0 -42 4q-37 6 -62 21q-33 18 -49 35q-29 29 -41 45q-39 68 -61 114l-60 117q-10 20 -22 41t-28.5 41.5 t-33.5 30.5q-18 12 -47 18l-28 -63q-6 -12 -14.5 -36t-10.5 -28q-4 -12 -10 -35.5t-8 -27.5q-16 -57 -21 -66q-8 -41 -14 -61q-2 -4 -8.5 -27.5t-10.5 -36.5q-2 -8 -6 -14t-6 -16q-6 -16 -16 -35q-8 -14 -25 -27q-12 -10 -35 -10q-41 8 -59.5 38.5t-18.5 69.5zM627 778 q68 0 141 19q76 18 145 55q37 20 66 43q41 33 59 51q6 6 45 62q20 31 31 65q5 12 5 22.5t-5 18.5q-12 20 -24.5 26.5t-40.5 10.5q-14 2 -43 2q-18 -2 -56 -2q-20 0 -53 -4l-53 -6q-37 -4 -56 -4q-25 -6 -38 -19q-12 -10 -27 -31q-4 -8 -18 -38q-4 -10 -8.5 -19.5l-8.5 -17.5 q-29 -78 -41 -117q-16 -56 -20 -117z" />
<glyph unicode="s" horiz-adv-x="1085" d="M231 205q-2 10 -2 20q0 18 7 41q2 12 8 23q4 8 16 20q6 6 23 15q10 4 22 2q14 -2 43 -11q14 -4 39 -20q14 -10 35 -27q16 -14 39 -26q25 -10 74 -23q35 -8 83 -8q13 -2 28 -2q37 0 81 12q55 14 108.5 49t92.5 82q43 53 57 107q12 29 19 53l12 55q3 25 -12 43 q-16 18 -39 17q-46 0 -93 -13q-6 -2 -40.5 -10t-53.5 -14l-94 -25q-40 -11 -76 -11l-16 1q-10 -1 -18 -1q-29 0 -54 9q-31 10 -57 35q-20 18 -35 53q-12 31 -12 68q-2 17 -2 34q0 52 14 107q18 72 47 150q20 47 45 77q25 33 60 68q27 27 73 59q55 37 76 50q78 45 168 67 q82 20 164 21q63 -4 96 -11q45 -8 84 -34q25 -16 33 -25q18 -18 26 -35q8 -18 13 -41q1 -5 1 -11q0 -17 -7 -38q-6 -18 -19 -31q-10 -8 -31 -16q-25 -8 -34 -8q-23 0 -31 2q-33 4 -59 12l-54 21q-10 4 -29.5 11t-23.5 9q-27 10 -57 10q-51 0 -99 -16q-57 -20 -100 -47 q-37 -20 -86 -74q-39 -43 -57 -90q-10 -31 -11 -55q0 -18 5 -51q2 -12 8 -23q4 -8 12 -20q6 -8 18.5 -14.5t26.5 -6.5q39 4 78 18q14 6 78 27q25 10 88 29q29 8 86 12q66 0 110 -33q41 -31 62 -90q16 -44 15 -87q0 -12 -1 -25q-6 -53 -28 -123q-41 -100 -97 -176 q-68 -90 -141 -154q-49 -41 -86 -64q-39 -23 -94 -49q-53 -25 -94 -32q-43 -8 -95 -9q-68 0 -125 19q-55 18 -106 49q-41 29 -45 33q-23 20 -37 39q-17 22 -23 51z" />
<glyph unicode="t" horiz-adv-x="1056" d="M473 1118q-2 6 -2 13q0 18 12 38q14 27 33 39q16 10 68 29q35 12 65 18q53 10 72 15q4 0 72 12q84 18 157 31q80 12 160 22q14 0 41 1t41 3l34 2q26 0 46 -4q14 -2 53 -10q31 -6 51 -18q23 -12 37 -33t14 -51q-10 -25 -38 -45q-27 -20 -54 -23q-31 -2 -57 0q-37 4 -55 4 q-17 2 -36.5 2t-37.5 -2q-41 -4 -76 -22q-12 -25 -29 -66q-20 -51 -26 -63l-96 -238l-93 -237l-63 -179l-33 -88l-33 -88q-16 -33 -20 -47q-8 -18 -29 -51q-15 -25 -36.5 -43.5t-49.5 -24.5q-39 0 -57 21q-20 23 -23 51q-1 8 0 17q0 20 4 49q4 25 17 65l22 80q16 53 25 78 l31 71q6 12 11 23.5l9 21t12 25.5l74 150q6 10 27 57q12 29 22 59q31 82 49 164q12 49 25 164q-37 -4 -53 -4q-27 0 -53 -10q-18 -2 -56 -11q-29 -6 -53 -6q-16 -2 -51 -2q-23 0 -47 13q-21 10 -27 28z" />
<glyph unicode="u" horiz-adv-x="1081" d="M289 270q-1 14 -1 30q0 38 5 85q4 39 20 117q6 33 33 119q8 27 41 120l53 133q37 90 58 136q41 90 63 133q41 78 74 131q16 27 51 43q25 12 59 16q10 3 20 4q6 0 11 -2q12 -4 21 -14q4 -6 8 -22.5t2 -26.5q-4 -43 -19 -86l-26 -84l-66 -156l-65 -151q-37 -78 -70 -156 q-31 -68 -61 -156q-10 -29 -23 -82q-6 -25 -6 -46q0 -17 4 -31q14 -37 51 -52q35 -14 80 -14h12q65 0 123 33q63 37 113 94q51 59 86 125q37 66 55 127q51 145 68 205q33 117 47 200q6 27 14 80q4 23 21 78l14 37q10 25 25 41q16 18 30 29q18 12 41 12q25 -4 39 -14 q10 -8 23 -29q9 -15 12 -37q2 -14 6 -39q0 -70 -8 -127q-6 -49 -27 -131q-14 -61 -36 -131q-29 -90 -45 -133q-39 -104 -101 -209q-59 -100 -141 -199q-40 -46 -86 -92q-37 -37 -100 -82q-57 -41 -107 -59q-57 -23 -113 -23q-11 -1 -20 0q-52 0 -94 15q-45 16 -88 55 q-37 33 -58 82q-18 43 -22 104z" />
<glyph unicode="v" horiz-adv-x="919" d="M362 164q4 106 9 155q6 84 20 156q8 53 28.5 159.5t33.5 160.5l20 133q4 31 10 64.5t13 68.5q10 61 12 69q12 49 22 74q6 16 17 33q12 20 20 30.5t29 26.5q14 10 33 15q18 6 37 -2q14 -6 22 -21q6 -10 10 -33q3 -18 0 -36q-4 -29 -16 -66q-6 -20 -14 -66 q-8 -43 -17.5 -88t-17.5 -94q-2 -10 -31 -182q-16 -102 -22 -184q-3 -51 -4 -107q0 -35 2 -74q25 27 61.5 80t52.5 80q27 45 47 84l47 84l121 223l121 223q18 25 37 56q25 41 39 59q29 37 45 51q29 25 57 33q27 -4 39 -16.5t19 -34.5q5 -17 5 -31q0 -6 -1 -12 q-2 -20 -11 -47q-10 -35 -38 -101q-18 -43 -52 -100l-63 -102l-64 -103l-125 -219l-129 -219q-45 -68 -57 -92q-23 -41 -63 -96q-37 -51 -76 -84q-45 -39 -94 -58q-4 0 -16.5 1t-16.5 1q-12 0 -33 4q-10 2 -27 11q-12 6 -18 18q-9 12 -12 25q-6 25 -6 28.5t-1 14t-1 16.5 q-1 21 -3 31z" />
<glyph unicode="w" horiz-adv-x="1368" d="M276 205q0 12 11 84q6 47 18 88l23 82q16 49 26 73q6 12 14.5 37t14.5 37l33 76q20 53 28 78q20 55 37 114q20 74 33 113q23 82 35 113l43 112q4 10 16.5 31t20.5 31q12 16 26 24q20 12 33 15h9q38 0 63 -25q27 -27 22 -69q-2 -23 -14 -58l-20 -57l-62 -172l-31.5 -93 l-27.5 -79q-16 -59 -58 -178l-61 -179q41 45 76 95l65 98l115 166q47 70 119 164q29 35 55.5 71.5l54.5 71.5q18 27 58 68q20 23 65 63q8 2 21 6q2 2 8 4t8 2q16 0 37 -8q14 -6 22 -20q6 -16 5 -33q-4 -25 -3 -37q0 -77 -6 -153q-8 -106 -16 -158l-8 -45.5t-6 -44.5l-13 -90 q-6 -43 -6 -86q0 -41 6 -80l154 366q68 166 131 367l6 17.5l6 17.5q6 18 15 35q2 8 10 24q8 18 12 23q31 20 47 20q23 0 33 -2q20 -4 29 -8q14 -6 22 -19q11 -33 11 -73q0 -11 -1 -23q-2 -43 -16 -102q-20 -84 -27 -109q-4 -12 -15 -49t-15 -57q-31 -98 -78 -199 q-51 -109 -100 -197q-70 -127 -109 -188q-68 -106 -133 -180l-31 -31q-16 -16 -35 -29l-37 -24q-12 -6 -38 -10q-20 0 -31 8q-16 12 -21 20q-4 6 -8 31q-4 20 -4 33q-11 129 -11 243q0 26 1 52q2 143 29 307l-121 -176l-123 -170l-49 -68l-24.5 -31.5l-20.5 -25.5l-41 -49 l-41 -49l-39 -43l-39 -39q-2 -2 -39 -27q-16 -10 -39 -14q-41 12 -65.5 38.5t-32.5 59.5q-11 37 -11 78z" />
<glyph unicode="x" horiz-adv-x="1107" d="M197 139q0 25 10 51q8 23 26 52q14 25 35 47q37 43 39 45l41 43l101 96l102 98q39 41 74 82l69 82q-12 70 -26 139q-6 29 -15.5 83.5t-9.5 60.5q-4 23 -8 59q0 6 -2 19.5t-3 23.5t-1 19q0 43 2 65q4 35 14 66q6 14 18.5 26.5t26.5 18.5q2 0 12.5 5t16.5 7q6 0 14 2t15 4 q23 2 51 -4q25 -6 32 -26q6 -16 11 -43l4 -48q6 -47 10 -145q2 -53 10 -145q61 47 117 108q74 82 104 121l41 53l43 53q12 8 21 21l18 22q10 12 23 23q6 6 24 12q49 -10 70 -45q14 -24 14 -51q0 -18 -6 -37q-35 -72 -82 -129q-53 -66 -106 -117q-16 -16 -36.5 -34.5 l-45.5 -40l-39 -33.5l-121 -109q16 -45 35 -125q20 -86 29 -129l24 -118q12 -57 27 -113q8 -43 10 -70q1 -8 1 -16q0 -28 -9 -57q-20 -37 -53 -54q-39 -20 -70 -22q-5 -1 -9 -1q-23 0 -38 15q-14 14 -29 39q-12 18 -20 51q-4 18 -8 56q-14 111 -27 174q-10 57 -27 176 q-90 -78 -137 -133q-63 -70 -123 -144q-20 -31 -51 -69q-37 -45 -51 -68q-16 -16 -25 -27q-16 -20 -24 -28q-16 -16 -27 -23q-20 -12 -31 -14q-27 2 -43 16q-14 12 -24 37q-8 18 -8 47z" />
<glyph unicode="y" horiz-adv-x="960" d="M330 86q0 10 8 35q25 66 39 98l45 96q16 33 53 99q23 41 64 96q-29 41 -39 74q-12 43 -18.5 88t-6.5 96q0 63 2 96q6 106 23 187q18 94 57 190l16 27l19 24l24 19q10 8 25 8q20 6 41 2q12 -2 26.5 -16.5t16.5 -28.5q2 -18 0 -35q-12 -57 -16 -86q-8 -63 -15 -88 q-6 -35 -10 -92q-2 -31 -2 -92q-1 -22 -1 -40q0 -29 3 -55q8 -57 16 -88q109 141 172 213l183 205q37 47 75 88l80 86q12 18 37 29q14 6 41 6q27 -4 37 -14t18 -33q5 -15 5 -28v-11q-4 -33 -11 -45q-25 -45 -47 -68q-12 -12 -30.5 -34.5t-24.5 -28.5l-70 -68l-69 -69 q-160 -166 -316 -367q-141 -182 -245 -395l-25 -51q-8 -16 -33 -49q-29 -29 -47 -37q-24 -11 -42 -11h-7q-16 0 -30.5 10.5t-16.5 22.5q-4 21 -4 35z" />
<glyph unicode="z" horiz-adv-x="1105" d="M256 170q37 70 78 125t98 119l107 114l106 111l254 260q145 141 252 262q-12 4 -18 4q-2 0 -8.5 1t-8.5 1q-47 0 -71.5 -2t-73.5 -10q-111 -16 -166 -27q-83 -15 -166 -24q-12 -2 -41 -2q-27 0 -39 4q-16 6 -27 18q-8 10 3 37q33 41 79 70q43 27 95 45q43 16 98 27 q66 12 96 20q123 22 241 22q78 0 154 -10q61 -10 97 -41q16 -12 35 -37q10 -14 10 -34q0 -9 -2 -19q-39 -51 -101 -117q-35 -39 -106 -110l-109 -109q-82 -82 -106 -108l-125 -129l-127 -125q-82 -86 -121 -131q-49 -57 -106 -139l-2 -9q23 0 47 6l47 13q33 8 49 14 q37 14 47 16q20 8 49 16.5t57 20.5l105 39l39 10l41 7q10 0 39 -4q16 -2 32.5 -14.5t18.5 -26.5q4 -23 -6 -41q-12 -28 -37 -50q-10 -8 -28.5 -20l-24.5 -16q-14 -6 -47 -18.5l-48 -18.5l-68.5 -24.5t-84.5 -29.5q-70 -23 -156 -43t-153 -28q-52 -6 -97 -6q-26 0 -51 2 q-20 2 -31 22l-16 33q-6 23 -6 47q0 18 4 37z" />
<glyph unicode="{" horiz-adv-x="706" d="M221 162q0 35 10 59q14 47 50 94q39 51 71 88q41 45 90 84q57 45 101 72q-23 2 -70 2t-70 2q-12 0 -45 4q-23 2 -41 13q-20 10 -28 26q-8 14 2 43q12 34 37 56q20 18 57 28q41 12 61 15q41 4 60 4h4h14q10 0 17 -2h32h11q2 0 5 1t5 1q-33 23 -57 63q-10 18 -33 80 q0 6 -4 20.5t-4 20.5q-4 29 -4 43q0 16 4 45q2 20 16 47q23 66 68 127q43 59 106 109q37 31 62 43q34 18 67 30q31 10 68 15q35 4 61 -2q25 -2 47 -17q23 -12 35 -30q14 -16 21 -41q6 -20 -5 -52q-4 -20 -14 -30q-18 -18 -24 -21q-20 -8 -29 -8q-20 0 -29 4q-12 6 -31 8 q-12 2 -32 6q-25 6 -57.5 0t-59.5 -24q-29 -20 -49 -45q-23 -31 -29 -58q-4 -18 0 -49q2 -14 14 -43q8 -20 23 -41q4 -6 11 -18t12 -19l24 -36q16 -25 22.5 -39.5t14.5 -42.5q6 -18 2 -47q-16 -35 -38.5 -53.5t-57.5 -37.5q18 -12 20 -14q12 -12 17 -18q4 -8 8 -21 q2 -12 0 -26l-8 -19q-37 -41 -90 -88l-95 -80q-6 -4 -22.5 -16t-24.5 -21l-43 -41q-29 -29 -41 -45q-18 -25 -30 -49q10 -10 34 -26l37 -25q29 -12 43 -14q23 -4 51 0q12 4 33 0q14 -2 21 -13q8 -12 8 -24q0 -23 -6 -33q-16 -35 -52 -66q-34 -31 -73 -43q-57 -12 -117 3 q-49 10 -90 45q-22 15 -37 36q-16 23 -25 45q-12 33 -12 56z" />
<glyph unicode="|" horiz-adv-x="425" d="M158 -12q0 6 1 19t3 20q4 25 16 77q6 27 23 80q43 143 90 285q49 152 100 285l72 192l76 197q6 16 13 32.5t13 34.5q12 35 27 70q4 8 9 23.5t10 27.5t12 23q25 49 39 73q2 2 7 8.5t7 10.5q4 6 14 16q31 12 47 6q18 -8 24.5 -26.5t6.5 -40.5q0 -29 -2 -41q-12 -33 -23 -90 q-10 -53 -20 -90q-25 -94 -64 -219q-39 -127 -75 -220l-12.5 -34.5t-14.5 -36.5l-31 -72q-12 -35 -26 -72q-14 -33 -27 -71q-8 -20 -10 -31q-3 -15 -12 -31l-5.5 -17t-5.5 -16q-4 -12 -12 -32q-23 -49 -43 -109q-18 -55 -43 -110q-16 -37 -57 -107q-33 -55 -80 -96 q-25 0 -33 12q-12 16 -14 31q-2 19 0 39z" />
<glyph unicode="}" horiz-adv-x="704" d="M154 57q-6 23 4 54q10 18 10 22q2 12 12 19q27 14 43 14q20 0 31 -2q35 -12 63 -17q31 -6 60 3q31 10 57 26q29 20 49 45q23 31 29 58q4 33 0 47t-16 43q-6 14 -23 39l-24 36l-11.5 18.5l-11.5 18.5q-16 25 -23 39q-9 22 -12 43q-4 29 -2 47q14 31 39 54q18 16 55 36 q-12 8 -18 15l-16 16q-8 10 -11 23q-4 14 2 28l9 15q35 43 86 88l98 82q10 10 22.5 19t22.5 20q33 29 45 41q16 16 41 45q14 16 31 49q-10 10 -35 26l-37 23q-16 8 -45 14q-20 6 -49 2q-14 -4 -33 0q-12 4 -21 15q-8 12 -8 24q0 16 8 31q14 33 49 65.5t74 40.5q57 14 117 0 q49 -10 90 -45q22 -15 37 -37q16 -23 25 -45q10 -27 10 -55q0 -33 -8 -59q-20 -53 -51 -97q-45 -61 -70 -88q-35 -37 -92 -84q-61 -51 -99 -71q23 -2 68 -2q47 0 70 -2q10 0 42.5 -4.5t45.5 -10.5q18 -8 28 -26q9 -15 0 -43q-10 -29 -39 -54q-20 -18 -57 -32 q-29 -10 -63 -15q-45 -4 -58 -4h-6h-29q-6 2 -18 2h-14h-11q-2 0 -5 -1t-5 -1q35 -29 55.5 -63.5t32.5 -77.5q8 -39 13 -84q3 -43 -19 -92q-23 -59 -70 -127q-39 -57 -104 -109q-61 -52 -129 -73q-72 -23 -131 -15q-23 6 -45.5 18.5t-32.5 30.5q-16 16 -22 41z" />
<glyph unicode="~" horiz-adv-x="1069" d="M381 737q12 33 25 47q16 20 40.5 37t47.5 29l49 24l102 41q57 20 100 21q33 0 54 -14q29 -20 41 -33q18 -18 43 -31q23 -10 53 -14q41 4 70 14q45 16 67 29q27 12 64 26q41 14 63 13q20 -4 35 -8q12 -4 29 -17q14 -10 20 -26.5t4 -34.5q-4 -12 -20 -33q-4 -4 -29 -25 l-39 -22q-25 -12 -39 -12q-23 -12 -72 -33t-73 -29q-55 -18 -72 -22q-33 -8 -70 -9q-35 4 -57 15q-20 10 -43 32q-16 18 -39 33q-20 14 -53 19q-57 -2 -121 -35q-57 -29 -108 -80h-2q-23 4 -31 10q-12 10 -23 23q-8 12 -14 28.5t-2 36.5z" />
<glyph unicode="&#x85;" horiz-adv-x="1173" d="M168 98q-6 25 6 51.5t35 47.5q35 33 47 41q8 4 25.5 14t25.5 14q27 16 53 17q33 2 45.5 -14.5t8.5 -45.5q-4 -33 -11 -55q-2 -8 -8 -26.5t-8 -26.5q-2 -20 -14 -41q-14 -25 -26.5 -37t-37.5 -23q-22 -9 -43 -6q-57 10 -78 47q-14 16 -20 43zM508 100.5q-3 24.5 6 49.5 q14 33 33 53q29 33 45 47q8 8 47 33q23 14 51 14q35 0 51 -16q20 -20 23 -43q4 -31 -2 -58q-6 -33 -19 -59q-6 -25 -20 -43q-12 -16 -37 -35q-23 -16 -45 -25q-20 -8 -45 -4q-27 0 -45 13q-23 14 -31 30q-9 19 -12 43.5zM862 98q2 16 15 49q20 53 61 93q23 23 37 30 q20 12 45 13q27 -2 49 -19q18 -14 28.5 -38.5t6.5 -53.5q-2 -27 -19 -57q-14 -29 -30 -45q-12 -12 -41 -33q-14 -10 -47 -23q-23 -8 -49 -8q-20 2 -35 14q-16 12 -19 33q-6 18 -2 45z" />
<glyph unicode="&#x2026;" horiz-adv-x="1173" d="M168 98q-6 25 6 51.5t35 47.5q35 33 47 41q8 4 25.5 14t25.5 14q27 16 53 17q33 2 45.5 -14.5t8.5 -45.5q-4 -33 -11 -55q-2 -8 -8 -26.5t-8 -26.5q-2 -20 -14 -41q-14 -25 -26.5 -37t-37.5 -23q-22 -9 -43 -6q-57 10 -78 47q-14 16 -20 43zM508 100.5q-3 24.5 6 49.5 q14 33 33 53q29 33 45 47q8 8 47 33q23 14 51 14q35 0 51 -16q20 -20 23 -43q4 -31 -2 -58q-6 -33 -19 -59q-6 -25 -20 -43q-12 -16 -37 -35q-23 -16 -45 -25q-20 -8 -45 -4q-27 0 -45 13q-23 14 -31 30q-9 19 -12 43.5zM862 98q2 16 15 49q20 53 61 93q23 23 37 30 q20 12 45 13q27 -2 49 -19q18 -14 28.5 -38.5t6.5 -53.5q-2 -27 -19 -57q-14 -29 -30 -45q-12 -12 -41 -33q-14 -10 -47 -23q-23 -8 -49 -8q-20 2 -35 14q-16 12 -19 33q-6 18 -2 45z" />
<glyph horiz-adv-x="409" d="M510 1149q0 63 8 119q6 12 6 20q0 10 6 23q4 10 21 22q10 8 27 15q12 4 28 8q4 0 13.5 1t13.5 3q27 -10 37 -29q12 -23 18 -45q0 -4 6 -51q2 -18 6 -51q9 -111 -6 -228q-2 -4 -2 -12q0 -4 -4 -12q-14 -31 -38.5 -47.5t-57.5 -20.5q-27 6 -39 25q-16 23 -21 43 q-4 18 -8 51q-2 10 -5 26.5t-3 24.5q-6 60 -6 115z" />
<glyph unicode="&#x2018;" horiz-adv-x="409" d="M510 1149q0 63 8 119q6 12 6 20q0 10 6 23q4 10 21 22q10 8 27 15q12 4 28 8q4 0 13.5 1t13.5 3q27 -10 37 -29q12 -23 18 -45q0 -4 6 -51q2 -18 6 -51q9 -111 -6 -228q-2 -4 -2 -12q0 -4 -4 -12q-14 -31 -38.5 -47.5t-57.5 -20.5q-27 6 -39 25q-16 23 -21 43 q-4 18 -8 51q-2 10 -5 26.5t-3 24.5q-6 60 -6 115z" />
<glyph horiz-adv-x="399" d="M410 922q6 33 6 34q20 57 59 117q49 74 80 111l39 51q29 37 43 53q27 29 49 45q33 23 57 27q20 -4 31 -17q12 -16 14 -26q2 -14 0 -33q-4 -25 -8 -37q-12 -37 -30.5 -73.5t-42.5 -73.5q-35 -51 -50 -70l-55 -69q-4 -4 -15.5 -16.5t-17.5 -18.5l-11 -11.5t-12 -13.5 t-11 -10q-25 -20 -39 -29q-18 -10 -41 -10q-18 0 -30.5 12.5t-14.5 24.5q-2 15 0 33z" />
<glyph unicode="&#x2019;" horiz-adv-x="399" d="M410 922q6 33 6 34q20 57 59 117q49 74 80 111l39 51q29 37 43 53q27 29 49 45q33 23 57 27q20 -4 31 -17q12 -16 14 -26q2 -14 0 -33q-4 -25 -8 -37q-12 -37 -30.5 -73.5t-42.5 -73.5q-35 -51 -50 -70l-55 -69q-4 -4 -15.5 -16.5t-17.5 -18.5l-11 -11.5t-12 -13.5 t-11 -10q-25 -20 -39 -29q-18 -10 -41 -10q-18 0 -30.5 12.5t-14.5 24.5q-2 15 0 33z" />
<glyph horiz-adv-x="757" d="M530 1110q0 59 13 121l12 43q6 10 23 22q12 10 26 13q2 0 12.5 3t16.5 3q10 0 26 4q25 -14 33 -31q12 -23 15 -45q6 -49 6 -51q0 -20 4 -49q2 -39 2 -119q0 -78 -4 -119q-2 -4 -2 -12q0 -4 -4 -12q-8 -29 -37 -45q-31 -16 -54 -15q-23 8 -38 29q-12 14 -23 43 q-10 25 -12 51q-4 33 -8 51q-7 58 -7 115zM836 1155q0 82 2 123q2 10 4 22q2 4 4 11.5t2 11.5q6 16 18 23q14 8 29 10q20 4 27 4h26q25 -12 37 -33q14 -25 19 -43q8 -33 10 -51l5 -25.5t3 -23.5q2 -18 2 -115q0 -55 -12 -117q-2 -4 -2 -12q0 -6 -6 -12q-12 -29 -39 -43 q-31 -18 -56 -21q-25 10 -37 27q-12 18 -18 43q-4 18 -8 51q0 8 -1 24.5t-3 24.5q-6 62 -6 121z" />
<glyph unicode="&#x201c;" horiz-adv-x="757" d="M530 1110q0 59 13 121l12 43q6 10 23 22q12 10 26 13q2 0 12.5 3t16.5 3q10 0 26 4q25 -14 33 -31q12 -23 15 -45q6 -49 6 -51q0 -20 4 -49q2 -39 2 -119q0 -78 -4 -119q-2 -4 -2 -12q0 -4 -4 -12q-8 -29 -37 -45q-31 -16 -54 -15q-23 8 -38 29q-12 14 -23 43 q-10 25 -12 51q-4 33 -8 51q-7 58 -7 115zM836 1155q0 82 2 123q2 10 4 22q2 4 4 11.5t2 11.5q6 16 18 23q14 8 29 10q20 4 27 4h26q25 -12 37 -33q14 -25 19 -43q8 -33 10 -51l5 -25.5t3 -23.5q2 -18 2 -115q0 -55 -12 -117q-2 -4 -2 -12q0 -6 -6 -12q-12 -29 -39 -43 q-31 -18 -56 -21q-25 10 -37 27q-12 18 -18 43q-4 18 -8 51q0 8 -1 24.5t-3 24.5q-6 62 -6 121z" />
<glyph horiz-adv-x="724" d="M422 918q0 16 6 34q20 61 59 117q68 100 80 115q8 10 20.5 22.5t22.5 26.5q20 29 45 51q33 33 50 45q29 23 59 31q16 0 30.5 -10.5t16.5 -22.5q2 -14 0 -33q-4 -25 -10 -37q-29 -72 -82 -151q-63 -96 -107 -148q-20 -20 -30 -32q-16 -18 -35 -35q-33 -27 -35 -29 q-16 -10 -41 -10q-16 0 -31 10q-12 8 -14 23q-4 21 -4 33zM668 801q-2 10 4 30q0 2 10 17q4 6 14 16q41 49 92 125l86 131q15 18 31 43q20 33 33 47q25 27 37 39q23 18 47 25q16 0 33 -12q10 -6 16 -25q4 -10 4 -33q0 -10 -8 -35q-25 -77 -74 -147q-59 -86 -108 -137 q-8 -8 -16.5 -17.5t-18.5 -19.5q-25 -25 -37 -35q-25 -20 -39 -29q-25 -14 -43 -16q-10 -2 -29 2q-14 4 -22 10q-10 11 -12 21z" />
<glyph unicode="&#x201d;" horiz-adv-x="724" d="M422 918q0 16 6 34q20 61 59 117q68 100 80 115q8 10 20.5 22.5t22.5 26.5q20 29 45 51q33 33 50 45q29 23 59 31q16 0 30.5 -10.5t16.5 -22.5q2 -14 0 -33q-4 -25 -10 -37q-29 -72 -82 -151q-63 -96 -107 -148q-20 -20 -30 -32q-16 -18 -35 -35q-33 -27 -35 -29 q-16 -10 -41 -10q-16 0 -31 10q-12 8 -14 23q-4 21 -4 33zM668 801q-2 10 4 30q0 2 10 17q4 6 14 16q41 49 92 125l86 131q15 18 31 43q20 33 33 47q25 27 37 39q23 18 47 25q16 0 33 -12q10 -6 16 -25q4 -10 4 -33q0 -10 -8 -35q-25 -77 -74 -147q-59 -86 -108 -137 q-8 -8 -16.5 -17.5t-18.5 -19.5q-25 -25 -37 -35q-25 -20 -39 -29q-25 -14 -43 -16q-10 -2 -29 2q-14 4 -22 10q-10 11 -12 21z" />
<glyph horiz-adv-x="641" d="M342 551q-6 43 2 88q10 49 27 88q14 51 49 100q33 47 82 91q39 35 100 59q55 23 107 16q37 0 67.5 -18.5t44.5 -46.5q16 -20 23 -62q6 -33 -8 -73q-18 -59 -56 -119q-31 -49 -92 -111q-29 -29 -55 -47q-37 -25 -62 -37q-39 -18 -65 -22q-45 -8 -64 -6q-45 2 -71 32 q-23 25 -29 68z" />
<glyph unicode="&#x2022;" horiz-adv-x="641" d="M342 551q-6 43 2 88q10 49 27 88q14 51 49 100q33 47 82 91q39 35 100 59q55 23 107 16q37 0 67.5 -18.5t44.5 -46.5q16 -20 23 -62q6 -33 -8 -73q-18 -59 -56 -119q-31 -49 -92 -111q-29 -29 -55 -47q-37 -25 -62 -37q-39 -18 -65 -22q-45 -8 -64 -6q-45 2 -71 32 q-23 25 -29 68z" />
<glyph horiz-adv-x="747" d="M375 707q20 27 51 43q16 10 61 18q41 8 61.5 8t57.5 4q74 -4 113 -4q8 -2 27.5 -3t29.5 -1q33 -4 58 -12q27 -10 40 -27q12 -14 7 -51q-6 -16 -19 -29q-16 -16 -26.5 -22t-31 -14.5t-30.5 -8.5q-90 -6 -172 -6q-29 0 -85 -1t-85 -1q-14 2 -30.5 14.5t-22.5 20.5 q-18 31 -4 72z" />
<glyph unicode="&#x2013;" horiz-adv-x="747" d="M375 707q20 27 51 43q16 10 61 18q41 8 61.5 8t57.5 4q74 -4 113 -4q8 -2 27.5 -3t29.5 -1q33 -4 58 -12q27 -10 40 -27q12 -14 7 -51q-6 -16 -19 -29q-16 -16 -26.5 -22t-31 -14.5t-30.5 -8.5q-90 -6 -172 -6q-29 0 -85 -1t-85 -1q-14 2 -30.5 14.5t-22.5 20.5 q-18 31 -4 72z" />
<glyph horiz-adv-x="1153" d="M375 666q-2 18 10 41q20 23 57 41q29 14 64 20t63 6q25 0 62 4q119 4 235 0h117q18 0 58 -1t61 -1q8 -2 27.5 -3t29.5 -1q34 -3 62 -12q29 -10 45 -26.5t12 -51.5q-12 -20 -22.5 -28.5t-30.5 -20.5q-12 -8 -33 -15q-25 -8 -33 -8q-330 -12 -704 -8q-25 0 -37 10 q-20 16 -27 23q-14 15 -16 31z" />
<glyph unicode="&#x2014;" horiz-adv-x="1153" d="M375 666q-2 18 10 41q20 23 57 41q29 14 64 20t63 6q25 0 62 4q119 4 235 0h117q18 0 58 -1t61 -1q8 -2 27.5 -3t29.5 -1q34 -3 62 -12q29 -10 45 -26.5t12 -51.5q-12 -20 -22.5 -28.5t-30.5 -20.5q-12 -8 -33 -15q-25 -8 -33 -8q-330 -12 -704 -8q-25 0 -37 10 q-20 16 -27 23q-14 15 -16 31z" />
<glyph horiz-adv-x="1261" d="M551 756q14 49 20 63q12 33 27 68l31 67q6 14 26 70l39 108.5t31 108.5q-45 -4 -70 -4q-49 0 -71 -2q-12 8 -4 25l6 18l6 18q16 16 24 19q6 0 14.5 2t14.5 4q37 2 107 10l108 12q31 4 84 8.5t84 8.5q18 -2 35 -17q14 -12 8 -36q-8 -16 -14 -23q-10 -10 -23 -16 q-8 -4 -24 -8l-25 -7q-35 -8 -67 -8q-18 0 -52 -4q-37 -72 -98 -215q-46 -108 -86 -215q-2 -4 -6 -13.5l-8 -19.5q-4 -12 -17 -33q-16 -25 -20 -30q-14 -14 -33 -21q-25 0 -41 16.5t-6 45.5zM879 739q0 10 4 27q4 12 11 37.5t11 38.5q6 23 23 63q8 16 37 101q16 45 41 102 q35 82 45 100q25 49 55 99q12 20 29 32q16 14 36 17q12 0 19 -6q2 -2 5 -4.5t5 -4.5t2 -4l8 -16q2 -2 2 -8t2 -10q6 -74 3 -170q-4 -94 -23 -177l78 113l76 111q20 29 28 43q16 29 27 43q20 29 33 41q16 16 41 30q33 -6 45 -28q14 -23 16 -54q2 -29 -4 -65q-4 -23 -12 -64 q0 -6 -2 -11t-5.5 -12l-5.5 -11q-2 -6 -6 -16.5t-6 -16.5q-4 -8 -7 -17.5t-7 -17.5q-6 -10 -15 -35l-6 -18.5t-6 -20.5q-2 -6 -5 -20.5t-5 -20.5l-25 -69q-16 -43 -32 -70q-8 -18 -24.5 -38.5t-39.5 -26.5h-14q-6 0 -15 4q-6 10 -10 22q-3 9 0 19q8 23 10 28q4 16 11 29 q16 29 34 76q10 27 27 80q33 86 31 155q-18 -35 -64 -104l-71 -103l-23.5 -30.5l-21 -25.5t-23.5 -32q-35 -47 -80 -78q-18 4 -24.5 16.5t-1.5 33.5l6 73q2 29 10 76l6 78q4 43 -2 74q-23 -49 -43 -99q-29 -66 -41 -98q-6 -14 -10 -34.5t-8 -35.5q-2 -8 -11 -34l-12 -33 q-2 -4 -12 -27q-4 -8 -17 -24q-10 -12 -22 -17l-25 -6q-12 0 -20 8.5t-10 18.5v24z" />
<glyph unicode="&#x2122;" horiz-adv-x="1261" d="M551 756q14 49 20 63q12 33 27 68l31 67q6 14 26 70l39 108.5t31 108.5q-45 -4 -70 -4q-49 0 -71 -2q-12 8 -4 25l6 18l6 18q16 16 24 19q6 0 14.5 2t14.5 4q37 2 107 10l108 12q31 4 84 8.5t84 8.5q18 -2 35 -17q14 -12 8 -36q-8 -16 -14 -23q-10 -10 -23 -16 q-8 -4 -24 -8l-25 -7q-35 -8 -67 -8q-18 0 -52 -4q-37 -72 -98 -215q-46 -108 -86 -215q-2 -4 -6 -13.5l-8 -19.5q-4 -12 -17 -33q-16 -25 -20 -30q-14 -14 -33 -21q-25 0 -41 16.5t-6 45.5zM879 739q0 10 4 27q4 12 11 37.5t11 38.5q6 23 23 63q8 16 37 101q16 45 41 102 q35 82 45 100q25 49 55 99q12 20 29 32q16 14 36 17q12 0 19 -6q2 -2 5 -4.5t5 -4.5t2 -4l8 -16q2 -2 2 -8t2 -10q6 -74 3 -170q-4 -94 -23 -177l78 113l76 111q20 29 28 43q16 29 27 43q20 29 33 41q16 16 41 30q33 -6 45 -28q14 -23 16 -54q2 -29 -4 -65q-4 -23 -12 -64 q0 -6 -2 -11t-5.5 -12l-5.5 -11q-2 -6 -6 -16.5t-6 -16.5q-4 -8 -7 -17.5t-7 -17.5q-6 -10 -15 -35l-6 -18.5t-6 -20.5q-2 -6 -5 -20.5t-5 -20.5l-25 -69q-16 -43 -32 -70q-8 -18 -24.5 -38.5t-39.5 -26.5h-14q-6 0 -15 4q-6 10 -10 22q-3 9 0 19q8 23 10 28q4 16 11 29 q16 29 34 76q10 27 27 80q33 86 31 155q-18 -35 -64 -104l-71 -103l-23.5 -30.5l-21 -25.5t-23.5 -32q-35 -47 -80 -78q-18 4 -24.5 16.5t-1.5 33.5l6 73q2 29 10 76l6 78q4 43 -2 74q-23 -49 -43 -99q-29 -66 -41 -98q-6 -14 -10 -34.5t-8 -35.5q-2 -8 -11 -34l-12 -33 q-2 -4 -12 -27q-4 -8 -17 -24q-10 -12 -22 -17l-25 -6q-12 0 -20 8.5t-10 18.5v24z" />
<glyph unicode="&#xa2;" horiz-adv-x="851" d="M276 573q-4 70 23 136q29 78 78 145q43 57 112 131q20 20 70 62q43 35 76 53q40 22 80 37q37 14 80 14q18 47 22 59q10 29 23 60q2 4 7 15t7 18q8 25 14 36q6 14 21 31q12 15 31 25q12 0 32 -4q16 -4 29 -13q12 -10 18.5 -20t1.5 -33l-16 -65q-2 -10 -7 -33t-9 -33 l-11 -29q55 -12 86 -41q39 -35 58 -71q23 -39 28 -86q6 -51 -10 -103q-8 -16 -14 -26q-12 -20 -19 -27q-14 -14 -24 -18q-16 -6 -31 -5q-20 0 -31 9q-12 8 -20 20q-6 8 -10 31q-2 10 -2 33q-2 10 -6 34q-2 18 -9 31q-6 14 -16 29q-10 12 -27 18q-18 -61 -39 -123l-43 -125 l-51 -137q-8 -23 -28 -67l-25 -68q27 10 47 25l47 28q16 10 49 27q25 12 50 12q16 -4 20 -8t8 -18v-17l-2 -14l-6 -19v-8q-23 -37 -53 -65q-31 -28 -68 -49q-25 -14 -78 -35q-16 -6 -42.5 -14.5l-32.5 -10.5l-17 -41l-16 -41q-2 -4 -12.5 -28.5t-14.5 -36.5q-16 -45 -29 -68 q-18 -34 -43 -61q-23 -27 -61 -45q-31 -2 -45 18q-12 18 -8 45q8 29 14 55q4 18 17 56q6 16 20 69l18 68q-68 18 -110 59q-49 47 -72 99q-27 57 -29 118zM455 610q8 -41 16 -55q20 -57 72 -90l47 125q10 27 18 52.5t17 47.5l15 44t22 57l75 194q-53 -35 -88 -67 q-27 -25 -76 -78q-45 -53 -65 -80q-27 -35 -47 -86q-12 -35 -6 -64z" />
<glyph unicode="&#xa3;" horiz-adv-x="1236" d="M348 772q0 18 6 37q23 31 58 47q37 16 67 23q33 6 70 6q45 0 65 2q6 12 21 39q8 14 20 43q18 43 64 125l65 125q27 31 56 47q33 18 63 30q47 16 66 21l63 12q88 12 197 17q74 2 170 -9q20 0 39 -6q20 -6 28 -20q10 -16 13 -33q2 -12 -6 -41q-4 -20 -15 -31 q-16 -16 -26 -22q-14 -8 -31 -15q-25 -8 -33 -8q-23 2 -65 2q-45 0 -66 2q-51 4 -92 -2q-53 -6 -94 -22q-49 -18 -93 -49q-45 -33 -69 -78q-6 -12 -18.5 -35t-16.5 -31q-18 -33 -33 -65q12 0 37 -1t35 -1q34 0 68 -7q6 -2 28 -10q12 -4 23 -18q10 -12 12 -27q4 -16 -6 -35 q-2 -4 -17 -28q-9 -15 -24 -25q-20 -12 -31 -16q-15 -6 -31 -6q-29 2 -86 -2q-43 -3 -86 0q-31 -70 -45 -111q-8 -20 -22 -60t-19 -53q-23 -59 -30 -114q-10 -59 -13 -113q82 20 154 51l152 68l151.5 63.5t151.5 34.5q12 2 37 -2q14 -2 30 -12q12 -8 22.5 -24.5t10.5 -31.5 v-6q-43 -43 -92 -73l-101 -58q-45 -25 -106 -51q-6 -2 -46 -19.5t-60 -27.5l-111 -49q-23 -10 -113 -45q-27 -10 -114 -35q-61 -16 -111 -23q-33 4 -55.5 12.5t-36.5 34.5q-10 20 -10 54q0 10 2 28.5t2 28.5q4 70 18 139q14 68 41 144q25 74 45 125l55 125h-32 q-6 0 -17.5 -1t-17.5 -1h-33q-18 0 -29 2q-20 -2 -30 10q-14 18 -17 24q-6 17 -6 31z" />
<glyph unicode="&#xa5;" horiz-adv-x="1005" d="M229 242q0 31 2 37q25 33 50 45q37 16 59 18q31 3 61.5 0t55.5 0l41 74q18 33 49 69q-53 4 -80 4q-53 0 -78 3q-16 0 -31 10q-12 8 -18 22q-6 12 -6 31q0 23 4 35q10 20 33 37q14 10 43 22q20 8 47 13q10 2 21.5 4l23.5 4q-6 71 -6 141.5t12 146.5q6 66 23 142 q12 59 45 141q6 14 16 27l18 24q2 4 23 19q10 8 27 8q20 6 41 2q16 -2 26 -16q14 -20 17 -29q2 -18 0 -35q-8 -29 -17 -86q-8 -63 -14 -88q-4 -33 -8 -94q-4 -66 -4 -94q0 -33 4 -91q2 -41 16 -88q80 111 170 213l182 205q37 47 76 88l80 86q12 18 37 29q14 6 41 6 q25 -4 35 -14q14 -14 20 -33q6 -20 4 -39q-4 -33 -10 -45q-16 -37 -45 -68l-60 -63l-67 -68l-70 -69l-121 -127q-39 -43 -112 -133q16 0 53 -4q33 -4 51 -15q25 -14 33 -32.5t-4 -53.5q-6 -16 -19 -33q-14 -18 -30.5 -26t-34.5 -15q-20 -6 -37 -4q-25 -2 -76 -2 q-12 0 -37.5 1t-38.5 1l-51 -77q-33 -49 -47 -76q8 -2 21 0q8 2 22 2q8 -2 25 -2q4 0 11 1t11 1q35 0 56 -2q31 -3 55 -13q25 -8 37 -28q12 -18 0 -53q-8 -18 -24.5 -35t-33.5 -25q-14 -8 -39 -14q-14 -4 -34 -4q-70 -4 -103 -4h-100q-14 -35 -23 -47q-10 -16 -34 -46 q-16 -18 -41 -32q-27 -14 -50 -13q-25 0 -41 17q-14 14 -10 39q0 25 6.5 45t16.5 45l-43 6q-8 2 -20.5 2t-20.5 2q-20 4 -33 12q-16 12 -20 23q-9 21 -9 33z" />
<glyph unicode="&#xa9;" horiz-adv-x="1409" d="M252 385q0 61 18 109q16 51 58 133q29 59 82 129q39 51 102 118q61 66 119 109q72 61 127 96q70 45 137 74q76 33 141 47q78 16 138 14q76 0 124 -16q61 -20 101 -51q45 -37 74 -78q33 -49 47 -100q37 -102 26 -230q-8 -119 -63 -254q-27 -61 -53 -102q-39 -57 -74 -94 t-92 -84q-41 -35 -103 -70q-117 -68 -215 -94q-111 -31 -215 -31q-104 -2 -203 33q-94 35 -159 94q-29 27 -62 70q-25 33 -41 82q-14 43 -14 96zM424 412q0 -35 12 -66q12 -29 35 -55q20 -23 47 -41q61 -41 125 -57q78 -20 152 -21q71 0 147 18q78 18 152 56q41 20 71 43 q23 16 64 57q35 35 53 64q25 39 35 69q37 90 53 197q15 98 -6 184q-10 49 -29 80q-20 37 -51 64q-27 25 -74 40q-43 14 -94 13q-51 0 -106 -13q-57 -12 -109 -36q-47 -23 -104 -60q-49 -33 -97 -76q-90 -82 -159 -182q-74 -106 -105 -203q-12 -32 -12 -75zM561 449 q-2 47 17 104q12 35 34 72q6 10 54 67q28 34 61 62q51 41 70 55q29 20 73 47q49 29 76 41q39 18 76 27q45 10 78 10q33 -4 45 -8q25 -8 39 -17q16 -12 26.5 -30.5t-2.5 -42.5q-8 -20 -18 -33q-8 -10 -28.5 -26.5t-33.5 -20.5q-25 -8 -37 -8t-28 8t-29 10q-35 -6 -82 -29 q-35 -16 -80 -51q-33 -25 -69 -61q-33 -33 -51 -74q-12 -23 -8 -43.5t14 -30.5q12 -12 30 -18q16 -6 41 -2q6 0 20.5 1t20.5 3q25 4 39 10q31 8 41 10q29 4 39 4q35 0 49 -24q16 -25 0 -60q-14 -35 -37 -51q-23 -18 -59 -28q-29 -10 -86 -23q-29 -6 -86 -10q-63 0 -104 16 q-43 18 -74 57q-28 35 -31 87z" />
<glyph unicode="&#xad;" d="M365 668q-4 18 8 39q27 31 53 41q39 16 63 20q41 8 63.5 8t59.5 4q14 -2 45 -2q6 0 22.5 -1t22.5 -1q31 0 45.5 -2t47.5 -2q6 0 17 1t17 1q10 0 35 -4q37 0 58 -2q43 -4 59 -10q25 -10 41 -29q14 -16 8 -51q-16 -33 -49 -51q-31 -16 -66 -21q-123 -6 -239 -6 q-162 0 -242 2q-23 0 -33 10l-12 11.5l-12 11.5q-10 17 -12 33z" />
<glyph unicode="&#xae;" horiz-adv-x="1482" d="M276 449q6 74 41 159q22 68 62 135q37 63 90 129q55 70 111 119l125 105q76 57 133 90q82 47 141 69q71 28 141 43q72 16 140 13q74 0 124 -17q55 -16 103 -49q39 -25 78 -76q35 -43 53 -100q43 -104 33 -231q-10 -133 -60 -258q-29 -74 -65 -127q-41 -57 -96 -117 q-47 -49 -115 -100q-45 -35 -129 -82q18 -14 22 -29q6 -20 -2 -41q-8 -16 -16 -23q-20 -16 -23 -16q-6 -4 -26 -8q-16 -4 -25 -4q-41 -4 -65 4q-31 8 -54 29q-80 -29 -143 -39q-72 -12 -137 -13q-86 -4 -154 15q-70 18 -127 59q-63 45 -94 92q-33 49 -53 123q-19 68 -13 146 zM453 489q-8 -57 0 -108q10 -55 34 -94q27 -41 72 -66l29 74q4 14 28 72q16 31 33 75q23 53 31 76q12 33 29 94q2 6 10 41t14 54q14 51 62 184l16 37q8 18 23 35q23 20 47 28q33 12 49 15q6 0 15 2t17.5 3t16.5 1q14 0 47 4h53q37 4 54 2q37 -4 57 -4t57 -4q23 -2 53 -11 q25 -6 48 -22q20 -16 28 -39q10 -27 10 -51.5t-6 -55.5q-8 -41 -14 -59q-8 -27 -29 -53q-25 -33 -39 -49q-23 -25 -47 -47l-51 -41q-59 -43 -113 -74q-61 -35 -118 -47q10 -16 26.5 -53t22.5 -56l24 -57q14 -33 31 -51q45 18 111 57q55 33 102 78q45 41 84 94q35 47 55 107 q35 92 52 194q14 92 -4 182q-10 49 -29 80q-23 39 -53 64q-31 27 -74 41q-35 12 -92 12q-66 0 -111 -10q-49 -10 -110 -35q-49 -18 -111 -53q-37 -20 -107 -70q-43 -31 -98 -82q-46 -43 -86 -92q-43 -53 -70 -98q-31 -53 -49 -107q-21 -59 -30 -117zM692 182q14 -4 41 -4 q8 0 22.5 -1t20.5 -1q20 0 66 4q41 4 65 8q-6 10 -14 32t-10 26q-20 47 -27 57l-16 25q-12 16 -21 24q-14 14 -24 19q-23 8 -31 10q-8 -16 -21 -49l-9 -21.5t-9 -25.5q-10 -29 -16 -52zM842 575q51 0 106 13q45 10 111 43q57 31 96 71q41 45 57 99q6 23 2 33q-6 10 -20 18 q-10 4 -31 8q-12 2 -33 2q-14 2 -42.5 -2t-40.5 -4h-43q-8 0 -20.5 -1t-20.5 -1q-20 -4 -29 -12q-16 -16 -23 -27q-8 -14 -14 -29q-8 -20 -12 -28q-18 -46 -31 -92q-12 -48 -12 -91z" />
<glyph unicode="&#xb4;" horiz-adv-x="346" d="M621 1491q4 16 8 25q2 4 5 13t5 13l43 70q18 33 49 69q33 41 60 60q31 23 73 33q20 0 35 -21q10 -16 2 -41q-4 -16 -8 -22q-12 -18 -14 -23l-45 -68q-25 -37 -56 -67q-27 -27 -65 -51q-35 -23 -74 -23q-6 2 -16 12q-8 9 -2 21z" />
<glyph unicode="&#x2000;" horiz-adv-x="884" />
<glyph unicode="&#x2001;" horiz-adv-x="1771" />
<glyph unicode="&#x2002;" horiz-adv-x="884" />
<glyph unicode="&#x2003;" horiz-adv-x="1771" />
<glyph unicode="&#x2004;" horiz-adv-x="589" />
<glyph unicode="&#x2005;" horiz-adv-x="442" />
<glyph unicode="&#x2006;" horiz-adv-x="294" />
<glyph unicode="&#x2007;" horiz-adv-x="294" />
<glyph unicode="&#x2008;" horiz-adv-x="219" />
<glyph unicode="&#x2009;" horiz-adv-x="352" />
<glyph unicode="&#x200a;" horiz-adv-x="96" />
<glyph unicode="&#x2010;" d="M365 668q-4 18 8 39q27 31 53 41q39 16 63 20q41 8 63.5 8t59.5 4q14 -2 45 -2q6 0 22.5 -1t22.5 -1q31 0 45.5 -2t47.5 -2q6 0 17 1t17 1q10 0 35 -4q37 0 58 -2q43 -4 59 -10q25 -10 41 -29q14 -16 8 -51q-16 -33 -49 -51q-31 -16 -66 -21q-123 -6 -239 -6 q-162 0 -242 2q-23 0 -33 10l-12 11.5l-12 11.5q-10 17 -12 33z" />
<glyph unicode="&#x2011;" d="M365 668q-4 18 8 39q27 31 53 41q39 16 63 20q41 8 63.5 8t59.5 4q14 -2 45 -2q6 0 22.5 -1t22.5 -1q31 0 45.5 -2t47.5 -2q6 0 17 1t17 1q10 0 35 -4q37 0 58 -2q43 -4 59 -10q25 -10 41 -29q14 -16 8 -51q-16 -33 -49 -51q-31 -16 -66 -21q-123 -6 -239 -6 q-162 0 -242 2q-23 0 -33 10l-12 11.5l-12 11.5q-10 17 -12 33z" />
<glyph unicode="&#x2012;" d="M365 668q-4 18 8 39q27 31 53 41q39 16 63 20q41 8 63.5 8t59.5 4q14 -2 45 -2q6 0 22.5 -1t22.5 -1q31 0 45.5 -2t47.5 -2q6 0 17 1t17 1q10 0 35 -4q37 0 58 -2q43 -4 59 -10q25 -10 41 -29q14 -16 8 -51q-16 -33 -49 -51q-31 -16 -66 -21q-123 -6 -239 -6 q-162 0 -242 2q-23 0 -33 10l-12 11.5l-12 11.5q-10 17 -12 33z" />
<glyph unicode="&#x202f;" horiz-adv-x="352" />
<glyph unicode="&#x205f;" horiz-adv-x="442" />
<glyph unicode="&#x20ac;" horiz-adv-x="1208" d="M244 510q18 33 39 45q27 16 53 23q35 8 57 10q8 0 25.5 1t25.5 3l13 26q2 4 8 22.5t10 29.5q4 14 10.5 26.5t12.5 26.5h-39h-39q-37 0 -49.5 28.5t2.5 63.5q18 29 47 49q25 16 59 27q20 6 66 10q23 2 59 6q51 78 121 160q78 92 143 145q25 20 82 58q39 25 86 45 q45 20 88 28q35 8 86 5q39 0 70 -13q35 -14 57.5 -28.5t46.5 -42.5q18 -20 35 -52q20 -37 29 -57q12 -31 18 -63q6 -37 4 -68q-4 -41 -14 -74q-2 -8 -14 -35q-10 -20 -25 -34q-16 -16 -33 -25q-18 -8 -38 -6q-37 4 -56 22q-16 16 -24 52q-4 23 -9 63q-4 45 -8 66 q-6 37 -35 55q-27 18 -67 18q-45 0 -86 -20.5t-80 -52.5q-37 -31 -72 -72q-33 -39 -57 -76q18 0 29 2q15 3 30 0q37 0 60 -2q31 -2 57 -16q27 -12 39 -35t0 -59q-6 -20 -20 -35q-10 -10 -35 -23q-18 -10 -39 -12q-14 -2 -39 -2h-96h-97l-32 -72q-10 -23 -27 -71q27 0 39 2 q20 4 39 0q39 0 59 -2q37 -4 58 -15q25 -12 36 -33q14 -23 2 -57q-4 -16 -22 -35q-14 -14 -35 -24q-18 -8 -41 -13q-14 -2 -37 -2q-12 0 -37.5 -1t-37.5 -1q-51 0 -76 2q-4 -14 -8 -55q-4 -31 2 -53q6 -27 20 -43q16 -18 45 -19q74 4 109 9q57 6 110 32q37 20 54 31 q27 16 53 35q23 14 57.5 26.5t56.5 14.5q20 0 29 -8q6 -6 10 -25q4 -14 -2 -31q-6 -20 -14 -32q-4 -12 -16 -33q-16 -25 -45 -53.5t-54 -42.5l-19 -12.5t-23.5 -14.5t-18.5 -10q-41 -20 -60 -31q-35 -14 -124 -47q-61 -23 -119 -25q-86 -6 -144 29q-59 37 -88 88 q-33 59 -39 129q-6 80 5 146q-33 4 -52 4q-20 0 -53 4q-35 2 -53 30.5t-4 65.5z" />
<glyph unicode="&#xe000;" horiz-adv-x="1335" d="M0 1335h1335v-1335h-1335v1335z" />
<glyph unicode="&#xfb01;" horiz-adv-x="1351" d="M1084 68q2 16 2 49q0 23 6 47l24 110q8 41 35 111l23.5 67.5l20.5 58.5t26 67l72 192l73 191l31.5 85t42.5 105q10 27 23 55l28 56q16 29 39 51q18 18 55 37q9 2 17.5 1.5t15.5 -1.5q12 -2 25 -15q10 -10 16 -24q8 -20 8 -29q-2 -59 -28 -127q-20 -59 -39 -108l-43 -109 l-43 -115q-23 -57 -43 -114q-33 -94 -41 -121l-35 -121l-37 -113q-25 -74 -39 -112l-13 -30.5l-15 -35.5q-14 -35 -37 -70q-20 -31 -49 -57t-68 -35q-10 0 -23 4q-10 4 -16 13q-10 14 -10 16q-2 2 -2 10.5t-2 10.5zM207 109q-1 12 -1 24q0 19 3 37q10 57 12 63l19 48l18 49 l43 100q14 33 39 102q10 27 20 60q14 49 19 57q12 41 20 62q10 31 23 61q12 29 29 82q12 37 28 82q20 53 31 78q4 12 31 78l12 30q6 14 14 29q23 43 66 72q41 27 88 43q70 18 88 22l90 19q31 6 78 14t78 14q49 4 71 4q45 0 68 -4q29 -6 43 -20q18 -18 29 -37q8 -20 14 -43 q3 -11 3 -22q0 -14 -5 -29q-10 -20 -23 -25q-20 -8 -30 -10q-20 -4 -33 -4q-23 0 -31 -2q-37 -2 -108 -2q-49 0 -111 -11q-47 -10 -108 -40q-55 -28 -93 -80q-6 -8 -43 -78q-25 -45 -34 -80q-2 -6 -7 -14q-2 -2 -3 -7.5t-1 -7.5q41 0 62 2q41 4 59 6q10 0 31.5 2.5t32.5 2.5 q31 2 59 0q25 0 70 -5q31 -2 59 -20q25 -25 25 -53q0 -43 -13 -70q-6 -16 -22 -33q-12 -12 -35 -16q-29 -8 -37 -8h-37q-29 -2 -84 -2q-31 0 -88 -4q-51 -4 -88 -15q-47 -14 -88 -37q-27 -43 -43 -94q-20 -61 -35 -94l-37 -104l-36 -105q-2 -4 -8.5 -19.5l-10.5 -25.5 q-12 -23 -29 -47q-15 -22 -36 -37q-18 -13 -39 -13q-4 0 -9 1q-35 6 -49 26q-18 25 -20 48z" />
<glyph unicode="&#xfb02;" horiz-adv-x="1775" d="M1108 176q6 40 19 80q0 18 6 41l12 45l41 111l47 112l19.5 40l16.5 35t17 40l50 117l15 45.5t17 54.5l31 100q20 66 33 97l39 96q16 37 20 45q8 14 33 43q16 18 39 35q12 10 49 18q11 2 21 2q29 0 43 -16q18 -22 18 -55.5t-12 -73.5q-10 -35 -25 -70q-49 -127 -70 -168 l-79 -168l-76 -170q-53 -125 -70 -170q-8 -27 -15 -53.5t-16 -52.5q-14 -51 -18 -103h14q41 0 97 15q66 16 110 35l70 28q18 8 34.5 16.5t34.5 14.5q51 20 64 27q27 12 63 20q14 4 41 0q14 -2 29 -16q12 -12 12 -30.5t-12 -41.5q-20 -39 -57 -71.5t-76 -57.5 q-37 -23 -84 -43q-43 -20 -84 -37q-82 -33 -174 -55q-60 -15 -119 -15q-25 0 -49 3q-37 2 -74 22q-34 18 -43 55q-4 26 -4 45q0 14 2 29zM207 109q-1 12 -1 24q0 19 3 37q10 57 12 63l19 48l18 49l43 100q14 33 39 102q10 27 20 60q14 49 19 57q12 41 20 62q10 31 23 61 q12 29 29 82q12 37 28 82q20 53 31 78q4 12 31 78l12 30q6 14 14 29q23 43 66 72q41 27 88 43q70 18 88 22l90 19q31 6 78 14t78 14q49 4 71 4q45 0 68 -4q29 -6 43 -20q18 -18 29 -37q8 -20 14 -43q3 -11 3 -22q0 -14 -5 -29q-10 -20 -23 -25q-20 -8 -30 -10q-20 -4 -33 -4 q-23 0 -31 -2q-37 -2 -108 -2q-49 0 -111 -11q-47 -10 -108 -40q-55 -28 -93 -80q-6 -8 -43 -78q-25 -45 -34 -80q-2 -6 -7 -14q-2 -2 -3 -7.5t-1 -7.5q41 0 62 2q41 4 59 6q10 0 31.5 2.5t32.5 2.5q31 2 59 0q25 0 70 -5q31 -2 59 -20q25 -25 25 -53q0 -43 -13 -70 q-6 -16 -22 -33q-12 -12 -35 -16q-29 -8 -37 -8h-37q-29 -2 -84 -2q-31 0 -88 -4q-51 -4 -88 -15q-47 -14 -88 -37q-27 -43 -43 -94q-20 -61 -35 -94l-37 -104l-36 -105q-2 -4 -8.5 -19.5l-10.5 -25.5q-12 -23 -29 -47q-15 -22 -36 -37q-18 -13 -39 -13q-4 0 -9 1 q-35 6 -49 26q-18 25 -20 48z" />
<glyph unicode="&#xfb03;" horiz-adv-x="2234" d="M1966 68q2 16 2 49q0 23 6 47l24 110q8 41 35 111l23.5 67.5l20.5 58.5t26 67l72 192l73 191l31.5 85t42.5 105q10 27 23 55l28 56q16 29 39 51q18 18 55 37q9 2 17.5 1.5t15.5 -1.5q12 -2 25 -15q10 -10 16 -24q8 -20 8 -29q-2 -59 -28 -127q-20 -59 -39 -108l-43 -109 l-43 -115q-23 -57 -43 -114q-33 -94 -41 -121l-35 -121l-37 -113q-25 -74 -39 -112l-13 -30.5l-15 -35.5q-14 -35 -37 -70q-20 -31 -49 -57t-68 -35q-10 0 -23 4q-10 4 -16 13q-10 14 -10 16q-2 2 -2 10.5t-2 10.5zM1092 109q-1 12 -1 24q0 19 3 37q10 57 12 63l19 48l18 49 l43 100q14 33 39 102q10 27 20 60q14 49 19 57q12 41 20 62q10 31 23 61q12 29 29 82q12 37 28 82q20 53 31 78q4 12 31 78l12 30q6 14 14 29q23 43 66 72q41 27 88 43q70 18 88 22l90 19q31 6 78 14t78 14q49 4 71 4q45 0 68 -4q29 -6 43 -20q18 -18 29 -37q8 -20 14 -43 q3 -11 3 -22q0 -14 -5 -29q-10 -20 -23 -25q-20 -8 -30 -10q-20 -4 -33 -4q-23 0 -31 -2q-37 -2 -108 -2q-49 0 -111 -11q-47 -10 -108 -40q-55 -28 -93 -80q-6 -8 -43 -78q-25 -45 -34 -80q-2 -6 -7 -14q-2 -2 -3 -7.5t-1 -7.5q41 0 62 2q41 4 59 6q10 0 31.5 2.5t32.5 2.5 q31 2 59 0q25 0 70 -5q31 -2 59 -20q25 -25 25 -53q0 -43 -13 -70q-6 -16 -22 -33q-12 -12 -35 -16q-29 -8 -37 -8h-37q-29 -2 -84 -2q-31 0 -88 -4q-51 -4 -88 -15q-47 -14 -88 -37q-27 -43 -43 -94q-20 -61 -35 -94l-37 -104l-36 -105q-2 -4 -8.5 -19.5l-10.5 -25.5 q-12 -23 -29 -47q-15 -22 -36 -37q-18 -13 -39 -13q-4 0 -9 1q-35 6 -49 26q-18 25 -20 48zM207 109q-1 12 -1 24q0 19 3 37q10 57 12 63l19 48l18 49l43 100q14 33 39 102q10 27 20 60q14 49 19 57q12 41 20 62q10 31 23 61q12 29 29 82q12 37 28 82q20 53 31 78 q4 12 31 78l12 30q6 14 14 29q23 43 66 72q41 27 88 43q70 18 88 22l90 19q31 6 78 14t78 14q49 4 71 4q45 0 68 -4q29 -6 43 -20q18 -18 29 -37q8 -20 14 -43q3 -11 3 -22q0 -14 -5 -29q-10 -20 -23 -25q-20 -8 -30 -10q-20 -4 -33 -4q-23 0 -31 -2q-37 -2 -108 -2 q-49 0 -111 -11q-47 -10 -108 -40q-55 -28 -93 -80q-6 -8 -43 -78q-25 -45 -34 -80q-2 -6 -7 -14q-2 -2 -3 -7.5t-1 -7.5q41 0 62 2q41 4 59 6q10 0 31.5 2.5t32.5 2.5q31 2 59 0q25 0 70 -5q31 -2 59 -20q25 -25 25 -53q0 -43 -13 -70q-6 -16 -22 -33q-12 -12 -35 -16 q-29 -8 -37 -8h-37q-29 -2 -84 -2q-31 0 -88 -4q-51 -4 -88 -15q-47 -14 -88 -37q-27 -43 -43 -94q-20 -61 -35 -94l-37 -104l-36 -105q-2 -4 -8.5 -19.5l-10.5 -25.5q-12 -23 -29 -47q-15 -22 -36 -37q-18 -13 -39 -13q-4 0 -9 1q-35 6 -49 26q-18 25 -20 48z" />
<glyph unicode="&#xfb04;" horiz-adv-x="2660" d="M1990 176q6 40 19 80q0 18 6 41l12 45l41 111l47 112l19.5 40l16.5 35t17 40l50 117l15 45.5t17 54.5l31 100q20 66 33 97l39 96q16 37 20 45q8 14 33 43q16 18 39 35q12 10 49 18q11 2 21 2q29 0 43 -16q18 -22 18 -55.5t-12 -73.5q-10 -35 -25 -70q-49 -127 -70 -168 l-79 -168l-76 -170q-53 -125 -70 -170q-8 -27 -15 -53.5t-16 -52.5q-14 -51 -18 -103h14q41 0 97 15q66 16 110 35l70 28q18 8 34.5 16.5t34.5 14.5q51 20 64 27q27 12 63 20q14 4 41 0q14 -2 29 -16q12 -12 12 -30.5t-12 -41.5q-20 -39 -57 -71.5t-76 -57.5 q-37 -23 -84 -43q-43 -20 -84 -37q-82 -33 -174 -55q-60 -15 -119 -15q-25 0 -49 3q-37 2 -74 22q-34 18 -43 55q-4 26 -4 45q0 14 2 29zM1092 109q-1 12 -1 24q0 19 3 37q10 57 12 63l19 48l18 49l43 100q14 33 39 102q10 27 20 60q14 49 19 57q12 41 20 62q10 31 23 61 q12 29 29 82q12 37 28 82q20 53 31 78q4 12 31 78l12 30q6 14 14 29q23 43 66 72q41 27 88 43q70 18 88 22l90 19q31 6 78 14t78 14q49 4 71 4q45 0 68 -4q29 -6 43 -20q18 -18 29 -37q8 -20 14 -43q3 -11 3 -22q0 -14 -5 -29q-10 -20 -23 -25q-20 -8 -30 -10q-20 -4 -33 -4 q-23 0 -31 -2q-37 -2 -108 -2q-49 0 -111 -11q-47 -10 -108 -40q-55 -28 -93 -80q-6 -8 -43 -78q-25 -45 -34 -80q-2 -6 -7 -14q-2 -2 -3 -7.5t-1 -7.5q41 0 62 2q41 4 59 6q10 0 31.5 2.5t32.5 2.5q31 2 59 0q25 0 70 -5q31 -2 59 -20q25 -25 25 -53q0 -43 -13 -70 q-6 -16 -22 -33q-12 -12 -35 -16q-29 -8 -37 -8h-37q-29 -2 -84 -2q-31 0 -88 -4q-51 -4 -88 -15q-47 -14 -88 -37q-27 -43 -43 -94q-20 -61 -35 -94l-37 -104l-36 -105q-2 -4 -8.5 -19.5l-10.5 -25.5q-12 -23 -29 -47q-15 -22 -36 -37q-18 -13 -39 -13q-4 0 -9 1 q-35 6 -49 26q-18 25 -20 48zM207 109q-1 12 -1 24q0 19 3 37q10 57 12 63l19 48l18 49l43 100q14 33 39 102q10 27 20 60q14 49 19 57q12 41 20 62q10 31 23 61q12 29 29 82q12 37 28 82q20 53 31 78q4 12 31 78l12 30q6 14 14 29q23 43 66 72q41 27 88 43q70 18 88 22 l90 19q31 6 78 14t78 14q49 4 71 4q45 0 68 -4q29 -6 43 -20q18 -18 29 -37q8 -20 14 -43q3 -11 3 -22q0 -14 -5 -29q-10 -20 -23 -25q-20 -8 -30 -10q-20 -4 -33 -4q-23 0 -31 -2q-37 -2 -108 -2q-49 0 -111 -11q-47 -10 -108 -40q-55 -28 -93 -80q-6 -8 -43 -78 q-25 -45 -34 -80q-2 -6 -7 -14q-2 -2 -3 -7.5t-1 -7.5q41 0 62 2q41 4 59 6q10 0 31.5 2.5t32.5 2.5q31 2 59 0q25 0 70 -5q31 -2 59 -20q25 -25 25 -53q0 -43 -13 -70q-6 -16 -22 -33q-12 -12 -35 -16q-29 -8 -37 -8h-37q-29 -2 -84 -2q-31 0 -88 -4q-51 -4 -88 -15 q-47 -14 -88 -37q-27 -43 -43 -94q-20 -61 -35 -94l-37 -104l-36 -105q-2 -4 -8.5 -19.5l-10.5 -25.5q-12 -23 -29 -47q-15 -22 -36 -37q-18 -13 -39 -13q-4 0 -9 1q-35 6 -49 26q-18 25 -20 48z" />
</font>
</defs>
</svg>
