<?xml version="1.0" standalone="no"?>
<!DOCTYPE svg PUBLIC "-//W3C//DTD SVG 1.1//EN" "http://www.w3.org/Graphics/SVG/1.1/DTD/svg11.dtd" >
<svg xmlns="http://www.w3.org/2000/svg">
<metadata>
This is a custom SVG webfont generated by Font Squirrel.
Copyright   : Copyright c Iconian FontsShyFonts Type Foundry 2000
</metadata>
<defs>
<font id="webfontH1OUtK4C" horiz-adv-x="1089" >
<font-face units-per-em="2048" ascent="1638" descent="-410" />
<missing-glyph horiz-adv-x="896" />
<glyph unicode=" "  horiz-adv-x="896" />
<glyph unicode="&#x09;" horiz-adv-x="896" />
<glyph unicode="&#xa0;" horiz-adv-x="896" />
<glyph unicode="!" horiz-adv-x="662" d="M68.5 111q1.5 29 10.5 58l5 12q12 34 37 63t57 50t67 33t67 14l-3 2q-22 16 -30 41.5t-6 52.5q2 31 7.5 61t18.5 65q27 72 54.5 135.5l56.5 124.5q19 33 32.5 62l25.5 57l27 77l4 12.5l4 12.5l11 28q18 51 46.5 105.5t64.5 111.5q44 59 100.5 96t114.5 37h8q5 0 10 -2 q6 -3 16 -3q29 -9 42.5 -28t18.5 -42l62 -98q11 -18 14.5 -40.5t5.5 -44.5q-2 -35 -6.5 -68.5t-15.5 -64.5l-2 -4q-36 -94 -88 -186l-106 -186h1l-16 -26l-16 -27l-33 -51.5l-35 -53.5l-44 -70t-47 -69t-55.5 -65.5t-68.5 -60.5l51 -80q2 -4 4.5 -7.5t3.5 -7.5 q11 -32 9 -67.5t-15 -71.5l-6 -12q-13 -35 -39.5 -66t-60.5 -54t-71 -36t-71 -13h-19q-31 5 -53.5 20t-38.5 38l-60 94q-18 16 -30 38.5t-17 48.5t-3.5 55zM112.5 107q0.5 -32 11.5 -58t32 -44t52 -22q28 -3 59.5 6t60.5 27.5t52 44.5t35 55q13 33 17 66.5t-5 59.5 q-12 29 -41.5 42t-62.5 15q-27 2 -59 -6t-61 -25t-51.5 -41.5t-30.5 -55.5q-9 -32 -8.5 -64zM319 451q-4 -29 7.5 -53t40.5 -26q51 32 90 75.5t71.5 92.5t62 100t61.5 97l122 209t102 211q10 31 14.5 61.5t7.5 59.5l-4 30.5t-7 29t-14.5 23.5t-24.5 15q-23 6 -48 0.5 t-50.5 -20.5t-50 -38.5t-45.5 -52.5q-31 -48 -56 -96t-42 -97q-13 -34 -23 -66t-23 -66l-28.5 -66t-32.5 -65q-59 -123 -108 -246q-10 -29 -14.5 -56.5t-7.5 -55.5z" />
<glyph unicode="&#x22;" horiz-adv-x="889" d="M427 913q-2 45 9.5 93t29.5 98q17 44 40 87t49 86q2 2 3 4t3 4l12 12q25 33 56.5 66t82.5 57q11 5 26.5 9.5t32.5 4.5h7q35 0 52 -18t23 -44l21 -36q29 36 69 61.5t83 25.5q1 0 2.5 -0.5t4.5 -0.5h11q36 -12 54 -34t25 -52l61 -94q15 -24 18 -55.5t-1.5 -66t-13.5 -70 t-18 -67.5q-2 -6 -3.5 -12.5t-3.5 -11.5t-5 -10t-5 -10l-34 -80.5t-43 -81.5t-59.5 -75.5t-83.5 -63.5q-3 -1 -6 -1q-2 0 -6 -2q-9 -7 -21 -7l-18 -3h-17q-41 0 -57 27l-48 73q-19 -23 -44.5 -44t-57.5 -38q-18 -6 -33 -7t-30 -1q-22 4 -35.5 14.5t-22.5 24.5l-63 97 q-16 11 -25.5 27.5t-14 36t-5.5 40t-1 38.5zM473 928q0 -19 1.5 -40t7.5 -39t18 -31.5t34 -17.5q11 0 20 0.5t19 5.5q43 22 71.5 56.5t48.5 74.5t34.5 82t31.5 78q17 45 30.5 92t22.5 105q1 16 0.5 34t-6 32.5t-17.5 23.5t-33 7q-11 0 -22.5 -4t-21.5 -8q-41 -18 -70.5 -54 l-54.5 -69q-23 -37 -43.5 -75.5t-34.5 -76.5q-16 -45 -26 -89t-10 -87zM749 876q0 -14 1.5 -30t6.5 -28.5t16 -20.5t29 -7h5l17 4q5 1 10.5 3t10.5 3q42 24 72 58t53 72.5t40.5 79l32.5 77.5l24.5 84.5t17 87.5t-9.5 74.5t-53 45.5q-21 4 -42 -4t-39.5 -22.5t-33.5 -34 t-25 -38.5q-22 -45 -38 -89.5l-32 -89.5l-8 -21.5t-9 -21.5l-15 -39q-13 -36 -20.5 -72t-10.5 -71z" />
<glyph unicode="#" horiz-adv-x="1183" d="M296.5 639q-10.5 32 0.5 69l3 9q11 31 29.5 53.5t42.5 38.5t51 26.5t55 16.5l-24 39q-11 8 -18.5 18t-13.5 21q-8 25 -9 52.5t10 56.5l5 14q21 36 48 59t57.5 37t62.5 21.5t61 12.5h2q18 30 41.5 59.5t51 52.5t59 37.5t66.5 14.5h5q38 0 63 -21t31 -53l26 -48 q13 21 29 41.5t36 36.5t44.5 27.5t54.5 14.5q29 -4 53 -16.5t41 -29.5q8 -11 15 -22.5t8 -27.5l64 -95q2 -7 5 -14t5 -14q10 -9 15 -20t9 -24v-2l65 -99q11 -18 14 -40.5t-6 -51.5l-3 -7q-9 -23 -25 -43.5t-37 -37t-45 -27.5t-47 -15l51 -80q18 -24 5 -66l-3 -9 q-11 -31 -29 -51t-38 -39q-5 -4 -9 -9t-6 -7l-3 -3q-32 -20 -62 -36.5t-61 -18.5h-2l-7 -1l-3 -7q-2 -3 -4.5 -9t-4.5 -8q-2 -6 -7.5 -16.5l-9.5 -18t-5 -8.5q-29 -42 -75 -68.5t-90 -35.5h-9q-29 0 -47.5 9.5t-29.5 24.5l-56 89q-14 -26 -37.5 -47t-47.5 -35 q-60 -39 -122 -39q-22 5 -36 15t-23 24l-65 99q-25 20 -34 51q-20 13 -33 33l-61 97q-26 18 -36.5 50zM337.5 674q2.5 -17 11 -30t23 -21.5t32.5 -9.5q17 -5 36.5 -4.5t39.5 -0.5q-5 -24 -10 -52t-3 -52.5t13.5 -43.5t38.5 -25q48 0 95 33q21 11 41.5 30.5t27.5 42.5l22 60 q27 1 53 -1.5t53 -2.5q-9 -25 -14.5 -53.5t-2.5 -53.5t17.5 -41t46.5 -16q35 7 70.5 27t57.5 52q8 11 13.5 23.5l10.5 24.5q5 11 11 22t10 22h3h17l19 2q26 2 48.5 15.5l47.5 28.5l38.5 41t27.5 46t-1.5 41t-28 24t-41.5 13t-41 9l35 99h57q18 1 37.5 9t36.5 20.5t30.5 29.5 t18.5 35q9 29 2 50t-23.5 35.5t-40 23t-46.5 12.5l4 16l5 17l6 19q3 23 -1.5 42t-18.5 33q-13 14 -31.5 24.5t-40.5 12.5q-29 -3 -51 -19.5t-39 -39.5t-30 -48.5l-25 -47.5q-26 0 -52 1l-52 2l24 63q7 19 5 35.5t-11 29.5t-23 20t-32 6q-31 1 -58.5 -14t-50.5 -38.5 t-41 -51.5t-30 -53q-27 -6 -57.5 -11t-60.5 -15.5t-56 -28.5t-42 -48q-11 -23 -10.5 -44t6.5 -39q11 -16 23.5 -29.5t36.5 -11.5q15 -2 32.5 -1t34.5 3q-11 -25 -21 -50l-20 -49q-26 -2 -58 -7.5t-62.5 -18t-55 -33.5t-34.5 -54q-5 -19 -2.5 -36zM782 823l37 100h104 l-16 -48.5l-16 -48.5q-27 -2 -54 -2t-55 -1z" />
<glyph unicode="$" horiz-adv-x="1085" d="M188 509q2 23 8 46q2 1 1 2t-1 3l4 7q8 22 24 40.5t36 31.5t42.5 20t43.5 7h11q19 -3 38 -8t38 -11l-3 5l-58 89q-31 24 -43 63.5t6 89.5l5 14q16 34 41.5 61t56.5 48t63.5 36.5l61.5 28.5q51 22 104.5 39.5t107.5 28.5l15 31l14 29l20 43q11 20 21 42t20 41 q17 28 39.5 58.5t50 55.5t61 41t71.5 16h5q30 -2 60.5 -12.5t47.5 -37.5q8 -8 14 -20t8 -26l65 -99q14 -20 15 -48t-10 -59q-11 -29 -24.5 -59t-33.5 -59l-3 -3q17 -14 30.5 -34t20.5 -46l59 -91q16 -23 21 -53t-5 -65l-2 -1q-9 -26 -26.5 -44.5t-39 -30.5t-44.5 -18t-44 -6 h-9t-11 1q-5 0 -8.5 1t-8.5 1h-29q2 -5 3.5 -10t1.5 -10l58 -87q20 -31 25.5 -70t-10.5 -84q-26 -62 -78 -112t-111 -86q-49 -29 -101 -51t-106 -36q-1 -9 -3.5 -18t-4.5 -18q-2 -8 -5 -17t-7 -17q-2 -7 -3.5 -13l-3.5 -14l-8 -27.5t-11 -30.5l-3 -12q-2 -5 -5 -10.5 t-5 -10.5q-13 -32 -28 -62t-42 -61v2q-20 -25 -44.5 -42.5t-50.5 -28.5t-52 -16t-49 -5h-7q-29 0 -53 11t-38 33l-63 99q-15 12 -25.5 28.5t-11.5 39.5q2 14 7 29l11 33l9 24q6 18 13.5 33.5t13.5 31.5l2 3l10 23l10 25l6.5 12.5t5.5 12.5q-22 16 -39 35.5t-31 41.5l-53 80 q-24 26 -41.5 56t-26.5 66q-5 18 -3 41zM234.5 522.5q-1.5 -16.5 2.5 -30.5q22 -81 85.5 -131.5t151.5 -63.5q-27 -69 -63 -138q-14 -35 -29.5 -67.5t-26.5 -67.5q-11 -26 -15 -51q2 -29 24.5 -43t51.5 -14q20 0 42 3t44 11.5t42 22t35 33.5q26 30 41 62.5l29 64.5 q10 24 16 48t14 49q8 24 15 48.5t16 48.5q55 13 111.5 36.5t110.5 54.5q51 31 96 73.5t68 95.5q14 44 3.5 81.5t-34.5 63.5q-27 27 -57.5 51t-62.5 44q-8 8 -18 14.5t-19.5 13.5t-17 16t-8.5 23l17 12q9 -2 16.5 -3t16.5 -2q26 2 47 -3.5t45 -7.5q20 -5 44 -5.5t48 -2.5 q15 -3 33 -1t35.5 9t32 20t20.5 33q6 21 4.5 39.5t-8.5 34.5t-18 29.5t-24 24.5q-27 23 -58.5 42.5t-70.5 26.5q23 53 58 105q36 54 52 108q11 28 8 53t-21 41q-11 20 -35.5 27.5t-50.5 9.5q-27 1 -51.5 -12t-46 -33t-39.5 -44.5t-31 -46.5q-29 -53 -53.5 -107t-51.5 -107 q-57 -10 -114.5 -27.5t-115.5 -42.5q-26 -11 -53.5 -24.5t-53.5 -30.5t-47.5 -38t-34.5 -48q-12 -26 -11 -48.5t10 -41t25.5 -32.5t36.5 -22l101 -29.5t99 -31.5q18 -6 36.5 -16.5t31.5 -25.5t18 -35.5t-4 -45.5q-6 -12 -16 -18.5t-21 -9.5t-23 -4t-22 -2q-36 0 -68.5 7 t-64.5 15q-20 11 -42 18t-42 18q-20 9 -42 15.5t-45 8.5q-14 1 -30 -3t-30.5 -13t-24.5 -22t-12 -29q-5 -17 -6.5 -33.5z" />
<glyph unicode="%" horiz-adv-x="1427" d="M113.5 -43q-8.5 44 9.5 94q15 36 39.5 65.5l49.5 57.5v2h-2l24 27l149.5 164.5l150.5 163.5q9 10 19 20t19 21q-22 11 -39.5 26t-29.5 37l-56 87q-37 31 -49 80q-16 51 -9 106.5t27 115.5l9 24q27 59 63 117.5t87 111.5h-2q58 59 131 98t144 47q17 4 32 5t26 1 q69 0 113.5 -33.5t64.5 -87.5l58 -90q1 -4 2.5 -8.5t4.5 -8.5l121 131l124 126l-1 -1q3 3 6 5l-3 -4q13 15 29 30.5t34 29t39.5 23t46.5 13.5q50 -4 86 -30.5t45 -70.5l61 -93q14 -23 17 -50.5t-10 -59.5l-1 -8q-36 -71 -88.5 -132l-106.5 -121l-34 -36.5l-33 -36.5l-87 -90 l-85 -89h-2l-46 -47q49 -8 85 -34.5t50 -70.5l63 -99q14 -21 21 -46l-2 1q13 -48 6 -100.5t-27 -105.5l-10 -26q-27 -67 -70 -129.5t-100 -116.5q-30 -27 -63.5 -51t-69.5 -42.5t-72.5 -30t-71.5 -14.5l-22 -2t-24 -1q-51 0 -85.5 19t-54.5 51l-60 92q-24 20 -37.5 49.5 t-18.5 64.5l-71 -75l-69 -75q-23 -22 -45 -48.5l-44 -55.5q-8 -8 -15 -17t-14 -17l2 -2q-24 -32 -59 -49t-66 -17h-10q-32 2 -54.5 15.5t-35.5 33.5l-63 99q-32 24 -40.5 68zM156.5 -3q0.5 -25 10 -44.5t28.5 -32t46 -14.5q22 -2 46.5 9.5t41.5 33.5l60.5 74.5t62.5 72.5 l287.5 306l293.5 305l170.5 177l170.5 178l68.5 74.5l69 76t63 78.5t50.5 83q11 29 8 53t-16.5 42t-35.5 28.5t-48 12.5q-17 -2 -32.5 -10.5t-29.5 -20t-27.5 -25l-25.5 -26.5l-228 -238.5l-224 -242.5q17 27 29 55t20 54q31 63 36.5 126.5t-16 112.5t-69.5 74t-123 12 q-60 -5 -121.5 -37t-110.5 -83q-51 -49 -84 -104.5t-59 -112.5q-25 -57 -33 -114.5t9 -105.5q14 -51 59.5 -80t105.5 -27q49 -2 101 13.5t101 46.5l-273.5 -296.5l-271.5 -296.5l-56.5 -64.5t-43.5 -70.5q-10 -27 -9.5 -52zM660.5 971.5q-1.5 8.5 0.5 18.5t5 19 q11 24 19 47.5t20 46.5q6 10 13.5 21t17.5 20.5t21 16t23 6.5q17 3 28 -5t13 -22q-4 -17 -10 -33.5l-12 -33.5q-7 -17 -17 -37.5t-24 -38t-32 -29.5t-40 -12q-12 -2 -18 2.5t-7.5 13zM741.5 185q-6.5 -61 10.5 -108.5t60 -73t115 -13.5q63 4 128 38t117 85q53 50 93 107.5 t64 117.5q23 54 33 108.5t-3 101.5q-11 50 -54.5 76.5t-101.5 24.5q-68 8 -137.5 -20t-128.5 -78.5t-102 -115.5t-58 -131q-29 -58 -35.5 -119zM986 263q9 45 29 89q4 13 13 26.5t20.5 24t25.5 17t29 5.5q16 0 22.5 -9t6.5 -23q0 -13 -5 -28.5t-11 -28.5l-2 -1l-5 -18 l-8 -18q-4 -13 -10.5 -25.5t-11.5 -26.5q-9 -13 -22.5 -22.5t-27.5 -7.5q-24 -3 -35.5 10.5t-7.5 35.5z" />
<glyph unicode="&#x26;" horiz-adv-x="1253" d="M206 279q-16 99 23 211l7 17q15 41 40 80t58 74.5t72.5 66.5t81.5 55q-14 26 -24.5 54t-15 58.5t-1.5 63t16 68.5l3 11q2 2 3.5 4.5t1.5 5.5q16 43 43 82.5t60.5 75t72.5 66t78 54.5q83 51 168 77.5t165 26.5h12q58 0 108 -9.5t95 -27.5q19 -8 38 -18.5t34.5 -24t27 -31 t16.5 -39.5l62 -94q11 -18 16.5 -40t-1.5 -50l-5 -11q-11 -35 -34.5 -61.5t-49.5 -50.5q-5 -4 -9 -8.5t-9 -8.5q5 -9 9.5 -18t7.5 -20l59 -95q18 -27 19.5 -63t-12.5 -74l-3 -12q-45 -122 -99.5 -237l-112.5 -232q-5 -9 -10 -20t-10 -19q-39 -69 -87.5 -138.5t-126.5 -126.5 q-38 -24 -76.5 -40t-77.5 -26t-77.5 -14.5t-75.5 -6.5h-14q-53 0 -99 12.5t-85.5 35t-71.5 53t-56 66.5l-49 75q-20 23 -36 50q-53 74 -69 173zM251 296.5q15 -90.5 63 -159.5q23 -35 54 -65t69.5 -51t84.5 -32t98 -9q68 4 138.5 19t139.5 59q33 24 60.5 52.5t51 60 t43.5 64.5l38 65l122.5 250.5t105.5 251.5q13 30 14.5 59t-8.5 51.5t-31.5 36t-54.5 12.5q-19 3 -40 -2.5t-40.5 -17t-36 -27.5t-28.5 -35q-36 2 -69.5 9t-67.5 13l-67 16.5t-59 27.5q-24 20 -23.5 55t13.5 68q5 12 17.5 18l23.5 11q22 10 48 12q35 -1 69 -6.5l69 -11.5 q32 -7 62.5 -15t65.5 -9q27 0 52 18t45 38q23 22 43 45.5t29 50.5q6 27 -1.5 47.5t-22.5 37t-35.5 28t-41.5 20.5q-45 18 -95.5 27.5t-105.5 8.5q-74 0 -150.5 -24.5t-151.5 -69.5q-37 -23 -71.5 -50t-64.5 -58.5t-53.5 -66t-37.5 -71.5q-19 -41 -21.5 -78.5t5.5 -71.5 t22.5 -65t30.5 -58q-46 -21 -90.5 -51t-82 -67t-66 -79.5t-41.5 -87.5q-35 -103 -20 -193.5zM532.5 429q-0.5 22 10.5 47q25 47 64 70t84 33t90.5 11t83.5 4q23 -2 46.5 -4.5t44.5 -7.5l-67 -149.5l-68 -149.5l-15 -1l-19 -2l-21 -2q-50 0 -93.5 12.5t-78.5 37.5 q-17 11 -31 26t-22 34t-8.5 41zM660 345q52 -24 118 -24l17 2l23 52l23 50q-26 -2 -53 -6.5t-51 -13.5t-44 -23.5t-33 -36.5zM975 942h3l2 2h-2zM980 944q6 -4 15 -4q3 -1 10 -1q18 -4 38.5 -7t40.5 -7q1 2 2 2t1 1l-55.5 9.5t-51.5 6.5zM1444 1193l3 -3z" />
<glyph unicode="'" horiz-adv-x="584" d="M403.5 906q3.5 40 16 83t25.5 83q2 4 2.5 9t3.5 10l6 18q16 42 36.5 81.5t42.5 77.5q5 5 7 9q28 41 59.5 80.5t73.5 62.5q22 9 42.5 14t40.5 5q32 -5 50 -25t26 -47l61 -99q15 -23 17.5 -53.5t1.5 -59.5l1 -1q0 -45 -8 -92t-26 -96v-2q-17 -42 -37 -84.5t-51 -89.5 q-6 -4 -7 -8q-14 -21 -29.5 -41.5t-33 -39t-38 -34t-44.5 -25.5h-2q-15 -7 -31.5 -9.5t-31.5 -2.5q-25 8 -40.5 20t-26.5 28l-61 95q-30 23 -39.5 58t-6 75zM451 924.5q-4 -30.5 0.5 -56.5t19 -45t43.5 -28q10 0 20 2t21 7q22 9 40 24t33.5 33t29 37.5l26.5 38.5 q26 38 44.5 77.5t34.5 79.5q17 45 24 88.5t7 85.5q1 19 0.5 40.5t-6 40t-17 31.5t-32.5 16q-25 0 -46 -10q-20 -10 -37 -25t-31.5 -32t-27 -35.5l-24.5 -35.5q-44 -73 -73 -149l-19 -58.5t-18 -63.5t-12 -62.5z" />
<glyph unicode="(" horiz-adv-x="1031" d="M192 391q10 102 49 208l3 12q42 116 103.5 226.5t138.5 213.5q85 111 187.5 210.5t227.5 177.5q56 32 112 56t113 24h12t16 -2q42 -5 67.5 -28.5t36.5 -58.5l63 -97q20 -29 21 -69.5t-14 -82.5l-4 -10q-19 -38 -51 -55.5t-63 -30.5l-15 -6q-89 -36 -170.5 -98 t-143.5 -140q-68 -84 -112.5 -176t-79.5 -184l-23 -70t-18.5 -69.5t-10.5 -67.5t1 -64q18 -18 36.5 -33t38.5 -27q9 -6 19.5 -12t21.5 -10l14 -7l14 -7l5.5 -3t7.5 -5q3 -3 8.5 -6t10.5 -4v-2q11 -8 18 -19.5t11 -25.5l67 -105q18 -29 3 -69v-1q-14 -35 -39.5 -65.5 t-57 -54.5t-67.5 -39.5t-70 -19.5h-1q-9 -2 -20 -2h-20q-53 0 -96 17t-78 46l2 -2q-32 23 -56.5 50t-44.5 59l-44 70q-49 53 -78.5 120t-44.5 142q-16 94 -6 196zM237.5 401.5q-8.5 -97.5 6.5 -186.5q18 -90 58.5 -168.5t112.5 -131.5q35 -30 83 -46.5t106 -8.5 q29 3 58 15.5t55 31.5t46.5 43.5t31.5 52.5q5 17 2.5 32t-15.5 21l-52 27.5t-52 30.5q-52 36 -95 83.5t-61 111.5q-7 34 -5.5 70.5t9 75t19 77.5t25.5 77q36 96 83 191.5t118 184.5q67 84 155 151t185 105q13 6 27 11.5t27 13t24 17t18 23.5q12 30 13.5 59t-8 52.5t-29.5 39 t-51 18.5q-52 6 -107.5 -15.5t-108.5 -53.5q-115 -72 -214 -167.5t-180 -202.5q-78 -104 -139 -214.5t-100 -222.5q-37 -100 -45.5 -197.5z" />
<glyph unicode=")" horiz-adv-x="1029" d="M136 -53q-13 37 1 85l3 9q8 22 27.5 47t45.5 40l12 3q2 0 3.5 1t3.5 1l2 2l10 5l18 8t25 6q46 16 89.5 42.5t82.5 59.5t74 71.5t66 78.5q71 91 122.5 188t89.5 196q23 65 27.5 129t-12.5 117q-53 47 -130 78q-1 0 -5 4q-13 8 -25.5 16.5t-18.5 22.5l-63 96 q-20 14 -30.5 35.5t2.5 59.5q15 40 43 71.5t62.5 53.5t72.5 35t72 18l1 1q28 6 67 6q56 0 102 -17t82 -46.5t61.5 -68.5t42.5 -82l41 -59q17 -30 31 -62.5t22 -65.5l2 -2q31 -116 23 -248.5t-59 -272.5q-26 -70 -62 -139t-80.5 -136t-94.5 -132.5t-104 -128.5l-70 -77 t-77.5 -78.5t-84 -73t-89.5 -60.5t-94.5 -41.5t-98.5 -15.5h-24q-35 5 -62 21.5t-44 43.5l-60 94q-28 24 -41 61zM177.5 -17.5q4.5 -24.5 19 -43.5t36 -31t47.5 -16q69 -5 136.5 25t131 78.5t120.5 108.5l105 114q104 123 191.5 252.5t138.5 266.5q48 133 55.5 260.5 t-21.5 239.5q-13 55 -39.5 105t-68 86t-98.5 52.5t-129 4.5q-28 -3 -59 -13.5t-59 -27.5t-50.5 -40.5t-34.5 -53.5q-5 -16 -2 -27.5t11 -20.5t19 -15l22 -12q66 -26 118.5 -68.5t84.5 -102.5q35 -63 33.5 -146t-32.5 -168q-38 -103 -92.5 -203.5t-129.5 -195.5 q-33 -44 -71 -86t-81 -79t-91.5 -66.5t-100.5 -46.5q-17 -3 -33.5 -10.5t-33.5 -13.5q-15 -9 -25 -24t-14 -29q-8 -29 -3.5 -53.5z" />
<glyph unicode="*" horiz-adv-x="980" d="M292.5 670q-7.5 31 2.5 69q35 60 85 97t103 65q-15 15 -28 32.5t-21.5 37.5t-11.5 44t3 52q15 30 39.5 57.5t54 49.5t61.5 35t63 15h6q22 0 37.5 -7.5t28.5 -18.5q8 17 19.5 32.5l23.5 30.5q16 18 35.5 34t40.5 28.5t43 19.5t43 7h3q39 -2 67 -23.5t36 -56.5l32 -53 q13 4 25 5.5t25 2.5q40 -5 65.5 -28.5t33.5 -58.5l63 -97q27 -41 12 -97l-2 -5q-11 -31 -33.5 -62.5t-60.5 -48.5l-5 -2q-24 -13 -49.5 -24.5t-49.5 -24.5l55 -86q13 -17 11.5 -40.5t-10.5 -48.5q-1 -4 -3.5 -10t-4.5 -10q-11 -23 -28 -48.5t-44 -48.5h2 q-26 -25 -57.5 -41.5t-62.5 -20.5q-26 0 -44 6.5t-32 15.5q-17 -23 -38.5 -40.5t-43.5 -30.5q-32 -20 -67.5 -29.5t-64.5 -11.5q-47 4 -66 34l-60 92h-26q-31 0 -52.5 12t-39.5 27q-5 4 -9 9l-8 10l-65 103q-3 0 -3 3l-2 -2q-19 18 -26.5 49zM336 734q-6 -25 0.5 -44.5 t20.5 -32.5q15 -13 33.5 -23.5t44.5 -8.5q13 -2 28 2.5t30 12l30.5 16l29.5 15.5q-8 -24 -15.5 -53.5t-7.5 -55.5q0 -25 12 -43t42 -21q52 3 105 34q25 14 46 34.5t30 44.5q4 7 6 14t4 13q18 -17 40 -33t54 -16q22 2 44.5 15t42.5 31q19 17 33 38.5t25 41.5q11 23 12 47 t-16 37l-52.5 44.5l-52.5 45.5l96 51l96 48q26 11 41 34t23 45q11 44 -10 76.5t-62 39.5q-36 -2 -73 -19.5t-72 -40.5l19.5 42.5t16.5 42.5q6 21 2.5 38.5t-13.5 31t-26 21.5t-35 8q-31 2 -63 -17t-55 -46q-23 -28 -39 -58t-29 -61l-5 -12l-16 23t-18 22.5t-22.5 17 t-30.5 5.5q-23 -1 -47 -10.5t-45 -25t-38.5 -35.5t-28.5 -42q-6 -29 1 -53t20.5 -44t31 -37.5l34.5 -34.5q-29 -17 -61 -33.5t-62 -35.5t-56 -42.5t-43 -53.5z" />
<glyph unicode="+" horiz-adv-x="945" d="M241.5 637q-3.5 29 7.5 63l4 8q28 48 65 75.5t77.5 42.5t81.5 20.5t78 8.5q15 38 39 80t56.5 77.5t73.5 58.5t92 23h1q42 -2 70 -25t33 -60l63 -96q9 -15 13 -36t-1 -46q29 -11 51.5 -29t28.5 -49l65 -101q11 -18 13 -43.5t-10 -58.5v-2q-11 -28 -32 -53.5t-47.5 -45.5 t-56.5 -32t-60 -13q-18 0 -33.5 -0.5t-32.5 -2.5q-11 -2 -20 -2h-16l-5 -13q-5 -17 -12.5 -36t-15.5 -36q-15 -35 -42 -61.5t-58 -45.5q-31 -21 -66 -34t-67 -13q-46 13 -67 43l-65 99q-22 18 -31.5 44t-7.5 57q-42 11 -60 44l-61 97q-12 8 -19 19t-12 22q-11 23 -14.5 52z M285.5 655.5q2.5 -23.5 13.5 -42.5q8 -20 25 -32.5t43 -13.5q29 -3 58.5 -2.5t59.5 0.5q-8 -32 -18.5 -70t-12.5 -73t10 -61.5t48 -34.5q26 0 53.5 10.5t52.5 27.5q24 15 45 35t32 46q13 30 23 60.5t21 59.5q35 0 71 2.5t71 2.5q21 1 43 10t42 24t35 34t23 40q15 41 2 66.5 t-41 40t-65 19t-70 3.5q-5 0 -10.5 1t-10.5 1q14 36 23 70t22 70q6 21 3.5 39t-12.5 32t-26 22.5t-37 8.5q-41 1 -75 -21t-60.5 -54.5t-45.5 -70.5t-30 -70l-7 -19q-34 -4 -74.5 -7t-80.5 -13t-75.5 -31t-59.5 -60q-11 -26 -8.5 -49.5z" />
<glyph unicode="," horiz-adv-x="613" d="M-12 -149q-2 18 0.5 37t8.5 37l1 7q26 69 72.5 128.5t96.5 115.5l17 15l-3 -2q4 5 8 9l9 9l52.5 48.5t57.5 45t63.5 34.5t70.5 17q36 -5 60.5 -22.5t29.5 -51.5l67 -101q5 -8 8.5 -17.5t3.5 -22.5q0 -26 -5 -52.5t-14 -53.5l-1 -2q-16 -40 -41 -76.5t-55 -70.5 t-63.5 -65.5l-66.5 -60.5q-5 -4 -12.5 -8.5t-9.5 -8.5q-17 -15 -36 -30t-39.5 -27t-43 -20t-47.5 -8q-4 0 -7.5 0.5t-7.5 0.5h-10t-10 2q-40 8 -55 32l-68 104q-14 10 -21.5 25t-9.5 33zM32.5 -108q-1.5 -18 3 -32.5t15 -24.5t29.5 -12q8 -2 15 -2q8 0 14 -2q21 1 41.5 9.5 t39.5 21.5t37.5 28.5l35.5 29.5q32 27 63 56t59 60.5t50.5 65t37.5 69.5q9 24 13 48t4 47q-2 26 -19.5 39t-43.5 16q-33 -2 -63.5 -17.5t-59 -38t-55.5 -49l-51 -49.5q-48 -53 -92.5 -109.5t-66.5 -118.5q-5 -17 -6.5 -35z" />
<glyph unicode="-" d="M317 634q-7 30 7 67l4 12q33 47 72 74t81 41t84 18.5t80 6.5h15q5 0 8.5 1t7.5 1q11 -2 20 -2h21q5 0 10 -0.5t12 -0.5h24q5 0 10.5 -1t11.5 -1h26q11 -2 21 -2h21q44 0 91.5 -2.5t98.5 -9.5q18 -5 35.5 -12.5t32 -19t24 -27t12.5 -35.5l65 -97q10 -18 13 -41t-8 -54 l-2 -6q-14 -29 -37.5 -52.5t-52 -41.5t-59 -28.5t-57.5 -13.5q-66 -4 -129.5 -5.5t-126.5 -1.5q-44 0 -88 1t-88 1h-58q-31 5 -55 18.5t-37 35.5l-65 98q-15 14 -22 27q-16 22 -23 52zM362.5 654.5q6.5 -23.5 19.5 -41.5q25 -38 74 -45l240 -2t243 7q22 2 45.5 10.5t45 22.5 t39.5 32t28 40q10 25 5.5 45t-17 34.5t-31.5 23.5t-39 14q-44 5 -88 8t-89 3q-23 0 -45 1.5t-45 1.5q-23 2 -46 2q-22 0 -45 1q-34 -2 -73.5 -5t-79 -12.5t-75.5 -30.5t-62 -59q-11 -27 -4.5 -50.5z" />
<glyph unicode="." horiz-adv-x="637" d="M91.5 36q-7.5 53 12.5 109l7 17q16 40 46 75.5t67 62.5t78.5 42.5t81.5 15.5h17q49 0 82.5 -24t42.5 -66l63 -96q15 -26 18 -59t-11 -70l-4 -11q-14 -39 -42 -76t-64 -69l2 -1q-38 -35 -85.5 -58t-93.5 -23h-9q-35 0 -61.5 14.5t-42.5 37.5l-61 97q-36 29 -43.5 82z M134.5 92q-3.5 -35 7 -62.5t35 -44.5t64.5 -14q35 0 73.5 18t69.5 47q32 28 55.5 61.5t36.5 69.5q12 31 9.5 59.5t-16.5 49.5t-39 32t-58 8q-32 0 -65 -12t-63 -33t-53.5 -49.5t-36.5 -59.5q-16 -35 -19.5 -70z" />
<glyph unicode="/" horiz-adv-x="971" d="M22.5 -0.5q-6.5 32.5 6.5 70.5l5 14q22 59 56.5 110.5l69.5 100.5q3 3 5.5 6.5t5.5 5.5l29.5 39l31.5 40q8 10 16.5 19t16.5 20l22.5 29t23.5 29l22.5 29l24.5 31h2l103 135q10 14 21 27t21 27l33.5 44.5t33.5 42.5l198.5 238.5l205.5 232.5q24 27 53 56.5t61.5 54 t68.5 40.5t75 16h20q27 -5 51.5 -22t29.5 -46l68 -106q8 -13 9.5 -30.5t-6.5 -39.5l-5 -12q-11 -30 -28 -57.5t-37 -56.5l-10 -15l-22.5 -30l-21.5 -30l-32 -40.5l-31 -39.5h-2l-381.5 -493.5t-403.5 -476.5l-49 -50.5t-55.5 -49t-62 -37t-67.5 -14.5q-4 0 -11 0.5t-11 0.5 q-20 4 -33.5 13.5t-21.5 22.5l-65 101q-27 18 -33.5 50.5zM71.5 11q10.5 -27 42.5 -33q29 -5 58 7t56 32t51.5 45l44.5 47q211 233 404.5 477l379.5 489q28 34 53 68l51 67l43 64t32 67q6 16 2.5 28.5t-12 22t-20.5 15t-25 8.5q-31 4 -61.5 -9t-59.5 -35t-55.5 -49 l-48.5 -51l-205 -231.5l-198 -237.5l-107 -139l-106 -139l-93 -116l-93 -116q-40 -53 -77 -108t-56 -112q-11 -34 -0.5 -61z" />
<glyph unicode="0" horiz-adv-x="1217" d="M232 425q9 110 51 225l2 9q44 119 110.5 235.5t155.5 225.5q42 54 94 108t112 98.5t126 73t134 30.5h4q62 0 111 -14t86 -39t63 -60.5t43 -77.5l48 -73q36 -57 49.5 -130.5t9.5 -155t-22.5 -166t-46.5 -163.5l-15 -39q-44 -116 -108.5 -228.5t-159.5 -215.5h1 q-45 -53 -101 -98.5t-116.5 -80t-124.5 -54t-125 -19.5h-14q-77 0 -130 32t-87 84l-49 77q-40 39 -62 93.5t-30 112.5q-18 100 -9 210zM277 439.5q-9 -107.5 8 -205.5q7 -48 25 -93.5t48 -81t73.5 -57t102.5 -21.5q57 -2 116 15.5t115.5 49.5t108.5 75t95 92q92 98 154 207 t104 220q31 77 53 162.5t28.5 169t-5 159t-46.5 133t-97 91t-156 33.5q-60 -2 -118.5 -28.5t-112.5 -67t-102 -90.5t-87 -99q-85 -105 -149.5 -217t-106.5 -227q-42 -112 -51 -219.5zM528.5 390.5q1.5 31.5 9 65t18 67l19.5 61.5l65.5 166.5t89.5 179.5l40 60t48.5 60t57 47 t66.5 21q44 -5 68.5 -26.5t33.5 -53t6 -71.5t-12 -82t-22 -83.5l-24 -76.5q-27 -72 -60.5 -145t-86.5 -157q-20 -27 -45.5 -55t-55 -49.5t-61.5 -34.5t-65 -11q-36 3 -56 19.5t-27.5 41.5t-6 56.5zM654 316q21 3 42.5 15t41.5 29t39 38t34 42h1q48 78 79.5 147.5t57.5 137.5 l3 11q2 2 1 4.5t1 7.5q16 46 30.5 100.5t19.5 102.5q-24 -3 -46.5 -19.5t-42.5 -39t-37.5 -48.5l-32.5 -50h2q-56 -95 -90 -177.5t-61 -159.5l-21.5 -68t-20.5 -73zM1068 920q2 2 0 2v-2z" />
<glyph unicode="1" horiz-adv-x="683" d="M162 65.5q2 23.5 7 48t13 48.5l16 48q2 5 2.5 10t2.5 9l5 15l61 158l64 158l68.5 161l64.5 161l12 31q11 31 20 63t7 57q0 1 -1.5 2t-1.5 3l-4 6l-22 31t-17.5 34.5t-6.5 40.5t11 50l1 7q15 37 41.5 74t61.5 67.5t76.5 51.5t85.5 28q26 -6 39 -12l24 -11l4 -4t4 -3v-4 q54 -37 77 -104l57 -85q32 -51 38 -118.5t-15 -141.5l-12 -29q-1 -5 -1.5 -9t-3.5 -9l-13 -38q-29 -80 -60.5 -158l-66.5 -158l-26.5 -67l-27.5 -66l-47.5 -111.5l-43.5 -108.5l-15 -43q-8 -17 -12 -37l-34 -94q-11 -28 -28 -54t-37 -50l2 -2q-25 -32 -62 -58t-76 -34v2 q-11 -3 -17.5 -3.5t-10.5 -0.5q-35 0 -60 13.5t-39 36.5l-63 97q-14 11 -23.5 25t-15.5 31q-4 22 -2 45.5zM209 91q-3 -25 1 -47q9 -32 38.5 -49t70.5 -10q27 5 54 24t45 44q20 23 35 48t23 51l16 41l15 41q6 22 14 42.5t15 42.5q33 89 72 177.5l75 177.5l73 176t67 176 q4 11 7 23.5t8 23.5q13 44 15 86.5t-7.5 80t-29.5 68.5t-51 52l-25.5 15t-26.5 11q-34 -5 -66 -22t-59 -42t-48 -54.5t-33 -60.5q-10 -24 -8.5 -44.5t9 -37.5t19.5 -32.5l23 -29.5q3 -20 0 -42.5t-10 -45.5t-15.5 -47t-15.5 -46l-65 -162l-69 -162l-64 -157t-60 -157 l-16.5 -51t-15.5 -51.5t-10 -50.5z" />
<glyph unicode="2" horiz-adv-x="1253" d="M227 53.5q-3 25.5 1 53.5t14 55l4 14q31 82 88 157.5t120 144.5l76 81l78 81q26 29 55 56.5t56 56.5l-2 -2q5 5 9 9.5t9 9.5l12 12l18 18l-4 -1l59 66t57 69l-20.5 -10.5t-18.5 -10.5l-12 -17h-2l-8 -15l-10 -16h-2q-15 -24 -37.5 -46t-49 -38t-54.5 -25.5t-54 -9.5h-12 q-26 0 -46.5 9.5t-31.5 27.5l-65 101q-31 21 -34 60q-5 24 0 54t15 58l7 19q24 53 63.5 96.5t87 78.5t99 61.5t100.5 45.5q94 36 184 53t178 17h25q30 -1 54 -10t42 -24t30.5 -35t20.5 -42l58 -89h-2l2 -2q21 -34 29 -80v2q11 -54 4.5 -115t-26.5 -124l-5 -14 q-27 -73 -73 -139.5t-103 -129.5l-127.5 -131.5l-128.5 -129.5q-5 -5 -10 -9t-9 -9q31 5 59.5 9t55.5 9h8q35 0 58 -18t34 -42q3 -7 5.5 -14l5.5 -15l66 -103q11 -20 14.5 -46.5t-7.5 -58.5l-2 -6l-17 -23q-36 -30 -73.5 -51t-76 -37t-78 -28t-79.5 -23q-20 -5 -37 -10 l-35 -10q-95 -23 -189.5 -39t-185.5 -16h-33q-35 0 -57 13t-36 35l-64 99q-19 14 -30 35.5t-14 47zM271 104.5q-2 -31.5 6.5 -56.5t28.5 -41.5t54 -16.5q95 -4 195.5 12t202.5 41l90 25.5t92 28t89.5 37.5t83.5 55q11 26 8 48t-13 39q-9 20 -26.5 33.5t-43.5 11.5 q-100 -12 -202.5 -34t-205.5 -38q41 72 98.5 136.5t118.5 126.5l128.5 128.5l128.5 130.5q54 62 99 128t68 137q18 58 25 114t-4 106q-8 51 -38 88.5t-90 39.5q-88 3 -180.5 -13t-188.5 -53q-44 -18 -90.5 -41.5t-88.5 -54t-76.5 -68t-54.5 -82.5q-12 -27 -18 -55t-1 -51 q0 -29 21.5 -43t50.5 -12q20 0 42 7t43 19.5t38.5 30t29.5 37.5l12 16l10 17l14 18q26 25 56.5 37.5t61.5 22.5q32 12 64 19t64 8q15 1 24 -5t12.5 -15.5t2.5 -22t-7 -25.5q-32 -81 -90.5 -154.5t-122.5 -142.5l-155 -160.5l-152 -160.5l-61 -68t-56.5 -71.5t-48 -74.5 t-34.5 -77q-12 -30 -14 -61.5z" />
<glyph unicode="3" horiz-adv-x="1232" d="M252 99.5q-1 40.5 13 84.5q10 26 27 54t48 44q35 14 59 17t45 5q4 0 7.5 0.5t5.5 0.5h9q20 2 42.5 4t58.5 10l-2 -3q55 11 108 32.5t102 50.5q11 8 24.5 16t24.5 17l-59 -17t-58 -22h1l-32 -16h2q-20 -10 -45.5 -19.5t-59.5 -17.5q-33 4 -56 21.5t-36 39.5l-58 87 q-24 23 -34 46q-17 23 -21.5 53.5t4.5 66.5q10 28 27 52t38 44.5t44 37.5t46 31l-1 4q0 1 0.5 -1.5t-0.5 -0.5l-67 106q-8 4 -12 13v-1q-2 1 -2.5 3t-2.5 3h2h3l-2 2h-6l-6 7q-11 20 -16.5 46.5t8.5 66.5q24 42 55.5 75t67.5 60t74 49.5l74 43.5q4 3 6.5 4.5t9.5 6.5 q8 4 17 9.5t7 3.5q4 0 12 4l11 5l79 35.5t80.5 32t82 23.5t83.5 9q63 0 109.5 -26.5t79.5 -66.5q11 -16 19.5 -32.5t13.5 -34.5l44 -65q2 -4 3.5 -6.5t3.5 -6.5l3 -4q26 -40 33 -89.5t-11 -106.5q-15 -44 -41.5 -84.5t-55.5 -76.5q4 -6 4 -12l64 -98q32 -49 35 -116.5 t-23 -138.5l-8.5 -22t-8.5 -20q-23 -62 -61 -121t-86.5 -113t-104.5 -102.5t-115 -88.5q-55 -40 -114 -73t-119.5 -57t-121.5 -37t-119 -13q-8 0 -17 1t-17 1q-70 8 -104 60l-60 95q-28 20 -38 53q-18 32 -19 72.5zM297.5 114.5q1.5 -34.5 16.5 -61.5q11 -29 36 -46.5 t60 -21.5q57 -4 117 6.5t121 32.5t120.5 54.5t115.5 73.5q56 38 109.5 84t99 97.5t81.5 107t57 114.5q28 59 34.5 117t-9 105.5t-53 79t-97.5 37.5q48 52 91.5 108t65.5 116q18 55 8 102.5t-37 83.5q-29 36 -69.5 59t-96.5 23q-40 -1 -81 -10.5t-82 -24.5t-82 -34l-81 -37 l-77 -45t-77 -49.5t-69 -57.5t-53 -70q-5 -13 -5 -24t3 -21t7.5 -19t9.5 -18l14.5 -16t16.5 -14.5t19.5 -10.5t24.5 -3q47 18 91.5 42l89.5 48l105.5 53.5t106.5 35.5l5 -8q-4 -8 -9.5 -16.5t-9.5 -16.5q-8 -26 -24.5 -48.5t-37.5 -42.5t-45 -37t-48 -32l-109 -56.5 l-110 -56.5q-22 -12 -44 -26.5t-41.5 -32t-35 -38t-24.5 -43.5q-8 -28 -3 -52t19 -44q10 -20 27.5 -36.5t45.5 -19.5q29 8 57 21.5t58 26.5q83 37 166 52t161 15q13 -1 19 -8t7 -17.5t-2 -22.5t-8 -22q-11 -29 -29 -55t-41.5 -49t-50 -43t-54.5 -36q-57 -35 -115.5 -57 t-117.5 -35q-32 -7 -63 -9t-62 -5l-36.5 -4t-38.5 -10t-30.5 -26t-15.5 -35q-13 -37 -11.5 -71.5zM696 1290v2v-2z" />
<glyph unicode="4" horiz-adv-x="1157" d="M225 604q-5 17 2 44.5t19 58.5q24 66 60 127t78 120l90 117.5t99 114.5q26 29 55.5 56.5l62.5 56.5q29 26 63.5 52t78.5 40h15q38 0 62 -17t42 -38l11 -21.5t10 -24.5l22 -37l9.5 17l9.5 17q15 26 36.5 50t47 42t54 28.5t56.5 10.5q2 0 4 -0.5t5 -0.5h8q45 -5 71 -30 t37 -61l58 -90h-1t-1 1l5 -5q18 -28 21 -65t-9 -76l-21 -63.5l-21 -63.5l-18 -43.5t-17 -43.5l-39 -108l-41 -107q-1 -5 -3 -10.5t-4 -13.5q-1 -2 -0.5 -3.5t0.5 -3.5l21 -32q15 -24 18.5 -54.5t-10.5 -66.5l-3 -7q-20 -42 -52.5 -80.5t-78.5 -61.5l-5 -15q-2 -5 -4.5 -9.5 t-4.5 -9.5l-21.5 -64l-21.5 -64l-16 -47.5l-16 -46.5l-12 -32q-14 -34 -36 -69.5t-51.5 -66t-66 -52t-78.5 -25.5v1q-9 -2 -15.5 -2.5t-10.5 -0.5q-32 0 -56.5 12t-38.5 34l-63 99q-18 13 -29 32t-11 45q-5 36 6 76.5t27 82.5l17 47q2 5 5 11.5t5 12.5l12 31q-38 4 -75.5 11 t-73.5 18q-24 7 -48.5 16t-47.5 21.5t-43.5 30.5t-35.5 43l-53 83q-16 14 -29 31.5t-21 40.5zM273.5 657.5q-5.5 -24.5 1.5 -44.5q9 -24 27 -42t41 -30.5t49.5 -22t52.5 -16.5q57 -18 119.5 -23.5t126.5 -5.5q18 0 34.5 -0.5t33.5 -3.5q-2 -13 -7 -24.5t-8 -24.5 q-11 -23 -20 -47t-21 -47q-11 -23 -19.5 -47t-19.5 -47l-14.5 -43t-13.5 -43.5t-9 -42.5t-1 -40q0 -40 32 -58t74 -12q33 4 62 21.5t52.5 42.5t41 54.5t28.5 57.5l24 62.5t21 62.5q11 32 21 64.5t22 64.5l12.5 29t14.5 29q41 16 71.5 50t47.5 71q17 43 5.5 77t-41.5 51 q5 16 8 30.5t10 29.5l39 107.5l39 107.5l40 106t37 106q8 28 7 55t-11 48.5t-29 36t-47 17.5q-21 3 -43.5 -4t-43 -20.5t-37.5 -32t-28 -39.5q-26 -45 -45.5 -90.5t-36.5 -90.5q-16 -41 -30 -82.5l-28 -82.5l-31 -83.5t-36 -83.5q-58 8 -115.5 14.5t-114.5 17.5 q37 57 79.5 110.5l89.5 107.5l77.5 93.5t63.5 98.5q12 29 4 54t-21 45q-13 17 -33.5 30.5t-49.5 11.5q-32 -10 -60.5 -32t-54.5 -45q-29 -24 -56.5 -50.5t-52.5 -54.5q-51 -54 -96 -110t-86 -116q-40 -57 -75.5 -115t-58.5 -118q-9 -25 -14.5 -49.5z" />
<glyph unicode="5" horiz-adv-x="1244" d="M205.5 110q1.5 35 12.5 73l4 12q8 21 21.5 41.5t31.5 37.5t40 29.5t47 17.5q2 0 4 1t4 1l-47 73q-20 14 -29.5 35t-13.5 45q-5 35 -3.5 72.5t17.5 81.5l3 7q23 64 48.5 127l53.5 127l27 59.5l28 61.5l9.5 20.5l9.5 20.5l16.5 41t19.5 41q12 27 29.5 55.5t40 54.5t49 48.5 t56.5 39.5q57 32 113.5 49t110.5 28v1q46 9 95 13t98 4h32t31 -1q35 -2 70 -7.5t63 -30.5l3 2q14 -11 21.5 -25t11.5 -31l63 -98q17 -26 17 -60q0 -33 -12 -68l-5 -13q-11 -30 -31 -55t-56 -41q-11 -5 -21.5 -8.5t-19.5 -3.5q20 -15 37.5 -34.5t29.5 -43.5q2 -7 4 -13t6 -11 l53 -84q4 -5 7.5 -11t5.5 -13q29 -57 23 -127t-33 -142l-3 -11q-26 -72 -71 -137t-101 -124t-120.5 -111.5t-130.5 -98.5q-60 -40 -125 -76.5t-131 -64t-131.5 -44t-128.5 -16.5h-25q-13 0 -24 2q-63 8 -94 56l-63 101q-27 22 -38 58q-11 32 -9.5 67zM251 119q-1 -32 10 -59 q9 -27 32 -45t55 -22q63 -7 130 6t135 40t135 64.5t129 79.5q63 43 124 92.5t114.5 105t96 117t68.5 128.5q13 34 21 68.5t10.5 67.5t-2 63.5t-17.5 56.5q-12 28 -33 48.5t-48.5 34t-59.5 20.5t-66 8q-47 2 -97.5 -8t-101.5 -30t-100 -49.5t-93 -65.5l58 131.5l60 132.5 q42 17 83.5 24l81.5 14q42 2 82 5t82 5q20 2 40.5 1.5t43.5 8.5q23 11 36 30.5t20 39.5q14 35 11.5 68.5t-25.5 52.5q-22 20 -54 24.5t-65 6.5q-58 3 -118.5 0.5t-123.5 -15.5q-52 -9 -104 -25t-103 -45t-89.5 -75t-58.5 -94q-29 -60 -55 -121t-55 -122q-28 -63 -52.5 -125 l-47.5 -125q-16 -38 -17.5 -73.5t3.5 -68.5q4 -32 24 -56t58 -26q33 0 71.5 14.5t70.5 36.5l104.5 68.5l104.5 69.5l105.5 61t108.5 37q17 -2 17 -17q0 -14 -5 -28l-7 -18q-27 -58 -75 -107t-99 -93q-51 -42 -106.5 -82.5t-115.5 -57.5q-29 -7 -56.5 -8t-54.5 -1 q-29 2 -58 -1.5t-58 -8.5q-35 -6 -60 -34.5t-34 -59.5q-9 -33 -10 -65z" />
<glyph unicode="6" horiz-adv-x="1172" d="M191 298.5q-4 85.5 29 181.5q45 118 111 232.5t138 226.5l25 35.5t23 35.5l63 91.5t67 90t74.5 86.5t85.5 81q40 29 84.5 48t88.5 21q6 2 11 2h13q35 0 56.5 -18.5t28.5 -47.5l66 -103q11 -17 13.5 -38.5t-2.5 -44.5h-2q-2 -17 -5.5 -37t-9.5 -40q-35 -51 -68.5 -92 l-66.5 -79q77 -2 135.5 -34.5t89.5 -91.5q2 -7 4.5 -12.5t4.5 -11.5l59 -91q0 -5 4 -11l5 -6q26 -54 22.5 -121t-29.5 -136l-5 -17q-42 -109 -118 -209t-174 -182q-47 -41 -99.5 -75.5t-107 -60.5t-110.5 -40.5t-110 -14.5h-12q-79 0 -137 35t-93 89l-53 84q-23 24 -40 53 t-28 61h2q-29 75 -33 160.5zM236.5 307.5q4.5 -81.5 33.5 -152.5q13 -36 34 -67.5t50.5 -55t67.5 -37.5t83 -14q51 -2 104 11t105 37.5t102 57.5t95 72q92 78 163.5 171.5t109.5 195.5q27 66 33 132t-19 119q-27 54 -84 82t-128 28q-61 2 -127.5 -9.5t-133.5 -41.5 q30 47 63.5 89.5l68.5 86.5l89 109.5t85 112.5q5 17 8.5 33t4.5 33q5 20 2 37.5t-13 30t-26.5 18t-38.5 0.5q-35 -2 -71 -16t-68 -39q-51 -44 -94.5 -93t-82 -101t-74 -105l-71.5 -105q-71 -109 -135.5 -221t-108.5 -226q-31 -91 -26.5 -172.5zM499 294.5q-6 15.5 3 38.5 q10 33 33 64l47 62q29 35 66 62.5t76 46.5q38 21 77.5 37t77.5 15q24 2 35.5 -9t14.5 -28t-0.5 -38t-10.5 -40q-18 -48 -49 -95t-75 -84q-47 -38 -99 -56t-101 -16q-19 0 -39 3.5t-35 12.5t-21 24.5zM686 307q43 15 87 48q30 27 55 61q-4 -2 -8.5 -4t-7.5 -4 q-33 -17 -64 -41t-57 -53q-2 -2 -2.5 -3.5t-2.5 -3.5zM1292 708l2 -1q0 1 -1 1h-1z" />
<glyph unicode="7" horiz-adv-x="1155" d="M323.5 37.5q-8.5 48.5 11.5 102.5l3 10q24 66 60.5 124.5l75.5 116.5q2 2 2.5 3.5t3.5 3.5q3 3 5 6l198.5 272l198.5 273q-22 -8 -42 -18.5t-38 -27.5q-29 -27 -65.5 -48t-74.5 -26h-15q-29 0 -57.5 6t-46.5 23q-16 9 -24 23l-67 104q-24 17 -29.5 48t5.5 66l4 9 q20 50 55.5 93.5t80.5 79t96 62t101 43.5l-2 -4q78 27 152.5 36t147.5 9h48q60 -2 116.5 -10t107.5 -26q33 -16 60.5 -42t36.5 -64l61 -94q17 -26 21 -57t-9 -69l-1 -7q-42 -78 -93.5 -153.5l-104.5 -150.5l-64 -88l-171 -231l-175 -228h2q-23 -34 -46 -72.5t-43 -76.5 l-17 -31l-17 -30q0 -2 -4 -6l-1 -5l-38 -60t-36 -49q-45 -38 -84.5 -49t-70.5 -12h-10q-38 0 -63.5 14t-39.5 37l-61 95q-35 27 -43.5 75.5zM366 85.5q-1 -31.5 11 -55.5t36 -38t60 -11q26 2 55.5 8t55.5 28q22 24 39 52.5l34 55.5l61 112t67 109l174.5 230l170.5 231 l136 190.5t120 193.5q9 30 6 54.5t-15 44.5t-30.5 35t-40.5 25q-48 17 -100.5 24.5t-109.5 9.5q-81 3 -166.5 -5t-173.5 -38q-42 -14 -85 -36.5t-81.5 -52t-68.5 -66t-47 -78.5q-11 -26 -7.5 -51t23.5 -36q17 -16 43.5 -22t55.5 -4q28 4 56.5 20t52.5 38q55 47 119 65 t123 17q30 0 57.5 -2.5t57.5 -4.5l-17 -24.5t-16 -24.5l-249.5 -344.5l-251.5 -343.5l-78.5 -119t-61.5 -122q-14 -33 -15 -64.5z" />
<glyph unicode="8" horiz-adv-x="1190" d="M176 191.5q-14 76.5 15 165.5q2 2 2 5t2 7l5 13q14 40 38.5 78t57 73.5t70.5 66.5t79 57l-6 9q-43 45 -57.5 111.5t12.5 142.5l7 19q19 48 48.5 93.5t66 87.5t78 80t85.5 71q44 34 91.5 62.5t96 49.5t97.5 32.5t96 11.5h8q89 0 153 -39t100 -101l17.5 -31t14.5 -32 l41 -62q-1 0 -3 1t0 3l10 -16q36 -58 49 -129t-13 -152q-3 -16 -10 -36q-15 -42 -40.5 -81.5t-58.5 -75t-71.5 -67t-80.5 -56.5l24 -36q31 -45 36 -104.5t-19 -125.5l-5 -16q-38 -91 -107.5 -171.5t-152.5 -143.5q-84 -65 -178.5 -103.5t-182.5 -38.5h-11q-85 0 -152 31 t-109 88l-15 21l-51 78q-5 7 -10.5 13t-10.5 13q-42 57 -56 133.5zM220.5 210q12.5 -70 52.5 -121q38 -52 100.5 -80.5t140.5 -28.5q41 -2 84 7t86.5 26t86 41.5t81.5 54.5q78 60 142.5 134t99.5 158q18 45 20.5 86.5t-8 77.5t-32.5 65t-52 49q50 22 97.5 55t87 73.5t68 87 t41.5 95.5q26 77 13 146t-49 122q-33 55 -90 90.5t-137 35.5q-43 1 -88 -9t-90.5 -29t-89.5 -46t-85 -58q-41 -30 -79.5 -65t-72 -73.5t-60.5 -80t-44 -84.5q-21 -46 -23 -88.5t11 -78.5t38 -64t59 -46q-49 -22 -96 -54t-87 -71t-69.5 -84.5t-42.5 -94.5q-26 -78 -13.5 -148 zM514.5 300q-6.5 16 2.5 40q11 26 33.5 48t46.5 39q29 17 57.5 29t57.5 12q22 0 39 -9t27 -24.5t12 -35.5t-7 -42q-8 -27 -27.5 -46.5t-44 -31.5t-51.5 -17t-49 -3q-19 0 -39.5 3.5t-35.5 12.5t-21.5 25zM762 937q0 20 8 41q11 28 33 54.5t50 46.5q29 20 60.5 34.5 t61.5 14.5q19 0 32 -9t19.5 -23.5t6.5 -33.5q0 -18 -6 -36q-10 -30 -33 -56.5t-49 -49.5q-26 -20 -55.5 -35t-58.5 -15q-23 0 -38.5 9t-23 24t-7.5 34z" />
<glyph unicode="9" horiz-adv-x="1167" d="M279.5 693.5q5.5 70.5 31.5 142.5l5 11q32 78 77 151.5t107 141.5q66 71 142 130t157 99q57 28 117 43.5t117 15.5h8q51 0 95.5 -13.5t79.5 -37.5t61.5 -57.5t41.5 -73.5q0 -3 1 -4.5t1 -4.5l48 -73q14 -22 27 -50q29 -75 29 -165q0 -89 -32 -186l-2 -2q-25 -66 -59 -132 t-73 -131t-82.5 -129.5l-87.5 -127.5q-17 -22 -32 -45t-33 -46h-2l-74 -98.5t-81.5 -94t-94.5 -81t-113 -60.5q-4 0 -11 -1t-11 -1q-25 0 -43 9.5t-29 26.5l-65 102q-24 17 -32 47.5t6 68.5l16 46q7 12 8 19q23 51 53 95t63 88q-70 1 -128 27.5t-90 79.5l-55 87 q-24 23 -41 55q-26 58 -20.5 128.5zM325.5 711.5q-6.5 -66.5 17.5 -119.5q27 -54 83 -82.5t127 -28.5q76 -1 158 27t158 76l-88.5 -116.5l-91.5 -115.5l-81.5 -107.5t-66.5 -113.5q-2 -6 -5 -12.5t-5 -12.5q-4 -7 -7 -15t-5 -14q-10 -21 -9.5 -40t9.5 -32.5t25.5 -20 t39.5 -3.5q66 25 120 71t101 101.5t90 115.5t85 113l84 123.5t80 126t71.5 128t57.5 129.5q29 91 29.5 175t-27.5 156q-29 74 -92.5 120t-156.5 46q-52 2 -108.5 -13t-110.5 -42q-78 -37 -147.5 -91t-128.5 -120q-58 -63 -100.5 -132t-72.5 -141q-26 -69 -32.5 -135.5z M598.5 770q-1.5 17 3 36.5t12.5 36.5q15 50 49.5 97.5t80 83.5t97.5 55.5t103 14.5q15 -1 32 -3t30 -8.5t19.5 -18.5t1.5 -31q-19 -57 -64 -106.5t-96 -90.5q-25 -20 -53 -39t-57 -34t-58.5 -24t-58.5 -9q-21 0 -30.5 11.5t-11 28.5zM795 826q13 8 25.5 17.5t24.5 20.5 q9 8 19.5 16.5t19.5 17.5q-49 -27 -89 -72z" />
<glyph unicode=":" horiz-adv-x="625" d="M85.5 55.5q-2.5 28.5 2.5 60t16 61.5l4 11q15 40 44 71.5t65.5 53.5t75.5 33.5t74 11.5h15q3 0 6.5 1t5.5 1q48 0 82.5 -22.5t42.5 -64.5l63 -97q13 -20 15.5 -45t-8.5 -56l-3.5 -8.5t-5.5 -11.5q-17 -42 -44 -80t-62 -76q-37 -33 -82 -60t-93 -27h-4q-38 0 -63 13.5 t-39 36.5l-63 99q-21 16 -31.5 41t-13 53.5zM131 112.5q-4 -36.5 4 -66.5t30 -49t62 -19q18 -1 37.5 5t38 16t36.5 23.5t33 28.5q59 62 91 135q16 33 13.5 58.5t-18.5 43t-42.5 25t-57.5 3.5q-28 1 -60.5 -7.5t-62 -26t-53.5 -42.5t-34 -57q-13 -34 -17 -70.5zM328.5 638.5 q-1.5 17.5 1 35.5t7.5 36.5t11 35.5l36.5 68t52.5 68q33 34 78.5 58t90.5 24q36 -4 65.5 -20t38.5 -51l68 -108q5 -6 7.5 -13.5t4.5 -15.5l-2 3q12 -28 7 -59.5t-13 -61.5l-2 -5q-2 -6 -4 -14.5t-6 -17.5q-12 -33 -32.5 -66.5t-48.5 -61.5t-63 -45.5t-75 -17.5h-12 q-32 1 -61 13.5t-45 37.5l-64 99q-21 18 -31 46q-8 15 -9.5 32.5zM374.5 684.5q-5.5 -30.5 7.5 -53.5q9 -26 34.5 -40t57.5 -16q35 -3 65.5 14t54.5 44t40.5 59.5t24.5 61.5t14.5 58t-2.5 53q-7 29 -31 41.5t-53 15.5q-31 0 -63 -18t-58 -44q-27 -26 -44.5 -56.5 t-30.5 -59.5q-11 -29 -16.5 -59.5z" />
<glyph unicode=";" horiz-adv-x="655" d="M9.5 -91.5q2.5 21.5 9.5 42.5q24 66 68 121.5t92 106.5l59.5 59t66 55.5t72.5 43.5t79 23q18 0 35 -3.5t30.5 -11t23 -19.5t11.5 -29l69 -104l1 -2q9 -13 9 -36l-38 60h-1l39 -60q0 -24 -8.5 -51t-17.5 -51l-5 -14q-18 -40 -43.5 -77.5t-55.5 -72.5t-63.5 -68.5 l-67.5 -64.5q-5 -4 -12 -8l-7 -4l-38 -28.5t-38.5 -26t-39.5 -18.5t-41 -7h-15l-10 2t-13 3q-17 6 -28.5 16t-20.5 21l-62 99q-17 12 -26.5 28t-12.5 35t-0.5 40.5zM54.5 -84.5q-2.5 -18.5 1 -34.5t13 -28.5t27.5 -18.5q6 -1 13 -2t14 -3q20 -2 39.5 5.5t38.5 20t37.5 27.5 l36.5 29l62 59.5t59 62.5t51.5 66.5t38.5 71.5l18.5 50t9.5 49q-2 26 -22.5 36.5t-46.5 10.5q-33 -4 -64.5 -20t-61.5 -38.5t-57.5 -48.5t-51.5 -51q-45 -48 -86 -99t-61 -108q-6 -18 -8.5 -36.5zM354 649q2 21 8 41.5l12 39.5q13 37 40 76t62 71.5t76.5 53t84.5 20.5h13 q48 -5 75.5 -31t40.5 -63l60 -96q23 -35 24.5 -81.5t-14.5 -94.5l-5 -13q-11 -32 -34 -62.5t-55 -57.5q-35 -28 -75 -43t-78 -15h-5q-34 0 -65.5 11.5t-57.5 34.5l-72 113q-4 2 -8.5 5t-6.5 7q-14 21 -18 42t-2 42zM400.5 663.5q-1.5 -17.5 2 -35.5t15.5 -36 q20 -17 44.5 -24.5t52.5 -7.5q32 -2 65.5 10.5t62.5 35.5q59 48 74 107q12 33 13 66t-9.5 60.5t-32.5 46.5t-57 22t-68.5 -12.5t-62 -41t-50.5 -58.5t-34 -64q-5 -17 -9.5 -34t-6 -34.5z" />
<glyph unicode="&#x3c;" horiz-adv-x="949" d="M227 671q16 33 38.5 59.5t47 48.5t51 40l52.5 34q2 2 14 9q5 4 10 6t7 4h-2l67 33.5l68 34.5q4 3 10 6.5t11 5.5l37 21q5 2 11.5 5t12.5 7l35.5 19.5l39 21.5l39 21.5l35.5 19.5q33 17 69 27t71 10h13q36 -4 60.5 -26t35.5 -54l65 -101q26 -41 10 -102l-3 -10 q-11 -30 -32.5 -58t-60.5 -43l-95 -52.5l-92 -51.5q12 -8 25 -14q35 -17 38 -51l68 -104q13 -20 10 -47t-12 -54l-6 -19q-12 -27 -32 -53t-45 -46.5t-54 -34t-59 -16.5q-54 0 -93 16.5t-72 36.5l-67 49.5t-68 47.5q-12 9 -22.5 18t-23.5 18l-53.5 41t-44.5 50l-56 87 q-27 26 -42.5 59t-15.5 81zM273 676q-1 -38 15 -66t40.5 -50.5t52.5 -42t52 -39.5l68.5 -47l68.5 -49q31 -19 65 -34t78 -15q22 2 44 12t40.5 26t33.5 35.5t24 40.5q7 15 12 31t5 30t-5.5 25.5t-18.5 17.5l-111.5 69l-110.5 69l164.5 92.5l165.5 90.5q26 11 39.5 33t19.5 44 q7 21 4.5 40.5t-12 35t-25.5 25.5t-37 12q-28 2 -60 -7.5t-64 -25.5l-65 -34.5l-65 -35.5l-117 -62l-118 -61l-52 -32.5t-52 -36t-45.5 -42t-33.5 -49.5z" />
<glyph unicode="=" horiz-adv-x="1111" d="M271 452q-11 36 0 80l4 14q10 28 29 48.5t41.5 34.5t47 23t46.5 15l-26 41q-26 21 -34.5 55.5t7.5 76.5l3 8q2 3 3 5.5t2 4.5q15 30 35.5 51.5t44.5 36.5t49.5 25.5t49.5 18.5q45 15 89.5 22.5t88.5 9.5h42t42 -1h5q18 -2 35.5 -3t37.5 -1h31q2 0 5 -1t5 -1h7q8 2 14 2 h11h20q10 0 18 -2q30 0 60 -6t55.5 -18.5t44 -32.5t24.5 -48l65 -99q12 -20 15.5 -45.5t-5.5 -57.5h-1q0 -8 -2 -14t-3 -8q-9 -26 -26 -46t-39 -35t-47 -24.5t-49 -12.5l46 -71q11 -17 12 -39.5t-10 -53.5q-2 -4 -3.5 -7.5t-3.5 -7.5l-2 -7q-17 -31 -44 -56.5t-58 -43.5 t-64 -28.5t-62 -12.5q-53 -4 -107 -5.5t-107 -1.5q-62 0 -122.5 2t-121.5 6q-33 3 -57 17.5t-40 37.5l-61 97q-29 22 -40 58zM313.5 489q3.5 -23 15.5 -40t31 -28t44 -13q111 -8 223 -9t230 7q24 1 50 9.5t50.5 23t45.5 34.5t35 44q21 43 10 68t-39 38.5t-64.5 17.5t-67.5 4 q-14 -2 -25 -1.5t-24 -1.5h-50q-45 0 -87 3q-22 3 -41.5 4t-41.5 1q-40 0 -82.5 -5.5t-85.5 -16.5q-18 -5 -37.5 -12t-37.5 -17.5t-31.5 -25.5t-17.5 -35q-6 -26 -2.5 -49zM422.5 807q-0.5 -22 8.5 -39t26 -27t41 -9h514q22 -3 47 3t47 19.5t38 33t20 45.5q10 38 -2 65 t-37 43.5t-58.5 24t-66.5 7.5q-11 2 -25 2t-28 -2q-13 0 -24.5 1.5t-24.5 0.5q-42 0 -81 3q-19 2 -40 2h-40q-40 -3 -79.5 -9t-80.5 -20q-19 -7 -39.5 -15.5t-40 -20t-36 -26.5t-26.5 -36q-12 -24 -12.5 -46zM1155 503l4 -3q-2 0 -2 1t-2 2zM1266 817l4 -3q-2 0 -2 1t-2 2z " />
<glyph unicode="&#x3e;" horiz-adv-x="949" d="M246 389l5 15q11 31 33 59.5t59 48.5v-2l107.5 64l110.5 66q-8 7 -18 12.5t-19 13.5q-7 4 -11.5 9l-9.5 11l-64 102q-31 21 -33.5 57t10.5 71l7 16q12 29 32 55.5t45.5 47.5t55.5 34.5t62 15.5q60 -6 101.5 -28t79.5 -45l17 -10q8 -7 17.5 -13t23.5 -11l46.5 -35 l48.5 -38.5t50.5 -44.5t52.5 -54l7 -12h-2q6 -12 12.5 -22.5t11.5 -22.5l59 -94q14 -18 20.5 -39.5t-1.5 -52.5l-3 -8q-15 -32 -37 -58.5t-48.5 -49t-55.5 -41.5l-57 -37q-7 -4 -14 -8.5l-13 -8.5l-115.5 -64.5l-115.5 -63.5q-13 -5 -25.5 -12t-23.5 -14l-21 -12l-24 -13.5 l-22 -11.5t-14 -6h2q-33 -17 -67 -27t-66 -10h-17q-50 7 -77 48l-65 99q-23 22 -34 54.5t-3 69.5zM292 398q-8 -43 10 -75.5t60 -39.5q31 -2 62 7.5t62 25.5q35 15 67.5 34l64.5 36l112.5 61.5l110.5 62.5l57.5 37t56.5 40t49.5 45.5t36.5 53.5q4 15 2 28t-7.5 24.5 t-12.5 21.5l-14 20q-42 48 -92 87l-103 77q-25 14 -49 30t-49.5 30t-53 25t-60.5 14q-22 -2 -43 -12t-39 -25t-32.5 -34.5t-21.5 -39.5q-6 -14 -10.5 -29.5t-4.5 -29.5t5 -26t17 -19l111 -77l109 -77l-169 -100l-169 -98q-26 -14 -41.5 -34.5t-21.5 -43.5z" />
<glyph unicode="?" horiz-adv-x="1172" d="M252 69q-9 45 9 98v9l5 10q12 34 34.5 63.5t51.5 53.5t62 41.5t66 27.5l-57 89q-15 15 -26.5 32.5t-17.5 38.5t-5.5 45.5t10.5 52.5l2 5q17 45 49 82t70 66q-2 2 -2 7l-64 97q-29 21 -37 58.5t8 80.5l1 5q21 52 56.5 97.5t79 84t93 69.5t99.5 54h-2q91 44 184.5 66.5 t181.5 22.5h25q36 -1 72 -7t69 -17t61 -29t49 -43q23 -28 32 -63l57 -85q32 -51 33.5 -119t-21.5 -139l-4 -7q-26 -56 -64.5 -101.5t-85 -83.5t-99.5 -70.5t-107 -61.5l42 -67q-1 -4 -0.5 -16t0.5 -16q-1 -17 -1.5 -34.5t-8.5 -40.5q-10 -26 -27.5 -49.5t-40 -44.5 t-48.5 -39t-53 -33q-6 0 -17.5 -0.5t-18.5 -0.5q-10 0 -22 -1t-26 -3q-17 -1 -38 -1h-38h-60l48 -74q17 -26 19.5 -58t-11.5 -72l-5 -13q-15 -41 -43.5 -80.5t-65.5 -71t-80 -51t-87 -19.5h-7q-45 2 -85 15.5t-69 40.5q-5 5 -10 11.5l-10 12.5l-62 97q0 4 -3 4 q-31 29 -40 74zM296.5 90q6.5 -37 32.5 -61q25 -24 60 -35.5t77 -13.5q36 -2 72 14t66.5 42.5t54.5 60t36 67.5q19 42 13.5 76t-27.5 57t-56.5 35t-73.5 9q-35 3 -74 -9.5t-74.5 -35.5t-62.5 -56t-36 -71q-14 -42 -7.5 -79zM419 575.5q4 -26.5 18 -48t35.5 -37.5t44.5 -27 q51 -23 111 -35t126 -10h37t38 2q20 2 38.5 2.5t38.5 2.5q40 22 75.5 54t51.5 74q8 20 7 39.5t-1 37.5q-26 6 -51.5 9.5l-52.5 7.5q-29 0 -58 1.5t-58 3.5l151 75.5t154.5 84.5t137 104t98.5 134q22 69 19.5 135t-39.5 112q-19 22 -44.5 38t-55 26t-62 15t-65.5 6 q-87 5 -180.5 -16.5t-186.5 -66.5q-45 -21 -89.5 -48.5t-83.5 -61.5t-70 -73.5t-49 -84.5q-10 -23 -9.5 -45t9.5 -38.5t26.5 -26t41.5 -8.5q38 2 75.5 25t64.5 55l54 58t62 52q52 24 103 35t99 9q19 -2 43 -3.5t44.5 -8t33 -20t8.5 -38.5q-14 -24 -34 -42t-44 -32 t-49.5 -25.5t-49.5 -23.5q-76 -32 -151.5 -67.5l-150.5 -70.5q-30 -15 -60.5 -34t-58 -41.5t-49.5 -48.5t-34 -57q-13 -33 -9 -59.5z" />
<glyph unicode="@" horiz-adv-x="1638" d="M236.5 385q0.5 64 13.5 130.5t37 133.5l5 13q28 78 70 154.5t97 148t121.5 136t143.5 118.5q74 52 152.5 91.5t157 65t157 38.5t152.5 13h34q63 0 121 -13t106.5 -38.5t86.5 -62.5t62 -86q2 -6 5.5 -12.5t6.5 -14.5l47 -72q5 -8 9 -16.5t9 -17.5v2q25 -46 36.5 -100 t10.5 -112.5t-13 -120.5t-34 -123l-9 -26q-36 -100 -100.5 -197.5t-158.5 -175.5l-2 -2q-51 -45 -107.5 -79.5t-115 -58t-117.5 -35t-114 -11.5h-12q-42 0 -85 3q9 -25 -2 -60q-4 -6 -7 -12q-13 -35 -39 -66t-59 -54t-70 -36.5t-71 -13.5q-121 0 -216 46t-151 131l-48 70 q-17 20 -31.5 41.5t-26.5 45.5v-2q-27 53 -39.5 113t-12 124zM281 403q-1 -59 10 -113.5t35 -101.5q22 -50 58.5 -88.5t84 -64.5t104.5 -40t120 -14q27 0 56 10.5t55 28.5t46.5 42.5t30.5 51.5q11 21 10 39.5t-10.5 31.5t-26.5 19t-38 3q-98 -9 -164 27.5t-98.5 102t-29 151 t45.5 174.5q18 50 43 101t60 101t80.5 97t104.5 89q49 32 100 53t102 33.5t101.5 17.5t98.5 5q86 7 144 -26t85.5 -91.5t24.5 -134.5t-39 -154q-15 -42 -38 -89.5t-54.5 -89t-73.5 -73t-94 -42.5q48 58 82 121.5t58 126.5q29 78 38.5 154t-12.5 141q-11 33 -32 58 t-50.5 41.5t-65 24.5t-74.5 7q-27 1 -56 -8.5t-55 -27t-46.5 -42t-30.5 -51.5q-11 -27 -9.5 -53.5t24.5 -37.5q26 -2 49 -9.5t47 -12.5q29 -9 40.5 -36t9.5 -58q-75 2 -154 -12.5t-159 -50.5q-38 -17 -74.5 -41t-68 -54t-55 -64.5t-34.5 -71.5q-14 -44 -5.5 -78.5t30 -61.5 t52 -46.5t61.5 -34.5q69 -31 147.5 -47.5t165.5 -14.5q51 0 105.5 11t109 33t106.5 53.5t98 73.5q95 78 158 177.5t97 199.5q21 58 32.5 116t12 113.5t-10 106t-34.5 94.5q-22 45 -57 80t-80.5 58.5t-99.5 35.5t-113 12q-74 3 -152.5 -7.5t-158 -35t-158.5 -63t-152 -90.5 q-74 -52 -137.5 -114.5t-116 -132t-92.5 -143.5t-66 -149q-22 -63 -34.5 -125t-13.5 -121zM802 526q24 27 53 39.5t60 17t61.5 4t57.5 2.5q14 -2 27 -6t26 -6q-22 -36 -50 -71t-64 -61q-29 0 -55 7t-48 17q-10 4 -21 9t-20.5 11.5t-16.5 15.5t-10 21zM826 777q38 17 77 28 t77 19l-36 53q-2 2 -2.5 3t-2.5 2q-32 -24 -60.5 -50.5t-52.5 -54.5zM1457 971l6 -10q-2 2 -2 7q-1 0 -4 3z" />
<glyph unicode="A" horiz-adv-x="1333" d="M114 129.5q-1 38.5 11 80.5l6 20q23 65 59 123t75 113l52.5 74l54.5 73q4 5 7.5 11t7.5 11l31 41q8 10 16.5 22t16.5 22h1l86.5 143.5l91.5 143.5q16 28 39 61l20.5 32.5l18.5 29.5l22 31l67.5 87t76.5 81.5t88.5 64.5t104.5 36q57 0 101.5 -21t73.5 -56q12 -15 22 -32.5 t19 -37.5l55 -87q20 -29 29 -65t14 -76q0 -29 -1 -53t-3 -45l-2 -35t-1 -36q-11 -162 -26 -325.5t-36 -328.5h2q2 -9 -1 -27t-6 -41q-1 -11 -2 -24t-3 -27q-2 -26 -8 -49.5t-14 -46.5l-7.5 -20t-7.5 -17l-2 -4q-12 -26 -31 -48.5t-42.5 -40t-50 -30t-52.5 -16.5 q-8 -1 -18.5 -2t-22.5 -1q-33 0 -60 9.5t-41 31.5l-66 106q-7 5 -12.5 10.5t-9.5 13.5q-9 30 -8 64.5t6 66.5q-29 -2 -58 -7l-60 -10h-1q-5 -2 -11 -2q-5 0 -10 -2q-36 -8 -72 -17.5t-70 -29.5h2q-14 -11 -23.5 -27t-15.5 -31q-3 -5 -5.5 -11.5l-4.5 -11.5q-9 -23 -22.5 -47 t-30.5 -46q-30 -35 -65.5 -48.5t-67.5 -13.5h-21q-31 5 -53.5 21t-35.5 39l-59 92q-31 25 -45 68q-11 35 -12 73.5zM159 144.5q1 -33.5 10 -62.5q11 -29 32.5 -51.5t56.5 -28.5q26 -3 55 5t51 34q17 23 29 49l23 52q11 22 24.5 45t35.5 40q45 29 93 40l95 21q49 9 96 15 t95 6q18 2 34.5 -2t30.5 -10q-3 -32 -7.5 -64t-9.5 -64l-8.5 -67.5t4.5 -63.5q16 -25 48 -30.5t65 -0.5q40 6 77.5 34t55.5 67l2 6q14 30 22 59.5t12 58.5q2 29 7 58.5t5 57.5q20 166 34 329t26 327q1 41 4.5 82t2.5 83q-5 44 -18 83.5t-39 68.5q-24 29 -60.5 48t-82.5 19 q-53 -9 -98.5 -39.5t-85.5 -71t-74.5 -87l-65.5 -86.5l-127 -199.5l-124 -201.5l-92.5 -124.5l-92.5 -126.5q-41 -58 -76.5 -117.5t-56.5 -121.5q-9 -35 -8 -68.5zM691 585l4 17l6 19q20 51 48.5 102t59.5 100l71 97.5t81 91.5q-2 -45 -1.5 -90.5t-1.5 -91.5t-8.5 -93 t-21.5 -95q-5 -16 -17 -27t-27 -18t-30.5 -9.5t-27.5 -2.5h-29q-26 2 -53 2t-51 2z" />
<glyph unicode="B" horiz-adv-x="1347" d="M186 145q-4 63 8.5 129.5t32.5 135.5l12 30q20 53 41.5 104t45.5 101l59.5 120t51.5 117l5 16q7 17 11.5 32.5l9.5 32.5l3 6q2 12 6.5 24.5t8.5 25.5q3 5 4 10.5t3 11.5l9 24q1 4 2 9t3 10l7 19q5 14 11 26.5t11 25.5l1 4q19 40 49 73t65 59t73.5 46t75.5 35 q71 27 143.5 41t141.5 15h23q66 0 125 -14t107 -45q33 -20 60 -49t39 -69l51 -82v2l5 -5q20 -32 26 -72.5t-11 -88.5l-7 -20q-33 -94 -109 -178l45 -68q15 -24 25.5 -51.5t16.5 -56.5q13 -55 8 -116.5t-28 -127.5l-2 -1q-28 -71 -78.5 -131t-113 -109.5t-132 -89 t-135.5 -70.5q-76 -35 -150.5 -62t-149.5 -49q-8 -1 -21 -5q-57 -15 -112 -28t-108 -13h-21q-9 0 -18 2q-38 2 -64.5 19.5t-43.5 43.5l-58 92q-33 27 -47 70.5t-16 88.5zM232 162q3 -28 9.5 -56.5t20.5 -52t35.5 -39t54.5 -17.5q30 -3 62.5 -0.5t66 9t67 15.5l66.5 18 q75 22 147.5 48t144.5 60q63 29 128 66t123.5 82.5t105.5 100t73 119.5q22 61 26 117.5t-7 108.5q-11 53 -38 98.5t-76 70.5q51 50 90 106.5t57 116.5q11 34 8.5 64t-15 55t-33 44.5t-44.5 32.5q-48 32 -110 45.5t-129 11.5q-64 -2 -132 -14.5t-136 -38.5q-32 -13 -65 -30 t-63 -39t-55.5 -49t-40.5 -60q-15 -35 -25.5 -68t-23.5 -68q-11 -35 -20.5 -69t-23.5 -69q-25 -61 -53.5 -120.5l-59.5 -118.5q-57 -116 -96 -231q-19 -64 -31.5 -126.5t-7.5 -122.5zM539.5 360.5q1.5 16.5 8.5 32.5q10 33 28 65.5t42 62.5t54 56t65 44q74 40 146 54t141 14 l2 -6q14 -21 17.5 -49t-5.5 -59q-13 -31 -33.5 -58.5t-46.5 -51.5t-55.5 -44.5t-59.5 -36.5q-62 -36 -127 -58t-127 -21q-19 -1 -30.5 6.5t-16 20t-3 29zM719 367q28 11 56 23.5t54 27.5q34 18 65.5 41t56.5 50q-64 -14 -122 -46q-65 -37 -110 -96zM748 872q4 13 7.5 26.5 t7.5 26.5l22 54.5t24 54.5q11 24 30.5 41.5t42.5 28t47.5 14.5t45.5 3q16 1 33.5 -1.5t30.5 -10t18.5 -21t-1.5 -33.5q-8 -21 -23.5 -38t-34.5 -31.5t-40 -26.5l-40 -22q-81 -44 -170 -65z" />
<glyph unicode="C" horiz-adv-x="1287" d="M233.5 385q-7.5 123 41.5 257l5 13q46 129 128 252.5t188 232.5v-2q51 55 111 107.5t126 93t135.5 65t139.5 24.5h10q49 0 91 -11.5t77 -32.5t63.5 -50t49.5 -63q19 -29 31 -61l51 -77q40 -66 54 -148t-14 -176l-5 -12q-11 -30 -32 -55t-47 -43.5t-55.5 -28.5t-57.5 -10 h-10t-12 2q-37 0 -64.5 14.5t-44.5 40.5l-65 99q-14 13 -24.5 31t-12.5 39l-6 51q-28 -10 -56 -28t-53.5 -41t-48 -49t-40.5 -51q-59 -72 -101.5 -149.5t-72.5 -157.5q-13 -35 -18.5 -70t-1.5 -68q27 -11 63 -11h3q44 2 90 19.5t88 45.5q38 26 78 49t84 37h12q29 0 50 -17.5 t29 -44.5v-2l66 -100l2 -4q8 -13 8 -30q9 -21 5.5 -46.5t-11.5 -49.5l-6 -12q-31 -71 -88 -129.5t-123 -102.5l-2 -2q-64 -45 -137 -74t-141 -32q-8 0 -14.5 -0.5t-14.5 -0.5q-113 0 -197.5 49.5t-135.5 129.5l-44 68q-39 43 -65 99q-51 100 -58.5 223zM278.5 402 q2.5 -58 16.5 -111.5t38 -101.5q23 -47 58 -87t80.5 -68t102 -42t121.5 -9q62 2 126.5 29t123.5 68q61 40 113.5 92.5t78.5 114.5q9 22 12.5 44.5t-2.5 40.5q0 22 -16 36t-39 12q-36 -11 -71 -31.5t-67 -43.5q-51 -32 -104 -53t-104 -22q-60 -2 -103.5 25.5t-57.5 78.5 q-19 46 -14.5 101.5t25.5 113.5q29 84 74.5 165.5t106.5 156.5q25 35 58 71t71 64.5t79 46.5t83 18q15 -1 25 -7.5t16.5 -17t10 -23t5.5 -24.5q1 -35 5.5 -67t6.5 -67q5 -35 32.5 -56t67.5 -21q23 -5 49.5 1.5t49.5 21.5t41 37t24 49q13 43 15.5 85t-3.5 80.5t-20 73.5 t-33 65q-20 31 -46 57.5t-58 46t-70 30.5t-83 11q-64 2 -128.5 -20.5t-126 -60.5t-118.5 -87t-105 -100q-103 -107 -182.5 -226.5t-123.5 -244.5q-24 -63 -33.5 -125t-7 -120z" />
<glyph unicode="D" horiz-adv-x="1324" d="M166.5 97.5q-12.5 60.5 7.5 129.5l36 96q4 13 9 22.5l10 18.5v3l12.5 27t11.5 26l8 27q3 7 6.5 13t5.5 14l4 13.5t5 14.5l25 70l14 42q6 22 14 43.5t17 43.5l32 87.5l34 87.5l22.5 52l22.5 52l39.5 94t46.5 96t58.5 96.5t76.5 97.5q53 18 102 27.5t98 14.5v2 q51 9 104.5 14.5t107.5 7.5h15q4 0 8.5 1t8.5 1q65 0 121 -16.5t100.5 -46.5t77 -71.5t51.5 -92.5l43 -67q51 -82 59.5 -191t-34.5 -227l-15 -39q-29 -80 -74.5 -158.5t-103 -152t-124.5 -141.5t-140 -127h-2q-66 -56 -140.5 -106.5t-153 -88t-158.5 -59.5t-157 -22 q-17 0 -32 1t-28 2q-48 4 -83 24.5t-57 54.5l-58 92q-41 37 -53.5 97.5zM208 144q3 -41 21 -73t49 -52.5t75 -23.5q76 -10 158.5 7t165 53.5t161.5 88.5t150 112q73 60 140.5 128t124 142t100 152t69.5 158q28 73 35.5 143.5t-4.5 133.5t-42.5 116t-77.5 90t-110.5 55.5 t-140.5 13.5q-51 -3 -100.5 -8.5t-102.5 -14.5q-44 -5 -88.5 -13.5t-90.5 -23.5q-45 -51 -78.5 -106.5t-61 -114t-51.5 -117.5t-50 -116l-33 -86.5l-32 -86.5l-29.5 -85l-29.5 -85q-9 -29 -18.5 -56t-21.5 -55q-9 -25 -20.5 -49t-21.5 -48q-11 -23 -19 -47l-16 -47 q-13 -44 -10 -85zM556 331q5 62 24.5 124t42.5 125q58 172 135 342q10 24 19 48t20 49q11 19 22.5 42t35.5 35q24 1 48.5 1.5t50.5 3.5q24 2 50 2t51 1q20 -1 41 -3t40 -7t34 -15t23 -26q7 -17 6.5 -37t-5.5 -41t-12 -42.5l-13 -41.5q-18 -47 -45.5 -91.5t-61.5 -87.5 t-72 -83l-77 -78q-39 -36 -81.5 -71.5t-87.5 -66t-92 -52.5t-96 -30zM744 457q42 30 81 63.5l76 68.5l-2 -2q35 33 68.5 69t63 73.5t54 76t40.5 78.5q1 8 4.5 18l7.5 21q1 3 1 6q0 4 2 8q-10 0 -15 2q-13 -2 -26 -2h-27q-13 0 -25 -1t-23 -1l-34 -2t-34 -1q-4 0 -8.5 -1 t-8.5 -1q-7 -9 -12 -22l-7 -14l-5 -10q-4 -6 -7 -13.5l-5 -12.5l-14 -34t-13 -34q-31 -67 -57.5 -132.5t-50.5 -131.5z" />
<glyph unicode="E" horiz-adv-x="1283" d="M183 157q6 93 30.5 181.5t52.5 176.5l25 63.5t23 63.5l68.5 179.5t81 181t104 180.5t137.5 179q82 27 162.5 38t158.5 15q41 4 82 6t83 2q40 0 78.5 -2l77.5 -4q50 -3 85.5 -29t47.5 -70l61 -94q17 -27 20 -62t-11 -73l-2 -5q-2 -5 -2.5 -9.5t-2.5 -9.5q-14 -41 -48 -75 q-22 -29 -55.5 -44.5t-62.5 -15.5q2 -2 2 -4q0 -1 2 -3l61 -95q16 -25 18.5 -56t-11.5 -69l-7 -17q-14 -40 -40.5 -66.5t-59.5 -43.5t-68 -25.5t-66 -12.5q22 -8 36 -25t19 -39l65 -100q14 -22 14.5 -53.5t-11.5 -64.5q-2 -7 -4.5 -12t-8.5 -14h1q-15 -32 -37.5 -63 t-56.5 -59q-42 -33 -86 -59t-89 -47t-90.5 -39l-90.5 -35v-1q-9 -5 -10.5 -4t-10.5 -3l-51 -19q-86 -27 -173 -51t-172 -24h-20q-18 3 -36.5 8t-35.5 12.5t-31.5 18.5t-24.5 27l-4 7q-1 2 -3 2t-2 2l-5 8l-53 82q-12 11 -20 26q-22 29 -27.5 62.5t-5.5 66.5q-1 2 -1 9z M230 181q2 -35 5 -70t23 -62q15 -28 47 -39.5t65 -18.5q45 -1 91.5 6t94 19.5t95.5 28l95 30.5l98 37.5t97 40.5t94.5 48t90.5 60q26 22 44.5 48t32.5 55q13 25 16 50.5t-4 45.5t-25 31t-48 7q-75 -6 -152.5 -32.5t-153.5 -62.5q-73 -34 -146.5 -63.5t-146.5 -37.5 q1 42 4 84t21 87q10 37 35 70t57.5 59t70.5 43.5t75 23.5q81 11 160 17.5t160 14.5q26 3 56.5 10t59 20.5t51.5 35t33 52.5q16 36 13 66t-19.5 51.5t-44.5 32.5t-62 9q-54 2 -106 0.5t-109 -5.5q-55 -4 -109 -7t-109 -7q2 4 1 7t1 7q13 35 33 68t42 65q115 4 227.5 1.5 t224.5 -11.5q20 0 42 9.5t35 29.5q18 17 28 36.5t14 40.5q13 33 11.5 62t-15.5 51t-38.5 35t-56.5 14q-75 6 -154 6.5t-161 -8.5q-72 -4 -146.5 -13.5t-148.5 -34.5q-82 -92 -141.5 -191.5t-106 -202.5t-84.5 -208l-78 -207q-27 -85 -50.5 -169t-28.5 -165zM707 387l52.5 22 t52.5 24q5 2 9 4t8 3q49 23 102.5 45t106.5 36q-40 -5 -79.5 -9t-79.5 -9q-51 -8 -98.5 -40t-73.5 -76z" />
<glyph unicode="F" horiz-adv-x="1140" d="M179 36q-2 53 5.5 106t18.5 107q2 4 2 7t2 7q5 20 8 40t7 40q20 81 42 161t52 167q49 134 114 264t149 258q35 51 83 93.5t108 72.5q5 0 8.5 0.5t8.5 2.5q4 2 8 2q5 0 9 1q2 2 5 2t5 2q42 11 88 20.5t91 13.5q45 9 84 12t80 5q8 0 16.5 1t16.5 1h11q3 0 7.5 0.5t8.5 0.5 q32 -1 62.5 -9.5t55.5 -23.5t43.5 -36.5t26.5 -49.5l61 -96q17 -27 20.5 -60.5t-11.5 -75.5l-6 -10q-10 -29 -29.5 -51t-43.5 -38t-51 -26.5t-51 -16.5q-8 -2 -16.5 -3.5t-14.5 -3.5q27 -24 41 -61l61 -94l4 -7q10 -15 16 -34t4 -41v2v-26q0 -12 -7 -27v-2 q-13 -31 -35 -55.5t-49 -43t-56.5 -30.5t-57.5 -19q-70 -22 -137.5 -31t-133.5 -15l-25 -4t-23 -3h-1l-69 -9.5t-66 -12.5q-3 -8 -5 -14.5t-4 -14.5q-4 -14 -8 -29.5t-11 -30.5q-11 -40 -23.5 -81l-25.5 -81q-18 -51 -41 -101t-58 -99v2q-14 -23 -34 -46t-43.5 -41 t-50 -29.5t-53.5 -11.5h-17q-24 4 -44 15t-33 31l-63 101q-13 10 -22.5 24t-13.5 32zM225 55q5 -25 24 -39t45 -18q21 -3 42 5t40.5 23t36 34.5t27.5 38.5q32 45 53.5 92.5t38.5 95.5q14 40 26.5 80t23.5 80q11 29 19 58t19 58q57 21 111.5 27t109.5 14q66 7 130.5 15.5 t132.5 29.5q23 6 47.5 15.5t46.5 23.5t39.5 32.5t27.5 42.5q4 11 3.5 19.5t-0.5 17.5q0 29 -11 51.5t-30.5 38t-45.5 23.5t-56 7q-42 2 -85.5 -2t-87.5 -7q-45 -4 -88.5 -7.5t-88.5 -5.5l8 22q17 42 35.5 83.5t51.5 76.5q8 2 15 2h14q32 -2 65 -2.5t67 -2.5q44 -2 90 2 t94 15q20 4 42 13t42 22t35 30t21 39q16 43 8 76t-31.5 56.5t-58.5 36t-73 14.5l-108.5 -6t-111.5 -15q-52 -5 -104 -17l-106 -25q-48 -23 -86.5 -59t-67.5 -78q-161 -250 -258 -510q-28 -81 -49 -160.5l-41 -160.5q-6 -37 -14.5 -74.5t-15.5 -75t-11 -74t-2 -71.5z M1459 1215l2 -3q-2 0 -1 0.5t-1 2.5z" />
<glyph unicode="G" horiz-adv-x="1377" d="M256.5 458.5q1.5 124.5 50.5 258.5l2 7q45 123 128.5 237.5t190.5 216.5q51 48 109 93.5t121 81t129 56.5t131 21h10q103 0 185 -33t146 -86q0 -3 2.5 -7l2.5 -4l7 -3l33.5 -41t24.5 -49l62 -93q13 -19 18 -43.5t-3 -56.5q-13 -29 -32.5 -49.5t-37.5 -37.5 q-15 -13 -32.5 -24t-37.5 -19v-3l61 -91q13 -22 19 -49.5t5 -58.5t-7.5 -63t-17.5 -63l-16 -39q-6 -19 -14 -37.5l-16 -35.5q-4 -5 -5.5 -9t-3.5 -7q-49 -108 -129 -209t-180 -190q-49 -44 -104 -83t-112.5 -68t-116.5 -46.5t-116 -17.5h-13q-95 0 -160.5 42t-106.5 106 l-46 72q-35 40 -60.5 89t-38.5 102q-33 109 -31.5 233.5zM301.5 473.5q-2.5 -121.5 33.5 -226.5q14 -52 39 -101t62.5 -86.5t89 -59.5t117.5 -20q52 -1 107 15t108.5 43t105 63.5t96.5 77.5q95 84 170 180.5t123 200.5l24.5 49t20.5 51q20 46 28.5 95.5t0 90.5t-37 67 t-83.5 26q-67 -4 -135.5 -19.5l-137.5 -32.5l-67 -17.5t-67.5 -18.5t-67 -23.5t-66.5 -33.5q-13 -12 -20.5 -26.5l-14.5 -28.5q-10 -29 -12.5 -57.5t6.5 -51.5q8 -25 30 -39t52 -14q35 0 70 5.5t71 14.5q36 7 72 16.5t72 16.5q-5 -17 -8 -32.5t-11 -32.5q-18 -53 -49.5 -104 t-75.5 -97q-21 -23 -46.5 -42.5t-53 -34.5t-56 -23.5t-54.5 -7.5q-36 -2 -66 8.5t-52 30t-35 47t-16 59.5q-7 31 -6 64t7 68t16.5 70.5t22.5 70.5q28 82 77.5 163t120.5 149q34 35 74.5 62.5t82.5 46t85 27.5t84 6q32 -2 56.5 -15.5l50.5 -27.5l56 -28t64 -16q19 2 38.5 13 t36.5 25q15 13 30 28t23 33q6 23 1.5 41.5t-14.5 34t-23.5 29l-25.5 26.5q-62 53 -141.5 85.5t-177.5 31.5q-59 0 -119 -19t-118.5 -51.5t-113 -75t-101.5 -88.5q-100 -96 -180 -204.5t-122 -225.5q-48 -129 -50.5 -250.5zM683 311q13 -7 27.5 -9.5t31.5 -2.5h14 q40 0 82.5 26t77.5 61v-2l26 31q-17 -2 -34 -3t-34 -1q-31 0 -56.5 13t-39.5 35l-53 84q-20 -60 -34.5 -119.5t-7.5 -112.5zM1039 928l17 4v2q5 1 9 1q5 0 10 2q29 6 55.5 12.5l55.5 13.5h-5q-69 0 -142 -35z" />
<glyph unicode="H" horiz-adv-x="1306" d="M175.5 118.5q-3.5 39.5 1.5 79.5q8 35 18.5 72.5t24.5 81.5q14 46 29.5 91.5l32.5 92.5l20 53q4 13 10 26t11 27q4 11 9 23.5t9 25.5l9.5 25t11.5 25q22 51 41 101.5l39 101.5q13 28 23.5 55t20.5 56l24 57.5t22 58.5q28 61 76 124q28 39 65.5 70.5t85.5 40.5q7 2 16 2 h17q50 0 85 -25t46 -67v-7l60 -90q4 -8 7 -15.5t5 -15.5l3 -2q16 -40 14.5 -87t-19.5 -97l-7 -19q-13 -35 -26.5 -61l-27.5 -55q-5 -4 -5 -10h13q12 0 22.5 -1t22.5 -1h5q14 42 25.5 85l22.5 87q10 44 22.5 88t28.5 92q11 31 26.5 63.5t39.5 60.5q25 36 64.5 60t79.5 24h12 q51 -7 78.5 -35.5t38.5 -70.5l57 -85q19 -31 27 -71.5t10 -80.5q-1 -69 -10.5 -139.5t-33.5 -142.5l-80 -220q-20 -58 -38 -116.5t-32 -118.5q-21 -88 -53 -181l-10 -24.5t-9 -23.5l-3 -5q-16 -34 -35 -67t-47 -65v2q-27 -36 -64.5 -68t-82.5 -41l-2 1q-17 -5 -29 -5 q-31 0 -54.5 13t-37.5 35l-66 101q-26 24 -35 60q-6 19 -7.5 40.5t0.5 43.5t6 44.5l8 45.5l6 21t10 26q1 5 1.5 9.5t3.5 9.5q1 7 4 14.5t4 16.5h-8l-65 -5q-16 -2 -30 -2t-30 -2q-11 -59 -27 -120.5t-36 -128.5q-13 -37 -30.5 -75t-48.5 -77q-11 -18 -27 -35.5t-35 -31.5 t-40.5 -23t-42.5 -9q-2 0 -8 1t-9 1q-37 5 -63.5 23t-43.5 44l-60 93q-13 11 -22 24.5t-15 28.5q-16 35 -19.5 74.5zM224 207q-13 -74 13 -135q13 -30 38 -50t61 -25q16 -3 32.5 2.5t32 16.5t28.5 26t22 30q26 32 42 66.5t28 69.5q23 72 39.5 142.5t30.5 141.5q53 5 102 6 q32 4 64 5t64 6q23 0 45 -1t45 -1q-2 -66 -22 -132q-6 -32 -16.5 -64t-19.5 -64q-9 -41 -14 -81.5t6 -75.5q6 -33 34 -52.5t70 -10.5q35 7 63 33t50 54q24 29 41.5 59t33.5 61q23 57 40 112.5t31 112.5q14 60 32.5 119l36.5 118l42 113l21.5 55t18.5 54q23 69 32.5 136.5 t9.5 131.5q-2 30 -6.5 61t-16.5 57.5t-33 44.5t-55 23q-28 3 -55 -13.5t-44 -42.5q-20 -25 -34.5 -53t-23.5 -55q-15 -45 -27.5 -88.5t-23.5 -88.5t-23.5 -90.5t-27.5 -92.5q-4 -9 -7.5 -18t-8.5 -18q-72 3 -145 1t-146 -2q13 38 32.5 75.5l38.5 76.5l39 74t33 74 q22 49 24 96t-12 85q-11 38 -44.5 59t-81.5 13q-34 -7 -61.5 -30.5t-48.5 -51.5q-20 -27 -38 -57t-32 -59q-10 -29 -21.5 -56l-22.5 -55l-21 -56.5t-23 -56.5l-60 -150l-60 -150l-53.5 -144.5t-48.5 -144.5q-12 -37 -21 -73z" />
<glyph unicode="I" horiz-adv-x="1258" d="M184 120.5q2 19.5 9 39.5l2 6q9 26 27 45t40 32t45.5 19.5t44.5 8.5q22 0 44.5 1t47.5 3l61 161t65 161l66.5 159t63.5 159q-17 1 -32.5 5t-29.5 10v2q-17 4 -28.5 13.5t-20.5 22.5l-63 97q-25 15 -33.5 44t5.5 67l5 17q29 40 63 68t70.5 48.5t74.5 34l74 25.5q4 1 9 2 t10 3q10 4 19 7q78 22 153 34t149 12h24q42 0 81.5 -10t75.5 -23q32 -15 60.5 -38.5t39.5 -61.5l62 -98q8 -11 12 -26t7 -32q-25 -48 -67 -91.5t-97 -65.5l-57 -10q-20 -4 -40 -6.5t-40 -7.5l-12 -35q-12 -35 -27 -69l-7.5 -16.5t-6.5 -15.5q-15 -36 -27 -72l-12 -30 l-27.5 -80.5l-27.5 -80.5l-27.5 -81l-28.5 -79q-16 -49 -34 -96l-9 -24h11q2 0 5.5 1t7.5 1q62 0 111 -26q20 -24 24 -49l55 -84q2 -2 3.5 -5.5t3.5 -6.5q19 -31 17.5 -61.5t-12.5 -61.5l-6 -12.5t-5 -11.5l-1 -3q-8 -18 -21 -37t-30 -35t-37.5 -27t-44.5 -14 q-94 -17 -187 -23.5t-184 -6.5q-42 0 -84.5 1t-84.5 4q-28 1 -55.5 6.5t-52 15.5t-45 25t-33.5 36l-59 94q-20 16 -33 37.5t-17 49.5q-4 16 -2 35.5zM231.5 135.5q-1.5 -14.5 0.5 -27.5q3 -32 20 -54.5t42.5 -37t57 -21.5t63.5 -9q130 -9 262.5 -3.5t271.5 29.5 q31 4 53.5 28t33.5 50q7 15 13 31t7.5 32.5t-2 32.5t-15.5 31q-23 13 -53.5 17t-62.5 2q-14 -2 -29 -2.5t-30 -3.5q-14 0 -29.5 -1.5t-28.5 0.5l-16 -2l-15 2q3 35 12.5 72t23 74.5l27.5 75t26 73.5l28.5 80t27.5 80l27.5 81.5l28.5 81.5q11 35 25 69l28 69q14 33 26.5 65.5 t26.5 65.5q42 9 82.5 16l83.5 15q38 15 68 47t48 67q-4 36 -29.5 58t-56.5 36q-33 11 -69 20t-76 9q-75 3 -153 -9.5t-157 -34.5l-74 -25t-76.5 -30t-71 -41.5t-57.5 -59.5q-17 -35 -3.5 -59t43.5 -31q29 -13 64.5 -14t70.5 -1h6l19 3l17 3q9 0 18 2l18 4q-7 -36 -18.5 -73 t-24.5 -73l-68.5 -174.5l-72.5 -174.5l-68.5 -169l-64.5 -169q0 -5 -3 -10.5t-4 -10.5q-34 -2 -67.5 -5t-65.5 -3q-29 -3 -60.5 -18t-42.5 -47q-4 -14 -5.5 -28.5z" />
<glyph unicode="J" horiz-adv-x="1270" d="M241 609l1 5l4 34t10 35q10 28 34.5 52t55.5 40.5t63 26t57 9.5q58 0 93 -32.5t50 -78.5l55 -86h-2l4 -1q23 -39 29 -91l-4 -80q-2 -26 -3 -51t-4 -48q7 9 13 19t13 20l4 8t5 8q1 1 2.5 3.5t3.5 4.5q32 66 52.5 117t38.5 102q32 90 60.5 180.5t48.5 179.5q-7 1 -11 3.5 t-9 4.5q-14 5 -24.5 12.5t-16.5 18.5l-65 104q-27 20 -33 53.5t7 71.5l5 12q12 32 35.5 61.5t54.5 52t65 36t67 13.5h2q22 2 44 2h45q78 0 158 -5.5t162 -18.5q40 -10 65 -36.5t36 -62.5l60 -90q10 -20 16 -41t8 -44h1v-10t2 -9l2 -4l-2 2q3 -8 3 -17q0 -8 -5 -24l-1 -5 q-14 -35 -38.5 -56t-52.5 -32.5t-56 -16t-50 -6.5h-15h-12q-5 0 -5 2l-12 -31q-20 -109 -46 -222t-68 -229l-16 -44q-23 -63 -50 -128t-61.5 -128.5t-78.5 -125t-101 -116.5q-31 -31 -66.5 -53t-72.5 -36.5t-74.5 -21.5t-71.5 -7q-40 0 -72.5 9.5t-59 26t-48 39t-37.5 48.5 l-48 75q-37 37 -60 85.5t-37 98.5q-32 97 -43 200.5t-3 212.5zM287 618q-5 -107 4 -207t38 -191q13 -44 33 -86.5t50 -77t71.5 -55.5t98.5 -21q30 0 62.5 6t64.5 18t62.5 31t57.5 45q54 52 95.5 110t74.5 119.5t58.5 124.5l48.5 124l15 44q42 112 67.5 223.5t45.5 220.5 l17 45q6 13 15.5 18.5t20.5 8t23 2t21 0.5q16 1 37.5 4t43 11t39.5 22.5t27 37.5q4 16 1.5 24t-3.5 23q-4 43 -24 78t-63 45q-77 12 -155 17.5t-159 5.5h-44q-21 0 -43 -2h-3q-24 0 -49.5 -10t-48 -27t-40.5 -38.5t-26 -45.5l-5 -12q-12 -31 -3.5 -58t35.5 -38 q29 -11 63.5 -15t69.5 -4q4 -2 4.5 -6.5t2.5 -8.5q-9 -122 -47 -247t-83 -251q-17 -52 -38.5 -105t-53.5 -119q-11 -17 -22 -37.5t-24.5 -39.5t-30.5 -33.5t-40 -19.5q-25 1 -41 13.5t-25 31t-12.5 40.5t-3.5 43q-3 61 1 120t5 121q-2 25 -10.5 48.5t-24 41t-37.5 28 t-50 10.5q-19 0 -42.5 -6t-45.5 -17.5t-39.5 -27t-24.5 -34.5q-7 -16 -9 -33t-3 -32zM1031 971q0 -3 2 -3z" />
<glyph unicode="K" horiz-adv-x="1265" d="M167.5 52q-1.5 24 1.5 49t7 49v5t1 5l2 6l21.5 74t23.5 74q1 7 3.5 14t4.5 15q3 7 4.5 13t4.5 13q2 13 6 26l9 28q4 11 7.5 24t7.5 26q3 13 8 27t11 29l36 99q5 14 10.5 28l11.5 28q5 14 11 27t11 26l11 28l12 33.5t11 34.5t12.5 39t15.5 41q8 26 17.5 53l18.5 53 q8 19 15 39.5t15 40.5q4 7 7.5 14t8.5 15q1 4 3 7.5t4 7.5q17 37 37 76t47.5 74.5t65.5 65t92 47.5q6 2 15 2h17q44 0 76 -21t40 -61l58 -92l77 56q31 20 65 38t67.5 31.5t67 21.5t65.5 8h19q10 0 18 -1q42 -3 67.5 -26t33.5 -58l63 -96q16 -24 18 -57t-11 -69l-3 -7 q-20 -55 -62 -99t-89 -75l-54 -31l-81 -45.5l-80 -47.5q-5 -3 -12.5 -8t-12.5 -8q-27 -17 -53.5 -35.5t-40.5 -41.5q-5 -40 4.5 -74t20.5 -69l9 -23l7 -18l-2 2l26 -63.5l27 -63.5l26.5 -61l26.5 -61l14.5 -57t11 -59.5t1 -62.5t-14.5 -65l-5 -16q-11 -24 -29 -47.5 t-40.5 -42.5t-48.5 -31.5t-53 -14.5q-6 -2 -14.5 -3t-19.5 -1q-42 0 -72.5 18.5t-48.5 44.5l-62 96q-23 22 -34 48q-8 14 -10.5 22.5t-4.5 16.5q-3 11 -6.5 17t-5.5 17q0 3 -2 9t-2 8l2 -2q-8 21 -13.5 39t-11.5 35l-14 36l-26 -85.5t-27 -83.5q-15 -42 -39.5 -86.5 t-66.5 -89.5q-46 -44 -91.5 -58.5t-87.5 -14.5h-21q-9 0 -17 1q-31 13 -47 38l-60 95q-22 13 -31.5 33.5t-11 44.5zM213.5 73.5q1.5 -22.5 10.5 -40.5t32 -26q19 -3 40 -2t44 7t47 19.5t50 36.5q29 34 49.5 72.5t34.5 76.5l27.5 85l26.5 87l26.5 86t28.5 86l62 -157.5 l61 -159.5l26 -78.5l27 -78.5q7 -17 19.5 -31t29.5 -23t38.5 -12.5t45.5 1.5q20 1 39 10.5t35.5 24t30 32.5t21.5 36q13 32 17 62t1 58.5t-10 55t-15 52.5l-53.5 127.5l-53.5 127.5q-8 24 -17 47.5t-16 48.5t-9.5 51.5t2.5 55.5q21 40 60.5 67.5t78.5 51.5l106.5 64 l106.5 61q44 29 83 68t53 87q10 25 10 49q0 25 -9.5 44t-28 30.5t-45.5 11.5q-29 5 -61 0t-64.5 -16.5t-65 -28.5t-62.5 -35l-128.5 -94l-125.5 -94l27 101.5t23 101.5q3 24 -6 42t-25.5 29t-38.5 14t-46 -1q-45 -16 -77.5 -47t-56.5 -69t-43 -78.5l-37 -75.5 q-18 -45 -33.5 -89.5l-31.5 -89.5q-17 -47 -30 -91t-31 -90l-22.5 -53t-21.5 -53q-11 -24 -19 -49.5t-17 -49.5q-11 -27 -17.5 -53t-16.5 -53q-8 -26 -15 -51t-16 -51l-22.5 -76t-21.5 -76l-8 -48t-2.5 -47.5z" />
<glyph unicode="L" horiz-adv-x="1242" d="M213 169q-9 75 5.5 156t40.5 165q5 11 9.5 25t9.5 28l16 48l15 40q31 87 66.5 170.5t75.5 167.5q28 62 62 120.5t72 113.5l11 16q2 4 4 6.5t4 6.5l37 53t41.5 51t48.5 42.5t59 27.5q22 5 30 6t15 1q38 0 61.5 -20.5t30.5 -51.5l63 -99q14 -22 15 -52t-10 -62l-2 -2 q-11 -37 -23.5 -74l-25.5 -72q-9 -26 -20 -52t-19 -52l-22.5 -57.5l-22.5 -55.5q-11 -29 -22.5 -56t-21.5 -53l-25.5 -64l-24.5 -64l-15.5 -46.5t-16.5 -46.5q-3 -10 -5.5 -20t-6.5 -19v-1q-7 -16 -12 -32l-10 -32q10 2 18.5 4.5t18.5 4.5q7 2 15.5 3.5t17.5 3.5l51 12v-2 l14 3q55 12 109 22t106 14h6q42 0 72.5 -17.5t50.5 -40.5l-3 -1q20 -23 31 -52l63 -97q13 -20 17 -46.5t-7 -55.5l-5 -14q-13 -27 -34 -45.5t-43 -31.5q-75 -44 -151 -68t-151 -44q-17 -5 -32 -8.5t-29 -7.5q-80 -19 -158 -30.5t-153 -11.5h-38q-51 4 -85.5 27t-59.5 58 l-54 87q-35 31 -53 77t-21 97zM259 186q2 -36 12.5 -70.5t30 -61.5t48.5 -45t70 -21q81 -4 165.5 8.5t172.5 32.5l87 23.5t87.5 25t86.5 31.5t85 43q17 9 31 20.5t22 28.5q16 31 7.5 58.5t-26.5 44.5q-17 20 -43 34.5t-59 13.5q-55 -5 -112.5 -16t-114.5 -24 q-62 -11 -121.5 -24.5t-119.5 -19.5q-11 32 -9 68t10.5 73.5t21.5 76l25 75.5q18 56 38.5 111.5t43.5 110.5q20 56 43.5 110.5t43.5 110.5l46.5 124.5t42.5 124.5q9 24 9 47q0 24 -9 41t-28 25.5t-47 2.5q-32 -10 -57 -30t-46 -45t-39.5 -52.5l-35.5 -51.5 q-76 -107 -129 -224q-45 -93 -83.5 -185.5t-70.5 -186.5q-7 -25 -17.5 -50.5t-16.5 -50.5q-26 -80 -39.5 -157.5t-5.5 -149.5z" />
<glyph unicode="M" horiz-adv-x="1712" d="M200 72q-14 81 7 174q19 100 50 204.5t69 209.5l9 24q32 91 72 176.5t85 172.5q29 53 62.5 104t73.5 100l9 11q19 25 42 50.5t51 48t61.5 39.5t75.5 25l-2 -1h16q57 0 89.5 -32.5t48.5 -77.5l54 -85q20 -29 28 -65.5t8 -72.5l-4 -32.5l-4 -30.5l67 75l66 75q6 5 13.5 12 l12.5 12l16.5 16t18.5 20l62.5 64t68 59t75 47t83.5 28q75 -8 117.5 -42.5t64.5 -85.5l58 -93q24 -38 32 -87.5t5 -103.5t-15 -109.5t-28 -105.5q-3 -10 -7.5 -23t-9.5 -24q-5 -16 -10.5 -31t-13.5 -31q-3 -6 -5.5 -12.5t-5.5 -11.5l-26.5 -63l-24.5 -63q-23 -66 -36 -133 t-24 -135v2l-3 -21q-9 -72 -21.5 -141.5t-34.5 -138.5l-5 -13q-38 -54 -95 -82t-110 -33h-14q-9 0 -18 -0.5t-19 -0.5q-35 0 -72 10l-7.5 7.5t-6.5 7.5l-68 108h-2q-26 24 -30 50t-6 52v5q-2 3 2 7q2 60 9 122.5t18 125.5l-34.5 -55l-34.5 -55q-23 -32 -42 -61.5l-37 -57.5 l-7.5 -7.5t-6.5 -8.5h2v-3q-2 -2 -3 -2v0q-14 -18 -30.5 -36t-36 -33t-41.5 -25.5t-46 -12.5q-4 0 -9.5 -1t-9.5 -1q-45 0 -77 18.5t-52 49.5l-14 23q0 -3 1.5 -5.5t1.5 -5.5l-36 58l-8.5 -38.5l-9.5 -41.5q-2 -6 -4 -15.5t-7 -18.5q-10 -29 -28 -58t-42.5 -52.5t-54 -38.5 t-62.5 -15q-7 0 -11.5 0.5t-10.5 3.5v-2q-39 4 -69.5 21t-48.5 45l-60 94q-34 29 -44 74zM240 171q-1 -41 6 -79q8 -38 38 -61t74 -28q31 -6 58 7t49 37t36.5 53t19.5 55q14 47 22 98q5 24 8.5 48t9.5 49q7 28 16.5 57l19.5 57l14 43l15 43l17.5 44l16.5 44l6 14 q-5 -51 -11.5 -101l-12.5 -100q-5 -51 -7 -98t5 -94q3 -26 14.5 -48.5t30 -38.5t44.5 -24t58 -5q17 1 33 10t30.5 22t27 28l23.5 29l44 67t45 66q82 131 174.5 254.5t200.5 240.5l-22.5 -80.5t-26.5 -81.5l-46 -150.5t-39 -150t-28 -147.5t-12 -144q0 -26 2.5 -51.5 t19.5 -42.5q22 -8 48.5 -7.5t52.5 2.5q22 2 45 8.5t44.5 17.5t40 26.5t32.5 36.5q22 69 34 136.5t23 136.5q10 73 23 146t41 149q24 65 52 128l25.5 63t21.5 63q15 46 27 97t16.5 100.5t-0.5 95t-23.5 81.5t-53 59t-88.5 28q-46 -8 -86.5 -33.5t-78 -59t-73 -71t-70.5 -70.5 l-149 -170l-149 -171q0 19 -3 38t-1 39q4 78 10 156t14 158q0 33 -7.5 65.5t-25 58t-45.5 39t-69 7.5q-28 -5 -53 -20t-47 -35.5t-42 -44l-39 -45.5q-37 -46 -68 -95l-60 -99q-48 -91 -89.5 -182t-73.5 -184q-38 -101 -67.5 -202.5t-47.5 -201.5q-13 -44 -14 -85zM927 218 l1 -1l2 1h-3z" />
<glyph unicode="N" horiz-adv-x="1350" d="M186 116q-1 49 6.5 99.5t20 102t28 104l32.5 105.5l32 87l10.5 29t12.5 28q38 102 85 198.5t102 193.5l23.5 37l22.5 38q2 3 4 6.5t3 5.5l42 69t47 68.5t59.5 65t78.5 58.5q35 -6 61.5 -18t46 -29.5t33.5 -39.5t23 -47l56 -86q29 -44 39.5 -99t17.5 -112q0 -20 2 -37.5 t5 -31.5l12 46q11 43 24 86.5l27 86.5q14 40 34 82t49 80q13 21 32 40t41 34t46 23.5t47 8.5h14q50 -5 79 -31.5t40 -64.5l61 -95q14 -23 20.5 -50.5t6 -57.5t-6.5 -61.5t-16 -61.5l-31 -98t-32 -98l-16.5 -50l-17.5 -51l-17.5 -48.5l-17.5 -48.5l-44 -121l-21.5 -60.5 t-19.5 -59.5q-8 -20 -14.5 -41.5t-14.5 -41.5l-29 -75.5l-31 -74.5q-17 -38 -41.5 -75t-55.5 -72q-35 -38 -79 -70.5t-92 -40.5h-10q-60 0 -97 24.5t-61 62.5l-53 82q-36 32 -55.5 79t-35.5 95l-10 23t-7 20q-2 13 -5 26.5t-5 27.5q-4 -13 -7.5 -25.5t-8.5 -23.5 q-11 -45 -25 -91.5t-29 -91.5l-7 -19q-12 -32 -28 -68t-39.5 -67t-56.5 -51t-79 -20h-3q-34 2 -59.5 18t-43.5 36l-68 108l-10 8t-7 9q-11 24 -16 48.5t-3 55.5zM232 133q-2 -26 2.5 -48t12.5 -44q14 -17 34 -29t47 -14q36 0 61.5 19.5t44 48.5t31.5 61.5l23 58.5l27 89.5 l26 89.5q13 47 28 92.5l30 92.5q11 29 24 58t32 58l39 -203.5l38 -203.5l28.5 -80.5t36.5 -79t55.5 -60.5t87.5 -24q39 7 74.5 33.5t64.5 57.5q26 31 48.5 64.5t38.5 68.5q24 58 45.5 115.5l41.5 114.5q20 61 42.5 121t42.5 120l34.5 99l33.5 97t32.5 98.5l30.5 98.5 q14 40 19.5 83t-2.5 79t-32 60.5t-68 29.5q-17 3 -35 -2.5t-35 -16t-31 -25.5t-24 -31q-27 -35 -45 -73t-32 -75q-22 -63 -37.5 -126.5t-33.5 -126.5q-16 -64 -34 -128t-41 -128l-10.5 -30t-13.5 -30q-13 51 -21.5 105.5t-12.5 109.5q-4 56 -7.5 111.5t-8.5 110.5 q-7 34 -11 72.5t-9.5 77t-14.5 75t-25.5 66t-43.5 50t-68 26.5q-44 -27 -76.5 -64t-60 -79t-51.5 -85.5t-49 -82.5q-54 -97 -101.5 -193t-84.5 -196q-16 -35 -27 -69t-25 -69q-33 -100 -59 -200.5t-26 -195.5z" />
<glyph unicode="O" horiz-adv-x="1295" d="M254 239q-17 109 0 230.5t63 249.5l6 11q45 120 119.5 241.5t183.5 233.5l-1 -4q49 49 106.5 90.5t118.5 72t124 47.5t123 17h26q107 0 181 -50t107 -134l55 -82q13 -20 22 -43t16 -49v2q26 -97 14 -207.5t-50 -222.5l-2 -2q-48 -133 -120 -262.5t-175 -247.5h-2 q-50 -59 -110.5 -115.5t-127.5 -100.5t-138 -71t-143 -27h-15q-84 0 -141.5 35.5t-92.5 90.5l-51 78q-42 43 -65 100t-31 119zM300 258q8 -53 27 -103.5t52 -89.5t81 -62t113 -22q67 -2 134 23t130 66.5t120 95t105 109.5q100 115 170 240t116 253q18 54 31 107.5t18.5 106 t2.5 102.5t-16 95q-12 48 -37.5 87t-62.5 66t-85 41.5t-105 12.5q-58 2 -119 -14t-120 -46t-114.5 -71.5t-102.5 -90.5q-95 -98 -162.5 -209t-110.5 -225q-46 -123 -64 -243t-1 -229zM561 400.5q2 29.5 6 58.5q9 55 25.5 112.5t37.5 114.5q15 41 35.5 89t46.5 96t58 93 t71.5 80t86 57t101.5 24q47 -3 66 -30.5t19.5 -67.5t-11 -85.5t-24.5 -83.5q-30 -86 -71 -171.5t-97 -169.5q-23 -36 -53 -76t-66 -74t-77.5 -56t-86.5 -23q-29 3 -43.5 19t-20 40t-3.5 53.5zM688 340q28 11 54.5 32t50 47.5t44.5 55l39 54.5q48 75 86.5 153t66.5 156l7 20 q6 22 13.5 47t12.5 49q-41 -9 -76.5 -31.5t-66 -55t-56 -71.5t-46.5 -80.5t-38 -82t-30 -75.5q-19 -53 -35.5 -108t-25.5 -110z" />
<glyph unicode="P" horiz-adv-x="1164" d="M168.5 60.5q-2.5 23.5 1.5 49t13 50.5q8 17 13.5 32.5l11.5 32.5q9 25 19 47.5l20 44.5q20 44 37.5 87t32.5 86l15.5 40t13.5 40l7 22q16 43 28 85t23 86q5 23 12.5 48.5l15.5 50.5l29 113t37 116q5 14 10.5 27.5l10.5 26.5l3 7v9l5 10q19 52 56.5 98t85.5 80t101.5 53.5 t106.5 19.5q7 0 13 0.5t13 0.5h9q5 0 11 2q35 2 72 3.5t70 1.5h7q94 0 171 -35.5t122 -105.5h-1l10 -21.5l10 -21.5l53 -80h-2l5 -9q42 -64 46.5 -149.5t-27.5 -176.5q-2 -6 -4 -13.5t-4 -13.5q-18 -51 -49.5 -98.5t-72 -90t-87.5 -79.5t-97 -67h-2q-105 -63 -212 -99 t-211 -56l-5 -15l-21.5 -67t-19.5 -66h2q-2 -7 -3.5 -15t-3.5 -14l-14.5 -57.5t-17.5 -57.5q-2 -8 -4 -13t-3 -9q-14 -37 -40 -68t-59.5 -53.5t-70.5 -35t-71 -12.5q-20 0 -43 5q-51 6 -73 41l-68 106q-17 13 -25.5 33.5t-11 44zM214.5 106.5q-2.5 -26.5 3 -49t21 -37.5 t43.5 -18q31 -11 68.5 -3.5t72 28t60.5 52t34 69.5q11 35 20 69.5l18 69.5t19 70t22 70l8.5 23.5t9.5 23.5q109 18 220.5 54t218.5 100q49 29 95 66t84.5 79.5t67 89.5t41.5 96q30 86 24 167t-47 140q-39 62 -110.5 92.5t-157.5 29.5q-47 0 -92 -3.5t-93 -5.5q-46 1 -94 -17 t-89.5 -48.5t-72.5 -72.5t-44 -89l-5 -10q-29 -69 -48 -138.5t-36 -138.5q-22 -73 -40 -145.5t-47 -147.5q-22 -66 -46.5 -130t-54.5 -130q-17 -38 -31.5 -76.5t-31.5 -76.5q-8 -26 -10.5 -52.5zM717 782q4 51 13.5 102t28.5 104q14 45 47.5 78.5t75 54.5t86 29.5t80.5 3.5 q13 0 21.5 -6t14 -15.5t8.5 -20.5t5 -21q3 -23 3.5 -46.5t-8.5 -49.5q-9 -25 -27 -46t-40 -38t-47 -31.5t-48 -26.5q-53 -27 -106.5 -46t-106.5 -25zM882 872q12 5 23.5 11l24.5 13l-2 -3q34 17 67.5 39.5t48.5 52.5q-24 -4 -48.5 -13t-46.5 -23t-39.5 -33.5t-27.5 -43.5z M1031 1109l17 -29q-2 0 -1 1t1 3z" />
<glyph unicode="Q" horiz-adv-x="1256" d="M227 408q11 111 51 227q47 126 115.5 248t162.5 237q46 57 103.5 112t122.5 98.5t135 70.5t141 27h15q45 0 81 -12.5t64 -34.5t48.5 -52t33.5 -64l50 -75q44 -77 49 -173h2q9 -106 -11.5 -221t-61.5 -231q-38 -102 -90.5 -203t-134.5 -190q5 -14 11 -27t11 -27 q4 -13 8.5 -25l9.5 -25h-1q11 -31 17.5 -66t-9.5 -77l-5 -14q-13 -27 -34 -51t-46.5 -43.5t-54.5 -33.5t-58 -19q-11 -1 -27 -2t-44 -1l-77 121q-48 -33 -98.5 -51.5t-101.5 -18.5h-5q-78 0 -131.5 33.5t-88.5 86.5l-46 73q-38 38 -60.5 89.5t-33.5 106.5v-1q-23 97 -12 208 zM273 421q-10 -105 10 -199q9 -47 27.5 -91t48.5 -78t72.5 -54.5t99.5 -20.5q59 -2 121 26.5t111 79.5q24 -36 42.5 -74.5t29.5 -82.5q10 0 21.5 0.5t22.5 2.5q22 4 44 14.5t41.5 25.5t36 34t26.5 40q17 38 12 70t-17 60q-11 32 -23 63t-23 63q43 43 78 91t63.5 98.5 t51 101.5t41.5 102q38 112 58.5 223t11.5 214q-3 50 -17.5 97t-43 83.5t-71.5 57.5t-102 18q-63 1 -126.5 -23.5t-122.5 -65t-112 -91.5t-96 -103q-91 -111 -157 -229t-111 -239q-38 -109 -48 -214zM500.5 368q3.5 27 10.5 55.5t16 56.5l17 52q32 89 73.5 177.5t92.5 174.5 l50 76.5t56.5 78.5t68 64.5t83.5 33.5q27 -3 39 -19.5t14.5 -40.5t-1.5 -54t-10 -60q-9 -49 -25 -99.5l-33 -100.5l-39 -103t-46 -104q-23 31 -55.5 51.5t-79.5 20.5q-20 3 -41.5 -3.5t-40.5 -19.5t-33.5 -31.5t-19.5 -39.5q-11 -33 -8.5 -62.5t13.5 -55.5l23 -51.5 l22 -52.5q-7 -10 -16.5 -20.5t-21 -18.5t-23 -12.5t-23.5 -2.5q-28 6 -42 22t-19 38.5t-1.5 49.5zM778 669q25 -4 44 -12.5t36 -21.5q16 33 28 65l24 63l8 24q12 35 22.5 71t18.5 72q-31 -27 -58.5 -65.5t-50.5 -76.5l-14 -21.5t-13 -18.5l-23 -39.5z" />
<glyph unicode="R" horiz-adv-x="1403" d="M179.5 72.5q-7.5 55.5 11.5 115.5l14 44t15 44q9 25 19 50l20 51q5 13 10.5 25t10.5 25l10 29q3 8 7 15t7 15l66 153l63 153q14 44 24.5 89t18.5 94q9 48 24.5 97t35.5 102q15 38 41.5 77t61 72t76 55t87.5 27q100 13 197.5 16.5t196.5 3.5h5q83 0 139.5 -39t84.5 -99 q2 -5 4 -9t5 -8l54 -87q4 -7 7 -14t7 -14q28 -60 31 -132.5t-23 -150.5l-3 -10q-26 -69 -77 -129.5t-114 -111.5q-44 -36 -90.5 -68t-95.5 -56q10 -12 18.5 -24.5t18.5 -23.5q2 -5 5 -9t7 -8t11 -13t11 -13h-5l26.5 -44t25.5 -48l47 -73q21 -32 37 -70.5t20 -86.5 q-2 -3 -3 -10t-2 -9q-2 -5 -1.5 -7t0 -5.5t-2.5 -11.5t-8 -24q-5 -13 -8.5 -19.5t-8.5 -14.5v-2q-10 -23 -26 -45.5t-36.5 -42t-45.5 -32.5t-53 -16q-9 -2 -18.5 -3t-22.5 -1q-49 0 -83.5 21t-56.5 54l-56 87q-11 12 -21 25t-18 28l-32.5 72l-31.5 72q-22 26 -46 51l-47 51 l-4 -10q-5 -17 -11 -32.5t-11 -32.5l-10 -32.5t-9 -32.5l-7 -19q-15 -41 -32 -82.5t-43 -86.5q-20 -29 -42.5 -54t-47.5 -44.5t-51 -30.5t-52 -11h-11t-12 2q-34 4 -56.5 18.5t-37.5 34.5l-62 97q-38 31 -45.5 86.5zM223 124q-1 -32 9 -58.5t31 -43.5t56 -20q21 -5 43 2.5 t43 23t41 37.5t37 48q26 44 43 87l34 88q10 34 20.5 66l21.5 66q5 20 14.5 40.5t20.5 41.5q57 -57 110 -117t98 -126l40 -87t38 -88q21 -40 62 -62.5t99 -11.5q20 3 38.5 13t33.5 25t26.5 33t18.5 35q12 22 17.5 44.5t12.5 44.5q-3 33 -13.5 61t-25.5 53.5t-32.5 50 l-33.5 48.5q-80 106 -181 200q72 24 140 64.5t130 90.5q29 24 56 50.5t50.5 55t41.5 59t28 62.5q24 72 21.5 138t-28.5 122q-14 27 -33.5 49.5t-45 39t-57 25.5t-67.5 8q-97 0 -194 -3.5t-197 -16.5q-35 -3 -67.5 -21t-60.5 -44.5t-49 -59t-34 -63.5l-32.5 -94.5 t-24.5 -94.5q-15 -95 -46 -195l-64 -153.5l-67 -153.5l-59.5 -146.5t-51.5 -147.5q-10 -33 -11 -65zM756 826q9 53 26 106t39 107q8 14 12.5 28.5t13.5 28.5q-2 2 -2 5v7l5 3q63 2 124 3.5t123 1.5q17 1 27 -7t14 -20.5t2.5 -27.5t-8.5 -30q-11 -25 -30 -45t-42 -36t-48 -29 l-48 -25q-51 -24 -104 -43t-104 -27zM947 928q3 3 9 6l3 0.5t7 2.5h1t1 2l1 1q3 2 5.5 3.5t6.5 3.5h-27q-2 -4 -2.5 -6t-0.5 -4z" />
<glyph unicode="S" horiz-adv-x="1297" d="M174 36q-2 49 0 100.5t17 109.5l4 8q6 18 19 33.5t29.5 27t35.5 18.5t37 8q18 -2 28 -4.5l21 -5.5q4 -2 8 -2.5t9 -2.5q8 -4 21 -7q6 -2 11.5 -2.5t10.5 -2.5q2 -2 3 -2l14 -5q14 -5 29 -9t29 -6q4 0 9 -1t10 -1h24q32 0 67.5 3t71 11t70.5 20.5t65 32.5h-83q-39 0 -77 4 t-73 14t-65.5 26.5t-54.5 42.5l-5 5q-2 4 -5.5 8t-6.5 9l-58 90l-10 10.5l-10 10.5h3q-20 24 -27.5 54.5t-6.5 63.5t9.5 68t21.5 70l6 20q20 53 51 105.5t70 102t85 95t97 85.5q51 42 107 76t114 59t116 38.5t113 13.5h15q57 0 110 -11.5t98 -34.5t78.5 -57.5t51.5 -80.5 l58 -90q18 -29 28 -61.5t10 -70.5q2 -13 -0.5 -27.5t-6.5 -28.5q-2 -2 -2 -7q0 -4 -1 -7q-8 -23 -24 -39t-35 -26.5t-39.5 -15t-38.5 -4.5q-4 0 -10 1t-10 1q-35 5 -67.5 15t-64.5 26q-26 11 -53.5 19.5t-57.5 12.5h-8q-44 0 -93 -13.5t-97 -39.5q-6 -4 -12.5 -6.5 t-11.5 -6.5q17 2 36 4t40 2h17q42 0 81 -8.5t71.5 -25.5t58 -42.5t40.5 -59.5q2 -7 4 -12.5l4 -11.5l53 -80l7.5 -13.5l7.5 -14.5q15 -32 19.5 -68t0.5 -74.5t-14 -78.5t-24 -79v-2q-24 -59 -64 -112.5t-89.5 -100t-105.5 -86.5t-113 -71q-109 -58 -218 -91.5t-211 -33.5 q-9 0 -18.5 1t-18.5 1q-70 7 -131 32t-117 60l-73 116q-9 3 -14 9zM220 67q49 -31 105 -53.5t120 -28.5q105 -7 217 24.5t220 91.5q54 29 106.5 65.5t98 79.5t82 92.5t58.5 103.5q13 36 23 73t14 73t0 69t-18 62q-13 30 -36 53t-53.5 38t-66.5 22.5t-75 7.5q-32 1 -65 -5 t-66 -11t-66 -11t-65 -6q-16 -3 -27 3t-16 16.5t-4.5 24.5t6.5 28q9 27 26 51.5t39.5 46.5t48.5 40.5t53 32.5q54 29 111.5 44t108.5 14q33 -4 66.5 -13t59.5 -23q55 -28 123 -38q12 -2 28.5 0t32 8.5t27.5 18.5t15 30q2 11 3.5 23t-0.5 23q0 64 -27.5 111t-73.5 78t-106 46 t-124 14q-51 1 -104.5 -10.5t-106.5 -33.5t-104.5 -53t-99.5 -69q-48 -37 -92.5 -80t-82 -89.5t-67 -96.5t-48.5 -101q-14 -34 -23.5 -69t-11.5 -68.5t5.5 -63t27.5 -51.5q21 -23 49.5 -38t61.5 -24t68.5 -12.5t70.5 -4.5q38 0 77.5 1.5t77.5 3.5q40 3 80 5l79 4l6 -5 l-1 -16q-7 -13 -12.5 -24.5t-13.5 -24.5q-20 -49 -52.5 -84.5t-73 -60.5t-87 -40t-93 -23t-91 -9.5t-81.5 0.5q-24 3 -47 10.5t-43 15.5q-23 5 -44.5 13t-46.5 11q-20 -2 -39.5 -16t-24.5 -34q-12 -48 -14 -92.5t-2 -89.5z" />
<glyph unicode="T" horiz-adv-x="1323" d="M403 36.5q-10 39.5 8 89.5l2 5q18 51 38.5 99t43.5 94l30.5 68t32.5 67q4 8 7 15.5t7 15.5l46 97.5t42 95.5q21 57 40.5 116.5t36.5 122.5l-61 -4t-58 -3q-16 2 -25 8t-14 14l-70 107q-17 9 -21.5 23.5t-6.5 29.5l2 -1q-2 1 -2 3t-1 4l-4 20q-3 53 17 116q15 31 39 54 t52 38t57 23.5t55 10.5q109 12 220.5 22.5t221.5 17.5q43 4 85 5t84 1t85 -0.5t83 -2.5q33 -11 59.5 -27t42.5 -45q6 -13 13.5 -26t12.5 -28l51 -77l14 -25t11.5 -28t4.5 -32q0 -16 -6 -36v-2q-2 -4 -2 -8q0 -3 -2 -6q-11 -30 -32.5 -53.5t-48 -40t-55 -26.5t-53.5 -14 q-47 -8 -88 -11t-79 -3h-23t-22 2l-170 -405.5l-178 -403.5q-20 -42 -45.5 -84.5t-56.5 -86.5q-16 -20 -35 -41.5t-41.5 -39.5t-48.5 -30.5t-56 -14.5h-11q-41 0 -74.5 16t-51.5 45l-61 97q-31 23 -41 62.5zM446 68q4 -28 21.5 -48t45 -30.5t60.5 -8.5q21 1 41 11.5 t37.5 25.5t32.5 32.5t28 34.5q28 39 52 79t43 82l186.5 420l175.5 421q54 -2 111.5 -1.5t129.5 13.5q21 3 45 12t45.5 23t37 33t20.5 43q9 29 -1 53t-21 44q-13 23 -34 36.5t-48 21.5q-81 3 -162 4t-167 -7q-109 -7 -219.5 -17.5l-221.5 -21.5q-20 -2 -42 -8t-42 -16.5 t-37.5 -26.5t-28.5 -38q-8 -23 -10.5 -46t-1.5 -45q3 -8 4 -18.5t3.5 -19.5t7.5 -16t16 -9q67 4 133.5 7.5t132.5 4.5q-17 -102 -47.5 -204t-68.5 -205q-37 -93 -81 -183l-86 -181q-48 -93 -80 -188q-14 -35 -10 -63z" />
<glyph unicode="U" horiz-adv-x="1237" d="M242 303q6 99 40 199l23 66l35 90.5l35 90.5l50 123q5 16 12 31l14 31l12.5 30.5l12.5 30.5q9 26 17 53.5t12 55.5q4 9 6.5 18t3.5 20q6 28 21 66l5 16q18 41 53 74.5t75 61.5q36 20 76 35t88 23q36 -15 55.5 -39t27.5 -55l62 -92q18 -30 21 -68t-3 -79t-18.5 -82.5 t-25.5 -79.5l-37 -95.5l-39 -95.5l-19 -47.5l-19 -47.5q-8 -18 -15 -36t-16 -36l-34.5 -87l-33.5 -87q2 2 2.5 3.5t2.5 3.5q22 35 39 74l34 81l6 15q1 4 3.5 8.5t4.5 8.5l27 68.5l26 66.5l12 34q2 9 6.5 17.5t7.5 16.5l15 40q2 10 6.5 19t8.5 20l22 59.5t23 59.5l45 103.5 t47 94.5q17 33 41.5 70.5t56 69.5t70 53.5t83.5 21.5q1 0 3.5 -0.5t4.5 -0.5h11q35 -7 58 -27.5t39 -42.5q9 -12 15.5 -25t11.5 -28l56 -89q14 -22 20 -48t-2 -61l-4 -7q-12 -29 -36 -60q-10 -10 -15 -17t-12 -15h-2q-4 -5 -6.5 -10t-6.5 -9q-9 -17 -16 -32t-12 -29 q-2 -8 -5 -16t-5 -18q-8 -22 -15 -44.5t-12 -42.5q-4 -14 -9 -29.5l-10 -32.5q-11 -27 -19 -60q-4 -14 -9 -27t-10 -29l-8 -24q-36 -99 -82.5 -198.5t-112.5 -199.5q-47 -71 -104.5 -136.5t-122 -116t-134 -80.5t-140.5 -30h-14q-81 0 -143 34t-98 91l-49 78 q-23 20 -38.5 46t-24.5 55v-2q-34 88 -28 187zM286.5 319q-6.5 -90 22.5 -165q12 -39 35 -72t56 -56t74.5 -35.5t90.5 -10.5q64 -2 127 25.5t122 74t112.5 108t97.5 128.5q63 95 108.5 192t80.5 195q14 36 23.5 70t23.5 70q11 36 21 72t23 71q8 29 19 56t25 55 q13 14 23.5 29.5t24.5 28.5q8 11 15 23t12 23q9 30 2 53t-20 43q-14 20 -32 37t-47 21q-35 4 -66.5 -12.5t-58.5 -44t-48.5 -60.5t-36.5 -62q-26 -48 -47 -95l-42 -96q-20 -49 -37.5 -98.5t-37.5 -98.5l-38.5 -101l-39.5 -102l-41.5 -99.5t-50.5 -98.5q-14 -22 -32 -45 t-39.5 -41.5t-46 -30.5t-50.5 -12q-31 9 -39 34t-3.5 57.5t16 67.5l20.5 64q26 72 54.5 143.5l57.5 143.5l58 141.5t55 141.5l20.5 61t17.5 64t9.5 62.5t-3.5 57t-21.5 46.5t-43.5 32q-33 -5 -66 -18.5t-67 -31.5q-29 -20 -56 -46.5t-41 -57.5q-11 -28 -17.5 -56t-14.5 -56 q-5 -29 -13 -57.5t-18 -57.5l-51.5 -123l-51.5 -122l-47 -122.5l-45 -122.5q-31 -94 -37.5 -184z" />
<glyph unicode="V" horiz-adv-x="1242" d="M342 76q0 31 6 66q4 57 11 116t20 119l15 84l9 51q5 27 9.5 55.5t10.5 55.5q25 134 39.5 266t27.5 263l3 41q2 6 4.5 14.5t7.5 19.5q17 42 47 66.5t59 44.5q37 22 68.5 32.5t61.5 15.5h15q24 0 40.5 -6t28 -16.5t18 -24.5t10.5 -30l60 -94q9 -14 13.5 -30.5t6 -34.5 t1.5 -36v-34q-5 -57 -13 -106.5t-18 -96.5l63 103q42 66 88.5 128l95.5 123l16 14t10 13q2 2 3 4t4 4q18 22 38 43.5t43.5 41t51.5 35t63 24.5q42 -12 67.5 -41.5t38.5 -62.5l60 -93l9.5 -17.5t7.5 -17.5q9 -34 15.5 -67t-2.5 -75l-5 -14q-11 -32 -31.5 -63.5t-46.5 -60.5 l-45.5 -53l-45.5 -53q-36 -45 -69.5 -96l-65.5 -102q-6 -8 -10.5 -15.5l-9.5 -15.5h-2l-29.5 -49t-30.5 -48q-22 -38 -45.5 -74.5l-46.5 -72.5q-48 -73 -100 -143.5l-106 -139.5q-32 -39 -71.5 -78t-83.5 -70.5t-91.5 -51t-96.5 -19.5h-11q-29 2 -51 14t-36 32l-64 101 q-26 21 -35 55q-4 27 -4 57zM389.5 92.5q0.5 -27.5 3.5 -53.5q5 -24 25.5 -39t47.5 -17q43 -2 86 15t82.5 45.5t75 64.5t65.5 71l106.5 137.5t98.5 140.5l76.5 123l76.5 123l75.5 117.5t81.5 114.5l47 54l47 54t41 56t29 60q8 36 2.5 66.5t-14.5 59.5q-11 29 -28.5 51.5 t-48.5 30.5q-30 -8 -55.5 -26t-48 -41t-43 -48t-40.5 -47l-91.5 -116.5t-82.5 -119.5l-93 -153.5l-90 -155.5l-35 -60l-35 -61q-17 -24 -32 -51.5t-41 -47.5q-10 10 -12 24t-0.5 30t4.5 32.5t4 31.5q18 80 38 160l41 161q20 75 35.5 150.5t23.5 161.5q1 24 0.5 51t-7.5 50 t-23.5 37.5t-47.5 13.5q-26 -5 -53.5 -13.5t-54.5 -23.5q-23 -16 -45.5 -34.5t-32.5 -44.5q-3 -6 -5 -11.5t-2 -12.5q-14 -142 -30 -284t-42 -286q-13 -62 -22.5 -123l-19.5 -123q-14 -62 -21.5 -120.5t-11.5 -118.5q-5 -28 -4.5 -55.5z" />
<glyph unicode="W" horiz-adv-x="1517" d="M208 164q1 57 11.5 115.5t26.5 117t35 117.5l38 117q2 5 2 8q0 4 2 8l6 17q38 104 87.5 207t114.5 206q8 11 16 23.5l16 25.5l60 88t68.5 84.5t82.5 70.5t102 46h22q42 0 63.5 -19.5t28.5 -48.5l65 -101q2 -9 5 -17t5 -19q13 4 24.5 6.5t24.5 2.5h9q46 0 80.5 -24.5 t42.5 -68.5l49 -75q12 32 26.5 65t30.5 65q1 4 3.5 9t4.5 10q3 6 4.5 10.5t4.5 9.5l15 28q15 28 32 55.5t39 49.5t50 37.5t65 19.5q51 -8 84.5 -37.5t47.5 -73.5l56 -89q8 -11 14 -25t8 -28q11 -42 6 -89t-16 -93l-2 -6q-5 -13 -9 -25.5l-8 -25.5q-6 -18 -14.5 -37.5 l-16.5 -37.5q-17 -37 -31 -74.5l-28 -75.5l-14 -34q-4 -12 -7 -22.5t-7 -22.5q-4 -10 -7.5 -20t-5.5 -21q-7 -23 -15.5 -46.5l-17.5 -46.5q-36 -93 -86 -186t-119 -181h2q-32 -43 -71.5 -88.5t-86 -84t-99 -66t-110.5 -33.5h-13q-58 0 -95.5 24t-61.5 62l-48 75 q-30 -34 -63.5 -66t-71 -56.5t-78 -39t-83.5 -14.5h-8q-55 4 -94.5 29t-65.5 65l-57 87q-29 29 -47 69.5t-23 87.5zM253 176q4 -36 17 -68t35 -57t53 -41t70 -19q49 -2 96 20.5t89 58t78 78.5t65 82q4 -40 15 -81t33 -73.5t56.5 -52t84.5 -16.5q49 5 95.5 29t88 59.5 t77.5 77t65 81.5q65 85 114 174.5t84 180.5l15.5 44.5l15.5 44.5q7 22 15 44.5t14 44.5q16 48 35 94.5l39 93.5q14 30 24.5 60.5l21.5 61.5q10 44 14.5 87.5t-4.5 81.5q-9 40 -35.5 67.5t-70.5 33.5q-26 -2 -45.5 -16.5t-36 -36t-31.5 -48.5l-30 -53l-42.5 -92.5 t-38.5 -93.5l-53.5 -145.5l-56.5 -145.5q-29 -74 -63 -147t-74 -145q2 63 14.5 127.5t29.5 131.5q16 51 29.5 103l27.5 104q11 49 19.5 97.5t2.5 93.5q-7 36 -35 56.5t-67 18.5q-20 1 -40.5 -5.5t-39.5 -18t-36 -27t-30 -33.5q-26 -37 -44 -75l-37 -77l-68.5 -125 l-69 -125.5t-75 -123.5t-86.5 -119q2 32 10.5 66t21.5 67q34 93 83 184l102 181q8 17 19 33.5t20 33.5q26 44 47.5 87.5t39.5 88.5q13 29 22 63t6 62.5t-21 45.5t-58 13q-53 -15 -96.5 -49t-79.5 -77.5t-67 -91l-59 -89.5q-62 -99 -110.5 -199t-84.5 -202l-41.5 -123.5 t-37 -123t-27.5 -122t-13 -119.5z" />
<glyph unicode="X" horiz-adv-x="1289" d="M156.5 100q4.5 27 12.5 54v4q0 3 2 8l6 15q25 67 68 125t90 112l0.5 1t2.5 3l17 18l75 78.5l75 80.5q13 17 22 26l17 17q11 10 20 20t20 21t16.5 17.5t10.5 11.5q0 1 1.5 2t3.5 3q-4 37 -8.5 67t-6.5 59l-21 154q-5 30 -9 61t-4.5 64t3 68t14.5 73q11 31 33.5 56.5t50 44 t58.5 30t59 14.5q22 3 48 3q11 0 22.5 -2t25.5 -6q18 -11 25 -25t14 -31l2 3q1 -7 5 -14l58 -92q5 -8 8 -16t5 -16l4 -5q2 -8 5 -16.5t5 -16.5l59.5 68t64.5 65.5t73 59t85 50.5q51 -5 87 -34.5t49 -73.5l62 -92q17 -27 21.5 -61.5t-6.5 -71.5q-26 -65 -66 -125.5t-88 -118 t-101.5 -112l-108.5 -107.5l-29.5 -28.5l-28.5 -27.5l22.5 -94l22.5 -94q8 -29 14.5 -58l12.5 -58q3 -13 5.5 -26.5t4.5 -26.5q13 -50 22 -100.5t9 -107.5l-5 -19q-17 -31 -42.5 -53.5t-54.5 -40.5t-58 -31.5t-60 -17.5h-12q-42 0 -68 20t-43 46l-55 86q-20 17 -33.5 39.5 t-22.5 45.5q-2 3 -2.5 5.5t-2.5 4.5q-5 8 -5 14l2 -2q-7 13 -11 25.5l-8 25.5l-52.5 -65l-51.5 -64q-7 -7 -13 -14l-13 -15l-49 -52t-53.5 -48t-61 -36t-70.5 -16q-29 6 -55 17t-40 34l-65 104q-24 17 -33 51q-8 29 -3.5 56zM203.5 117.5q-6.5 -29.5 1.5 -54.5q3 -14 11 -24 t19 -16.5t24.5 -11.5t27.5 -8q33 1 62.5 17.5t56.5 40t51.5 51.5l47.5 52q53 63 100.5 127.5l97.5 128.5q12 -73 29 -146t46 -151q10 -19 20 -40.5t24 -39.5t33.5 -29.5t49.5 -10.5q24 5 48 16t47 25t43.5 31.5t33.5 40.5q0 69 -14 130t-27 124l-37 161.5t-36 163.5l122 121 t120.5 124.5t105 131t77.5 140.5q9 30 6 58t-16.5 49.5t-36 35.5t-51.5 17q-54 -27 -100.5 -67.5t-88.5 -86.5t-81.5 -95t-80.5 -92q-13 72 -23.5 143.5t-33.5 137.5q-5 16 -10.5 30t-19.5 22q-16 6 -36.5 5t-40.5 -4q-21 -2 -43.5 -9.5t-43 -20.5t-36.5 -30.5t-24 -39.5 q-10 -33 -13 -65.5t-2 -63.5t4.5 -61t8.5 -60q8 -75 20 -148t16 -150q-13 -14 -24.5 -28.5t-24.5 -28.5l-117 -123l-117 -122l-93.5 -116t-68.5 -123z" />
<glyph unicode="Y" horiz-adv-x="1169" d="M266.5 49.5q-10.5 49.5 9.5 107.5l7 15q34 94 95.5 180.5t128.5 169.5l-29 50q-22 22 -36.5 50t-23 59t-11.5 64.5t-1 66.5q0 67 15.5 138t42.5 146q7 19 15 38l16 38q13 35 36.5 69.5t55 63t69 48t78.5 24.5q6 3 12.5 3.5t14.5 0.5q38 0 59.5 -21.5t27.5 -52.5l62 -95 q14 -23 17 -53.5t-2 -59.5q-2 -5 -3 -12t-4 -12q-5 -18 -9.5 -36t-9.5 -35q0 1 2 2.5t4 3.5l11.5 15.5l11.5 15.5q5 8 12 16l14 16q26 32 48.5 64l45.5 64l10 13.5t10 14.5q3 4 7.5 9t8.5 10l9 9t8 9q23 29 47.5 57t59.5 53q27 17 54.5 26t53.5 9q5 0 12.5 -0.5t12.5 -2.5 q45 -8 75.5 -35t40.5 -67l62 -93q17 -26 21.5 -60t-6.5 -73l-1 -8q-15 -40 -37 -77t-48.5 -71.5t-55.5 -67.5l-57 -64l-32.5 -35l-32.5 -35l-98.5 -105t-92.5 -105l-137 -185t-125 -180l-19 -30l-20 -30h-1q-21 -29 -42.5 -62.5l-41.5 -62.5q-3 -2 -5.5 -5.5t-4.5 -5.5v1 l-36.5 -43.5t-42.5 -42t-50 -32.5t-59 -15h-5q-42 0 -71 16.5t-47 43.5l-58 92q-37 29 -47.5 78.5zM309 101q0 -34 13.5 -60.5t40.5 -42t65 -13.5q24 1 45.5 13.5t41 30.5t37 39l32.5 40l61 89.5l60 89.5q62 94 128 184.5l133 182.5l129 143.5l132 141.5q57 62 109.5 127.5 t78.5 138.5q7 31 3.5 58.5t-16.5 49t-34.5 35.5t-49.5 19q-21 5 -46 -2t-45 -20q-37 -26 -65.5 -62l-57.5 -70l-57 -78t-59 -77l-47.5 -62l-47.5 -62q-13 -13 -25 -27.5t-25 -28t-28 -24t-33 -14.5q-24 1 -34 15t-12.5 33.5t0 42.5t5.5 42l31 123.5l32 123.5q3 21 2 43.5 t-8.5 40t-23.5 27t-44 5.5q-33 -2 -63 -17t-55.5 -38.5t-44.5 -52t-29 -57.5q-39 -88 -61.5 -174.5t-24.5 -170.5q-1 -42 4.5 -84t21 -78t42.5 -62.5t69 -38.5l-77 -94t-74 -96t-64.5 -99t-47.5 -102q-17 -36 -17 -71z" />
<glyph unicode="Z" horiz-adv-x="1280" d="M198 145q23 56 55 108.5t70.5 102t81.5 97.5l87 95l18 21.5t21 22.5l21.5 23.5t20.5 24.5l148.5 157l152.5 157q-40 0 -80 2t-75 13q-26 5 -52 16.5t-39 31.5l-67 101q-19 15 -27.5 38.5t4.5 58.5l5 16q18 33 45 56.5t57 41t61 30t59 22.5q57 19 114 30t111 12h17t19 2 q10 0 20.5 1l21.5 2h87q45 0 91 -8t85.5 -25.5t69 -45t41.5 -67.5l60 -94q19 -29 23.5 -67t-9.5 -87l-6 -12q-28 -78 -80 -149t-107 -137q-80 -91 -161 -173.5l-164 -164.5h-1l-41 -43q6 2 12.5 3t14.5 4l44 5h17q22 0 44 -5t39.5 -15.5t29.5 -25.5t15 -36l65 -101 q22 -32 5 -82q-1 -4 -3 -6.5t-3 -6.5l-2 -4q-20 -46 -58 -84t-87 -61q-113 -42 -223 -63.5t-219 -38.5q-42 -5 -83.5 -8.5t-83.5 -3.5h-33t-31 2q-37 4 -60.5 23t-43.5 43q-1 3 -2.5 4.5l-4.5 4.5l-58 92q-13 11 -20 24q-18 23 -28 55.5t-1 70.5zM242 148q-8 -29 1 -54 t25 -45q15 -20 35.5 -36t51.5 -20q51 -4 107 -1t113 11q106 17 213 38t216 61q37 18 67 48.5t45 66.5q16 31 10.5 52.5t-23.5 35t-45 18t-53 0.5l-32 -6q-93 -24 -183 -40t-181 -23q66 78 138.5 148.5l143.5 143.5l164.5 164.5t157.5 170.5l55.5 67t52 69t44 71.5t31.5 73.5 q19 62 1 105t-57.5 69.5t-93.5 38t-106 11.5q-20 2 -41 1t-41 -1q-22 -2 -41.5 -3t-41.5 -2q-51 -2 -103.5 -12t-105.5 -28q-24 -8 -50.5 -18.5t-51.5 -24.5t-46 -32.5t-34 -43.5q-10 -21 -6 -36t15.5 -25.5t28 -16.5t33.5 -9q39 -13 84 -14t90 -1q21 0 40.5 0.5t40.5 0.5 q22 3 43.5 3.5t41.5 0.5q26 1 49.5 -1.5t49.5 -3.5l-248.5 -247.5l-241.5 -251.5l-101.5 -112.5l-101.5 -114.5t-90.5 -119t-68.5 -127z" />
<glyph unicode="[" horiz-adv-x="1009" d="M176 88.5q-3 62.5 19 126.5l28 90.5l28 90.5q11 29 19.5 58.5t19.5 60.5q5 14 9 29l8 29q14 47 30 93.5l33 92.5l14 36q2 9 6.5 18t7.5 18q8 17 14 33.5t11 33.5q45 111 95 222t124 215q1 2 3 4l4 4q19 20 39.5 38t52.5 29q53 10 107 15t111 5q94 0 171 -15l-2 -2 q36 -8 59 -30.5t33 -53.5l60 -95h-2l4 -2q17 -26 20.5 -58.5t-7.5 -67.5l-1 -5q-12 -31 -36.5 -56t-50.5 -45l-21 -8q-19 -11 -40.5 -20t-48.5 -9h-10t-10 1q-33 4 -65.5 5.5t-66.5 3.5l-3 -12l-51.5 -141.5l-52.5 -140.5q-29 -73 -55 -145l-53 -145q-8 -26 -18 -52t-21 -50 h2h13t18 1h8q42 0 74 -19.5t39 -56.5l66 -103q24 -33 4 -89l-2 -5q-12 -32 -34 -62.5t-51.5 -55t-63.5 -41.5t-68 -23q-54 -11 -108.5 -17.5t-111.5 -6.5q-48 2 -94 13t-83 38q-3 2 -4.5 6t-4.5 8l-63 99q-4 2 -9 7q-39 46 -42 108.5zM219.5 108q0.5 -53 31.5 -89 q31 -23 73 -33t87 -12q52 0 105 7t107 17q27 4 53.5 18t50 33.5t41.5 43.5t27 50q10 24 6.5 43.5t-16 33t-32 20t-41.5 6.5q-17 -3 -33.5 -2t-33.5 -2q-35 -1 -69 -0.5t-66 2.5q4 18 11 35t13 35q9 26 18 49.5t20 49.5l20 52t19 52l53 145t55 145l53.5 142.5l51.5 142.5 q5 12 11.5 23.5t14.5 22.5q44 0 85.5 -1.5t83.5 -6.5q20 -5 45.5 6t48.5 23q20 15 38 33t25 40q7 24 5.5 47.5t-11 43t-26 32.5t-40.5 17q-86 17 -178 15t-189 -20q-19 -6 -33.5 -20t-27.5 -28q-41 -58 -73.5 -119t-60.5 -123t-52.5 -124.5l-49.5 -123.5q-31 -78 -57 -156 l-50 -156q-23 -76 -48 -150.5l-48 -149.5q-18 -56 -17.5 -109z" />
<glyph unicode="\" horiz-adv-x="976" d="M469 1203q0 3 2 5q-2 2 2 9q1 28 3 56t14 60l5 12q9 23 25.5 42.5t37 34.5t43.5 24.5t46 12.5q8 3 16 3.5t15 0.5q44 0 73 -25.5t39 -60.5q-2 -1 -2 -2t2 -1l62 -97q5 -8 9 -15.5t6 -15.5l16 -71.5t13 -71.5l-2 1q18 -99 32.5 -201.5t20.5 -213.5q2 -48 3.5 -94.5 t3.5 -92.5q0 -23 2.5 -47t2.5 -47l-2 2q2 -14 3 -27.5t3 -27.5l10 -181q0 -55 -2 -109t-24 -113l-7 -19q-11 -22 -26.5 -43t-35 -38.5t-43.5 -30t-52 -16.5q-40 2 -65 18t-39 39l-59 94q-17 13 -28 30t-17.5 36.5t-11 41t-7.5 42.5l-8 37q-31 223 -50 452.5t-24 467.5 q0 5 -0.5 9.5t0.5 9.5v38q0 6 -0.5 13t-0.5 14q-2 13 -2 25v26q-2 2 -2 5zM517 1213q-2 -35 1 -67t3 -67q5 -235 23 -463t50 -452q6 -28 10.5 -61.5t16 -62t32 -48.5t57.5 -21q38 7 67.5 34.5t45.5 61.5q24 59 27 113t3 108l-8 117.5t-9 116.5q-2 71 -5 140.5t-5 141.5 q-7 106 -20 207.5t-31 201.5q-5 36 -12 71.5t-15 70.5q-9 31 -37 50.5t-68 12.5q-15 -1 -30.5 -7t-30 -15.5t-26.5 -22.5t-18 -28q-16 -35 -17.5 -67.5t-3.5 -64.5z" />
<glyph unicode="]" horiz-adv-x="1014" d="M154 43.5q-10 41.5 3 89.5q14 31 38.5 60t55.5 46q31 23 63.5 32t64.5 9l63.5 -6t67.5 -3q2 2 2.5 4t2.5 5l50.5 138l52.5 140l54 145l53 145l29 82q3 5 5.5 10.5t5.5 10.5l3 8q-9 0 -17.5 -1t-16.5 -1h-4q-29 0 -55 13t-40 35l-63 99q-23 18 -33 47.5t4 67.5l3 8 q12 33 35.5 64.5t53.5 56.5t65 41.5t70 20.5q53 11 106.5 17.5t106.5 7.5q50 -2 94 -9t65 -23q14 -16 23.5 -31t17.5 -32l66 -103q15 -23 22 -49t7.5 -53t-4.5 -54.5t-13 -54.5l-95 -302l-37.5 -121.5t-41.5 -121.5q-6 -18 -13.5 -35t-13.5 -35q-4 -9 -7.5 -18t-8.5 -18 l-46.5 -118t-51 -118t-60 -118t-72.5 -118q-2 -3 -5 -5.5t-5 -5.5q-18 -19 -37 -35t-48 -23q-106 -20 -212 -20q-94 0 -172 15q-27 4 -46.5 17t-30.5 33l-63 99q-31 24 -41 65.5zM201 135q-13 -51 5 -91.5t67 -48.5q86 -16 178.5 -15.5t190.5 20.5q19 4 34 19l29 29 q80 119 133.5 243t101.5 248q31 78 56.5 156l49.5 155l96 302q7 27 11.5 55t4 53.5t-8 48t-23.5 39.5q-31 25 -72.5 33.5t-85.5 11.5q-52 -2 -104.5 -7.5t-105.5 -18.5q-26 -3 -52.5 -16t-49.5 -32t-40.5 -43t-26.5 -49q-11 -23 -8.5 -42.5t14.5 -33.5t31 -21.5t40 -6.5 q17 2 35 2t35 1q35 0 68 -0.5t65 -2.5q-4 -18 -10.5 -35t-11.5 -35q-11 -26 -20 -51t-20 -51l-20.5 -51.5t-18.5 -51.5l-53 -145t-55 -145l-52 -141l-52 -141q-5 -11 -12 -23.5l-13 -23.5q-44 0 -86.5 2t-84.5 6q-23 0 -47.5 -6.5t-46.5 -23.5q-20 -12 -38 -32t-27 -40z" />
<glyph unicode="^" horiz-adv-x="944" d="M321 761q32 77 80.5 139.5t101.5 120.5h-1q6 8 14 17.5l15 17.5l24 28l39 38t36 39l52.5 53t56.5 51t65 47t78 40q57 -20 86 -55.5t46 -77.5l48 -77q20 -31 30.5 -65.5t18.5 -69.5l10 -53q3 -11 4 -21.5t3 -21.5q5 -33 9.5 -67t4.5 -69t-5.5 -72.5t-20.5 -77.5l-2 -7 q-12 -30 -34 -54t-49.5 -42t-57.5 -28t-58 -11q-4 0 -7 -1t-7 -1q-32 0 -55.5 14t-36.5 37l-65 96l-3 3q-16 -19 -29.5 -38l-27.5 -38q-13 -20 -29 -32.5t-33.5 -20t-35 -10t-33.5 -2.5h-17q-61 3 -94 41l-2 3q-5 4 -9 10t-8 11l-56 90q-5 2 -10 9q-23 19 -32 46.5t-4 60.5z M367 770q-4 -25 2.5 -45.5t23.5 -33.5q14 -15 33 -24.5t45 -11.5q12 -1 25.5 0t27 5.5t26 13t22.5 22.5l84 113l85 113q2 -45 2 -91q0 -45 3 -90q1 -20 8 -38t19.5 -31t31 -19.5t42.5 -3.5q21 0 43.5 7.5t42.5 20.5t36.5 31t25.5 40q16 43 21 83.5t3.5 80t-7 77.5t-10.5 76 q-10 34 -18 71.5t-21 72t-34.5 61t-58.5 37.5q-42 -17 -78.5 -44.5t-70 -60t-65.5 -68t-65 -66.5l-63.5 -71.5t-62.5 -72.5t-55.5 -75t-42.5 -79z" />
<glyph unicode="_" horiz-adv-x="1369" d="M118 89q17 37 44.5 62t59.5 42t65 27.5t61 18.5q69 13 122.5 17.5t106.5 6.5h20h27t25 -2q8 -2 18 -2h21h8l53 -2t53 -1q32 0 65.5 -0.5t64.5 -2.5t64.5 -3t65.5 -1l34.5 -20t35 -25t29 -31t17.5 -38l63 -97q13 -21 16 -45.5t-8 -55.5q-2 -7 -5.5 -14t-9.5 -15v2 q-15 -24 -37 -42.5t-46 -31t-48.5 -19t-46.5 -6.5q-90 -5 -180.5 -6t-179.5 -1q-99 0 -201 1t-201 4q-23 4 -42.5 15t-33.5 31l-3 5v-2l-61 98q-5 5 -11 10t-8 10v-2q-32 49 -17 115zM157.5 48.5q2.5 -19.5 13.5 -34.5q9 -17 26.5 -26t38.5 -14q186 -4 373 -5t377 7 q18 1 37 5.5t37 13.5t34 22t27 31q17 32 13.5 57t-18 44t-36.5 33t-42 25q-64 0 -125 3q-32 2 -64 2.5t-64 0.5q-29 0 -56 1t-57 3q-26 0 -53 2.5t-56 0.5q-50 -2 -103.5 -6.5t-119.5 -17.5q-23 -6 -50 -14t-52 -20t-45.5 -29.5t-32.5 -42.5q-5 -22 -2.5 -41.5z" />
<glyph unicode="`" horiz-adv-x="568" d="M640 1586.5q1 35.5 5 68.5q2 5 3.5 16t3.5 24l2 -2l6 20q11 26 30.5 51t43.5 44t52 30.5t55 11.5h6q23 -1 39.5 -9t28.5 -20t19.5 -27.5t12.5 -32.5l58 -88q12 -20 18 -43.5t11 -45.5l4 -10q5 -45 2 -93.5t-23 -101.5l-3 -10q-9 -19 -23 -38.5t-32.5 -35.5t-40.5 -26.5 t-46 -12.5q-42 2 -69 17t-44 41l-59 94q-24 19 -37 48t-18.5 62t-4.5 68.5zM686.5 1582.5q0.5 -41.5 11 -77t35 -59t69.5 -24.5q16 1 30.5 8.5t26.5 18.5t21.5 24t15.5 27q20 49 22.5 94.5t-3.5 89.5l-8.5 40.5t-13.5 39.5t-24 30t-40 13q-19 1 -38 -6t-36 -20.5t-30.5 -31 t-21.5 -36.5q-8 -14 -7.5 -26t-6.5 -26q-3 -37 -2.5 -78.5z" />
<glyph unicode="a" horiz-adv-x="1278" d="M124.5 120.5q4.5 34.5 17.5 72.5l13 36q42 115 97 221t115 210l134 226.5t149 219.5l86.5 106.5t101 102t116.5 78.5t133 37h5q72 0 113.5 -35t59.5 -89l56 -86q26 -41 34 -94.5t5 -106.5h2q-2 -93 -16 -184.5t-32 -184.5l-2 2q0 -5 -2.5 -12t-2.5 -12l-29.5 -159.5 t-19.5 -164.5h2v-14q2 -53 0.5 -107.5t-21.5 -114.5q-4 -9 -7.5 -18t-7.5 -16q-14 -33 -37.5 -64.5t-53 -57t-64.5 -43.5t-72 -23h-2l-17.5 -2t-20.5 -1q-29 0 -53.5 9.5t-38.5 31.5l-65 101q-15 12 -25 32h-2q-17 29 -16 62.5t8 68.5h-23q-28 0 -56.5 -1t-59.5 -5 l-21.5 -35.5l-20.5 -34.5l-29 -48l-29 -48q-15 -22 -34.5 -46t-43.5 -44.5t-51.5 -34t-58.5 -13.5h-9q-32 2 -58.5 18t-43.5 42l-60 95q-30 24 -42 67q-5 26 -0.5 60.5zM171 130q-3 -33 1 -62q9 -28 33.5 -45t59.5 -20q23 -2 44 8.5t40 27.5t35 38l29 39l57 94l59 94 q38 6 73.5 8t71.5 2q22 2 43.5 0t43.5 -2t42.5 -0.5t43.5 0.5q-11 -35 -17.5 -72t-17.5 -73q-6 -32 -8.5 -63.5t10.5 -55.5q11 -29 43 -35t68 -1q30 3 58.5 18t52.5 36.5t42.5 48.5t29.5 54q15 33 22.5 64t9.5 62t0.5 60.5t-3.5 59.5q6 88 22 176.5l34 179.5q18 93 31.5 184 t16.5 180q3 44 -3.5 89.5t-25.5 82t-53 59t-86 22.5q-59 -4 -113.5 -33.5t-103 -72.5t-91.5 -94l-79 -97q-80 -107 -147 -217l-133 -222l-122.5 -226.5t-99.5 -230.5q-10 -32 -13 -65zM664 570l61 129.5t69.5 129.5t82.5 125.5t101 117.5q11 -56 3.5 -117.5t-18.5 -123.5 l-27.5 -130.5l-27.5 -130.5q-63 -2 -122.5 -1t-121.5 1zM865 613h9q0 6 1.5 12.5t3.5 12.5l-8 -12.5t-6 -12.5z" />
<glyph unicode="b" horiz-adv-x="1359" d="M191.5 182.5q6.5 53.5 21.5 107.5q2 4 2 7q0 4 2 8l7 18q10 29 22.5 55t26.5 52q2 4 3 9t6 10q1 5 4 10t6 9q26 54 48.5 105.5t40.5 102.5q48 133 89.5 269.5t77.5 267.5q69 69 150 116t162 67q73 20 143 27t139 7q37 -1 74 -4t72 -10t67 -19.5t58 -32.5h-2 q46 -35 64 -93l58 -87q26 -44 29 -102t-17 -121l-6 -16q-23 -63 -64 -118.5t-89 -106.5l19 -31q19 -29 29.5 -65t12.5 -74q4 -49 -3 -102.5t-27 -107.5l-7 -21q-27 -72 -76.5 -135t-112 -115.5t-133.5 -93t-141 -67.5q-106 -42 -209 -63t-202 -21q-32 0 -62.5 1.5t-58.5 5.5 q-36 5 -63 22.5t-45 44.5l-60 93q-19 17 -32 40.5t-17 52.5h-2q-11 45 -4.5 98.5zM238 198.5q-6 -47.5 4 -89.5q5 -44 34 -75t76 -37q119 -16 249 1.5t263 71.5q64 25 129.5 63t123.5 86t103.5 105.5t69.5 122.5q23 56 32 110.5t4 104.5q-4 53 -23 98t-57 76q29 28 56.5 58 t51.5 62t42.5 65t28.5 68q12 36 15.5 70.5t-2.5 65.5t-21 57t-40 44q-49 36 -115 48t-136 14q-66 0 -133 -6.5t-136 -26.5q-72 -18 -142 -57.5t-128 -96.5q-36 -131 -76 -261.5t-88 -263.5q-20 -56 -43 -109.5l-49 -109.5l-41 -81.5t-32 -81.5q-14 -48 -20 -95.5zM522 266 q7 22 11 43.5t13 43.5q11 32 24 64l26 64q38 34 81.5 60.5t88.5 47.5q45 20 92 34.5t91 16.5q28 3 45 -8.5t24 -31t4 -43.5t-15 -48q-18 -51 -50 -89.5t-73 -66.5t-88 -46t-95 -28t-94 -13t-85 0zM700 319q35 7 70 19t66.5 29t58 40.5t45.5 53.5q-23 -7 -44 -15.5l-44 -17.5 h1q-38 -18 -74.5 -40t-71.5 -50zM729 836l19.5 62.5t21.5 62.5q14 40 43.5 76.5t72.5 56.5q44 20 85.5 23.5t81.5 5.5h41q14 1 22.5 -5t12 -16t2 -22.5t-7.5 -24.5q-27 -55 -74 -90.5t-101.5 -59t-112 -39t-106.5 -30.5z" />
<glyph unicode="c" horiz-adv-x="1273" d="M231.5 383.5q10.5 114.5 51.5 229.5l4 10q49 134 128 263t186 242l-2 -2q52 59 115.5 113.5t132.5 96.5t141.5 67t143.5 25h11q46 0 85 -12.5t71 -34t57.5 -50t44.5 -61.5q4 -11 9 -20t10 -19l55 -84q1 -3 1 -5q0 -1 2 -4q18 -31 31.5 -66.5t20 -74.5t4 -81.5 t-17.5 -87.5q-6 -16 -7 -22q-11 -28 -29.5 -55t-43 -48.5t-53.5 -35t-60 -13.5h-12q-6 0 -11 1q-35 0 -61.5 14.5t-42.5 38.5l-63 96q-32 27 -39 70v-2q-2 13 -5 27t-5 29q-33 -7 -63.5 -27.5t-58 -48.5t-51.5 -60.5t-42 -62.5q-52 -81 -89 -164.5t-68 -170.5q-2 -9 -6 -21 l-8 -23l-8 -21.5t-6 -21.5q40 4 79 16t75 34l57.5 35l63.5 38q29 11 54 16t45 5h7q2 0 3 0.5t4 0.5q37 0 56 -19t26 -46l63 -100q14 -22 13.5 -52t-11.5 -59l-4 -10.5t-7 -13.5q-1 -5 -4 -10.5t-4 -10.5q-3 -5 -6 -11.5t-4 -11.5q-52 -74 -124.5 -124.5t-145.5 -84.5v-1 q-71 -35 -144.5 -58t-144.5 -24h-10q-85 0 -146.5 36t-99.5 95l-46 72q-31 29 -51 66t-31 79v-2q-26 107 -15.5 221.5zM276.5 400q-11.5 -104 11.5 -197q11 -47 34 -88t57.5 -71.5t80.5 -47.5t103 -15q65 2 132.5 23t133.5 54q69 31 134.5 76t109.5 108q3 9 9 20t9 20 q11 22 16 46t0.5 43.5t-20 30t-44.5 6.5q-18 0 -37.5 -3t-39.5 -11l-56.5 -33.5t-56.5 -36.5q-62 -37 -127.5 -50.5t-124.5 -8.5q-37 9 -46.5 37t-4.5 65t18.5 77t22.5 73q32 89 71.5 176.5t93.5 173.5q23 37 52.5 77t65.5 74t77 56t87 23q35 -1 56.5 -22.5t26.5 -50.5 q4 -33 7.5 -65.5t11.5 -64.5q7 -33 32 -54.5t67 -18.5q27 -5 53 6t47 31.5t35.5 46t19.5 49.5q14 42 17 80.5t-3 74.5t-18.5 69t-29.5 63q-36 59 -93 101t-139 44q-66 3 -134 -20t-132.5 -62t-124 -91t-107.5 -107q-106 -112 -182.5 -237.5t-121.5 -255.5 q-38 -109 -49.5 -213z" />
<glyph unicode="d" horiz-adv-x="1258" d="M190 190q4 56 22 114l22 61l26.5 73.5l27.5 73.5l16 43l8.5 21l8.5 21l67 150.5t61 150.5l11.5 27t10.5 26q7 18 13 35.5t11 35.5l10 28q9 26 19.5 52l21.5 52q17 45 48.5 90.5t73 83t90.5 62t102 27.5l60 4t63 2q55 0 107.5 -6t99.5 -20.5t87.5 -38.5t72.5 -59 q14 -18 24.5 -37.5t19.5 -39.5l55 -84q29 -47 39.5 -104.5t6.5 -120t-19 -128t-37 -128.5l-11 -29q-52 -146 -149 -283t-228 -253h2q-59 -56 -127.5 -104.5t-141 -85.5t-147 -58t-144.5 -21q-17 0 -33 1t-30 4q-40 5 -70.5 24.5t-48.5 48.5l-58 92q-42 36 -53 92 q-14 49 -10 105zM236.5 203.5q-3.5 -50.5 7.5 -94.5q9 -46 40.5 -78.5t85.5 -37.5q69 -11 145.5 5t152 50.5t147.5 85t134 108.5q130 116 226 256.5t144 286.5q23 65 38.5 132t17 130t-13 119t-50.5 100q-38 41 -90 66t-112.5 36.5t-127 12t-133.5 -6.5q-44 -2 -84.5 -22.5 t-75 -52.5t-61 -71t-40.5 -78q-15 -32 -26.5 -63l-22.5 -63l-21.5 -64t-24.5 -64l-62.5 -151l-65.5 -151l-57 -144.5t-53 -144.5q-14 -51 -17.5 -101.5zM556 340q7 62 24.5 125t39.5 126l48.5 129.5t49.5 130.5t56.5 129.5t68.5 127.5q22 -2 44.5 0.5t44.5 2.5l45 -2 t44.5 -4t40 -10.5t32.5 -22.5q10 -17 12.5 -37t0 -41.5t-7.5 -44l-10 -44.5l-10.5 -34.5t-11.5 -34.5q-30 -82 -76 -164.5t-115 -154.5q-30 -36 -68 -68t-80 -56t-86 -38t-86 -15zM730 439q35 22 65.5 49t56.5 58q60 63 102.5 138t69.5 152q7 16 11 30.5l8 29.5l1 5q0 5 2 9 q2 8 3.5 15.5t3.5 16.5h-15q-6 0 -14 2h-2q-6 0 -11.5 0.5t-10.5 0.5h-16q-7 0 -18 -1q-7 -2 -13 -2h-13q-53 -90 -90 -183.5l-72 -190.5q-9 -27 -19.5 -53t-19.5 -52z" />
<glyph unicode="e" horiz-adv-x="1304" d="M198 145v9v15q2 72 18.5 146t39.5 149l9 22q45 125 101 244.5l115 238.5q30 62 64 125.5l68 125.5q37 42 78.5 70.5t84.5 47t86.5 30.5t84.5 21q4 0 14 4q2 1 6.5 2t8.5 3q69 13 135.5 20t136.5 7q22 0 44 -1l43 -2q46 -4 79 -30t42 -68l61 -93q33 -48 12 -117l-5 -11 q-9 -24 -26 -45.5t-38.5 -38.5t-46 -28t-49.5 -15q4 -8 6.5 -16.5t5.5 -17.5l61 -94q13 -20 15.5 -45.5t-8.5 -56.5l-7 -21q-12 -32 -34.5 -58.5t-51 -46.5t-61 -33.5t-63.5 -18.5l-109 -12t-109 -10q-2 0 -4 -1t-5 -1q-49 -6 -96 -14t-87 -30q-30 -15 -52 -40.5t-40 -55.5 l30.5 13.5t29.5 12.5l10.5 5.5l15.5 8.5l24 10q75 35 154 61.5t154 30.5h12q53 0 92.5 -24.5t52.5 -69.5l64 -97h-2l2 -2q6 -10 10.5 -22.5t6.5 -26.5l-4 -28l-7 -17q-36 -44 -77 -77t-85 -60t-90.5 -49l-93.5 -44l-56.5 -27l-56.5 -28q-17 -6 -32 -12.5t-32 -12.5l1 -2 l-104 -43t-104.5 -37.5t-105.5 -26.5t-106 -11q-35 5 -66.5 19t-50.5 43l-7 10v-3l-57 88l-16 16t-13 18q-17 29 -19.5 61t-0.5 64zM243 114.5q1 -34.5 16 -61.5q13 -29 42 -41.5t63 -16.5q55 1 112.5 14t116 33.5t117 45.5l116.5 49q54 28 112.5 54t115 55.5t108.5 65.5 t94 86l2 5l2 13q-5 45 -42.5 67.5t-87.5 19.5q-71 -4 -145.5 -29.5t-148.5 -58.5l-142.5 -64t-145.5 -54q2 45 13.5 91.5t25.5 94.5q8 24 21 49t30 48.5t39 43.5t48 35q54 28 108 37t107 16q53 4 107 9.5t108 12.5q25 4 51 15t49 27.5t40.5 38t25.5 47.5q14 29 11.5 53.5 t-17 42t-38.5 26.5t-52 8q-53 1 -108 -6.5t-112 -17.5l-113.5 -23.5t-111.5 -16.5l3 11q7 18 16 35t17 35q22 40 62.5 65t82.5 40q41 14 82.5 19t81.5 5q40 -1 81.5 -0.5t83.5 4.5q20 3 39.5 11.5t36 22t28 30.5t16.5 36q9 28 5.5 52.5t-16.5 42.5t-34 29t-47 13 q-84 7 -171 0.5t-178 -24.5l-81.5 -20.5t-84.5 -26t-81 -39t-70 -59.5l-67 -123t-63 -123l-120.5 -248.5t-102.5 -249.5q-22 -72 -37.5 -143t-17.5 -140q-2 -34 -1 -68.5z" />
<glyph unicode="f" horiz-adv-x="1099" d="M165 92q-2 33 3.5 68.5t15.5 69.5l7 19q8 26 19 46q5 11 8 20t7 18l7 20q3 5 5.5 10.5t4.5 10.5l27 64t25 65l11 29q20 58 38 117l31 89l30 88l54 144t59 144q6 10 9 21q4 11 6.5 18.5t6.5 13.5q16 30 39.5 55.5t52 46.5t60 37.5t63.5 28.5q5 1 12 3t12 3 q51 14 100.5 25.5t96.5 19.5l-4 -2q36 8 67.5 13.5t57.5 10.5v-2q3 0 7 2q4 0 8 1t7 2q5 0 12.5 1t16.5 3q15 2 32 2.5t40 0.5h17q10 0 22 -1l-2 1q47 -9 76.5 -32t44.5 -55q4 -9 9.5 -18t9.5 -19l48 -75q2 -5 5.5 -10.5l6.5 -10.5q14 -28 23 -61t-3 -77l-1 -5 q-11 -29 -31.5 -48t-45 -30.5t-50 -17t-46.5 -7.5q-53 0 -108 -4.5t-112 -10.5q-22 -2 -43.5 -7.5t-43.5 -16.5q19 -1 38.5 -3t38.5 -6.5t36 -12.5t32 -21q11 -11 19 -24t10 -29l62 -95l3 -3q20 -30 17.5 -69.5t-17.5 -81.5l-3 -12q-9 -22 -24.5 -42t-36 -36t-43.5 -26.5 t-45 -14.5q-35 -4 -67.5 -4.5t-67.5 -0.5q-13 -2 -27 -2h-26h-1q-43 -2 -83 -5.5t-78 -20.5q-17 -35 -29 -70.5l-25 -70.5l-45 -121q-2 -12 -6 -23.5t-9 -24.5q-13 -36 -28 -70.5t-32 -66.5q-13 -23 -31 -45.5t-40 -40.5t-47.5 -29t-52.5 -11h-10t-12 2q-35 4 -55.5 18 t-34.5 36l-62 98q-24 18 -35 46t-13 61zM210.5 155.5q-4.5 -39.5 3 -72.5t29 -56.5t62.5 -28.5q20 -5 40 2t38 21t33.5 33t25.5 38q43 87 72 174l52 145.5t59 143.5q32 18 63.5 26t63 11t62.5 3q32 0 62 2q33 0 65.5 0.5t67.5 4.5q16 3 33 11t31 19.5t24.5 26t15.5 30.5 q17 42 16.5 82.5t-26.5 64.5q-14 12 -31 19t-36.5 10.5t-40 4.5l-41.5 2q-26 2 -52.5 0.5t-53.5 -3.5q-27 -4 -53.5 -5t-53.5 -6q11 36 30.5 72.5t42.5 71.5q18 24 41.5 41.5t49 29.5t52.5 19.5t52 10.5q57 6 112.5 10.5t109.5 4.5q16 1 35.5 4.5t37.5 11.5t32.5 20.5 t20.5 31.5q10 35 1.5 63.5t-22.5 52.5q-13 27 -34 45.5t-53 24.5q-35 7 -70.5 3t-72.5 -6q-38 -7 -78.5 -13.5t-78.5 -15.5q-51 -9 -100 -21l-100 -25q-25 -9 -49.5 -22.5t-47 -30.5t-41.5 -37.5t-32 -44.5q-7 -12 -10.5 -24.5t-10.5 -23.5q-31 -72 -57.5 -142.5 l-53.5 -142.5q-27 -73 -50.5 -146.5l-48.5 -147.5q-18 -50 -39 -99.5l-41 -99.5q-9 -26 -20.5 -50.5t-20.5 -50.5q-12 -37 -16.5 -76.5z" />
<glyph unicode="g" horiz-adv-x="1300" d="M238.5 412.5q11.5 119.5 55.5 241.5l6 17q51 137 138.5 268.5t211.5 243.5h-1q63 57 132.5 102t141 76t143.5 47.5t139 16.5h25q13 0 24 -2q26 0 52.5 -6.5t49 -18.5t39 -30t23.5 -42l65 -102q13 -21 15.5 -48.5t-8.5 -61.5q-2 -6 -2.5 -9.5t-2.5 -8.5 q-8 -22 -22.5 -43.5t-33 -38.5t-41.5 -27.5t-48 -10.5h-16h-10q55 -29 75 -90l60 -92q15 -25 22 -55t2 -63q-3 -25 -8 -48t-14 -46q-16 -42 -33.5 -80.5l-35.5 -76.5l-16 -32.5t-14 -32.5q-52 -97 -118.5 -187.5t-156.5 -169.5q-43 -40 -92.5 -74.5t-102 -60t-105.5 -40 t-103 -14.5h-19q-93 0 -158.5 39.5t-107.5 103.5l-48 72q-31 33 -52.5 74.5t-32.5 87.5q-29 102 -17.5 221.5zM282.5 313.5q3.5 -53.5 17.5 -101.5q12 -51 38 -94.5t64.5 -75t89 -48.5t112.5 -14q46 -1 95 12.5t97 37t94 55.5t85 70q85 74 148 160.5t111 177.5q24 54 51 108 t46 109q9 22 14.5 43.5t7.5 41.5q3 31 -4 59t-23 49.5t-40.5 35t-56.5 15.5q-42 -2 -86 -11.5t-88 -23.5t-89 -31.5l-89 -34.5q-21 -8 -42.5 -20t-40 -27.5t-33.5 -34t-22 -39.5q-13 -27 -12 -50.5t12 -41t32 -26t48 -5.5q23 2 47 5.5t50 8.5q25 6 48 10.5t46 8.5 l-8.5 -28.5t-9.5 -28.5q-18 -51 -47.5 -111.5t-71 -113t-95.5 -87.5t-121 -34q-43 0 -68.5 16.5t-38.5 43.5t-14 61.5t5 72.5t17.5 76t23.5 71q38 105 96.5 209t149.5 192q43 45 94 77.5t104.5 53t107.5 29t103 4.5l12 -2l12 -1q21 -3 39.5 5.5t33 24t24 34.5t12.5 36 q12 35 4 61t-29 43.5t-50.5 26t-60.5 8.5q-65 6 -136.5 -6t-143.5 -40.5t-141 -71t-129 -97.5q-123 -109 -211.5 -242t-136.5 -270q-20 -58 -33.5 -116t-18.5 -114.5t-1.5 -110zM657 283q5 -1 15 -1h2q34 0 64.5 13t56.5 35.5t49 51.5t42 62h-12q-31 0 -54.5 12t-36.5 32 l-41 65l-22 -51t-20 -50q-13 -38 -26 -82t-17 -87z" />
<glyph unicode="h" horiz-adv-x="1312" d="M180.5 124q0.5 42 10 86t21.5 84l17 49q14 40 30.5 79.5t34.5 77.5l46.5 104.5t41.5 102.5q3 6 4 11.5t3 11.5l9 26q5 11 8 23t7 23q9 25 16.5 49l15.5 48q7 27 15.5 54t19.5 56l17 44l8.5 23l8.5 23q18 38 38.5 76t49.5 76h-1l34.5 45.5t41 44t49.5 35.5t59 20 q15 3 36 3q46 0 72 -21.5t35 -54.5l62 -98h-2l4 -1q13 -20 17 -46t2 -55.5t-9 -59.5t-17 -58q-3 -8 -6.5 -16t-5.5 -14l-35 -88l-35 -88l36 2t36 3l25 66l9 24l8 22l7 18q8 19 12.5 39t11.5 42v4q2 5 3 10.5t4 13.5q2 5 3.5 11t3.5 13q8 35 19.5 70l22.5 70q2 2 2 4q0 3 2 6 l3 12q12 31 31.5 64.5t46.5 61t60.5 45.5t71.5 18q2 0 3 -0.5t4 -0.5h8q54 -3 84.5 -29.5t43.5 -66.5l58 -92q26 -42 25.5 -99t-20.5 -113q-4 -10 -6.5 -19t-4.5 -18l-14.5 -43t-16.5 -44l-12 -35q-8 -20 -15.5 -41.5t-13.5 -41.5q-8 -20 -13.5 -41t-12.5 -41 q-54 -156 -98.5 -308.5l-88.5 -307.5l-18 -62l-8 -25q-15 -29 -38.5 -53t-51.5 -42t-58 -29.5t-57 -15.5l-2 2q-8 -3 -12.5 -3.5t-9.5 -0.5q-28 0 -46.5 11.5t-30.5 29.5l-63 99q-26 17 -36 50t-8 66q2 64 16 121.5t32 112.5h-135l-24.5 -55.5t-20.5 -53.5l-8 -24 q-7 -18 -10.5 -33.5t-10.5 -33.5q-2 -11 -5 -24t-8 -27q-3 -14 -10.5 -39t-15.5 -48q-2 -7 -5 -16t-5 -20l-5 -17q-10 -26 -27.5 -47.5t-39 -37t-46.5 -24.5t-49 -9q-7 0 -16 1.5t-18 5.5l1 -2q-33 5 -54.5 20t-35.5 35l-63 99q-28 23 -38.5 58.5t-10 77.5zM227.5 113 q3.5 -43 25 -74t68.5 -39q18 -7 40.5 -3t43 16.5t36.5 31.5t22 42q8 31 17.5 61.5t14.5 59.5q11 32 18.5 62.5t18.5 62.5q14 44 33.5 87l38.5 87q29 -3 58 -3.5t60 -0.5q53 0 106 1.5t106 5.5q-12 -40 -22.5 -79.5t-24.5 -78.5q-17 -54 -31 -110.5t-18 -123.5 q-1 -21 3 -41.5t14.5 -36t28 -23.5t43.5 -2q22 3 45.5 12.5t45.5 23.5t40 32t29 40l7 17l96.5 340.5t108.5 340.5l27.5 83l26.5 82q17 40 29.5 79.5l25.5 79.5q13 38 17.5 78t-4.5 73t-33 54.5t-67 23.5q-33 5 -61 -10.5t-50.5 -41t-38 -57t-22.5 -57.5l-23 -69t-20 -69 q-11 -35 -18.5 -68t-20.5 -68q-7 -17 -12 -33.5t-14 -33.5q-5 -17 -12 -33.5t-12 -33.5q-4 -9 -6 -17.5t-6 -17.5l-81.5 -6t-80.5 -3q-32 0 -63.5 -0.5t-62.5 3.5l68.5 173t67.5 172q18 39 29 86.5t6.5 87.5t-30.5 62.5t-81 12.5q-21 -2 -40.5 -13.5t-36.5 -27.5 t-31.5 -34.5t-26.5 -35.5q-27 -35 -48 -72t-38 -74l-37 -96.5t-29 -96.5q-14 -49 -31 -98.5l-34 -97.5q-20 -53 -43 -105l-47 -105q-23 -51 -43.5 -101t-37.5 -101q-13 -43 -21.5 -91t-5 -91z" />
<glyph unicode="i" horiz-adv-x="679" d="M162 82.5q3 33.5 7 64.5q9 55 25 114.5t38 122.5l33 96l35 97l35.5 97t38.5 97l35.5 95.5l35.5 96.5q12 28 23.5 58l23.5 59l16 40t14 39q0 2 2 3.5t3 3.5q3 5 4 8t3 5l26.5 58t36.5 58q14 20 31 40.5t37.5 38.5t45.5 32t57 22h10q3 0 4.5 1t4.5 1q45 0 73.5 -25.5 t38.5 -63.5l62 -95q13 -25 19 -51q1 -40 -5.5 -82t-22.5 -84q-38 -111 -83 -222q-7 -19 -15 -38t-14 -37q-16 -38 -30 -75.5l-28 -74.5q-14 -38 -25.5 -76l-22.5 -76l-27 -87q-5 -17 -10.5 -33.5t-10.5 -33.5q-9 -32 -20 -66.5t-24 -67.5l-11 -29q-15 -44 -38 -85t-52 -81 q-15 -23 -35.5 -45.5t-45 -41t-51.5 -31t-56 -15.5h-7q-32 0 -50 11t-30 27l-63 100q-15 9 -23.5 22.5t-12.5 27.5q-8 47 -5 80.5zM208.5 99q-2.5 -29 1.5 -56q3 -12 8.5 -24t14.5 -21t21 -14t29 -4q22 2 42.5 12t39 25t34.5 33.5t29 36.5q26 38 48 76t36 78q23 57 40 113.5 l35 113.5q20 60 36.5 120t38.5 122q20 57 43.5 113.5l45.5 113.5l42.5 110l41.5 110q14 38 20 76.5t3 73.5q-5 36 -31.5 60.5t-70.5 18.5q-20 -5 -37.5 -15.5t-32.5 -24.5t-27.5 -30.5t-23.5 -32.5q-25 -31 -40.5 -64.5l-31.5 -66.5l-74.5 -191l-73.5 -191l-70.5 -192 l-69.5 -192q-20 -58 -35.5 -115t-24.5 -114q-4 -29 -6.5 -58z" />
<glyph unicode="j" horiz-adv-x="1277" d="M239 461.5q3 121.5 51 250.5l5 17q14 38 45.5 62t63.5 38q26 11 56 17.5t59 6.5q38 -10 56.5 -32.5t25.5 -49.5l59 -93q17 -25 19 -55t2 -56q-2 -5 -2 -15t-1 -18h1q0 -18 -1.5 -38.5t-3.5 -38.5q-2 -20 -2.5 -38.5t-2.5 -37.5q-3 -20 -2 -36q5 11 9.5 23.5t9.5 24.5 l5 15q4 13 9 27l10 28q2 6 3 12.5t4 12.5l10 26q2 6 3 12.5t4 12.5l8 22q3 14 7.5 27.5l9.5 27.5q35 94 65.5 189.5t54.5 192.5q-16 9 -28 20t-20 26l-63 96q-20 17 -32 40t-12 54q0 20 2.5 39.5t10.5 38.5l2 6q17 45 57.5 73t85.5 32q49 4 96.5 5.5t96.5 1.5 q100 0 195.5 -7.5t186.5 -23.5q30 -4 46 -23.5t24 -42.5l65 -101q5 -11 9 -25q2 0 2 -1t1 -1h-1q19 -46 6 -96l-6 -15q-17 -45 -47 -73t-66.5 -43.5t-76 -21.5t-73.5 -7q-20 -60 -35.5 -119l-31.5 -118l-16 -56l-16 -55l-52.5 -172t-58.5 -173l-21 -55q-23 -63 -64 -131.5 t-97 -125.5t-124 -93.5t-145 -36.5h-13q-90 0 -150 39t-98 99l-48 72q-40 42 -64.5 97t-37.5 113q-32 106 -29 227.5zM286 478.5q-3 -118.5 26 -224.5q13 -52 36 -101.5t58 -88.5t84 -62.5t116 -21.5q68 -2 129.5 31.5t112 86t87.5 116t57 121.5q73 196 129 390l54 195 t59 194q30 0 68.5 2.5t75.5 14t67 35t43 66.5q5 22 4 42t-7 37q-7 15 -17.5 29t-30.5 17q-135 23 -277 28.5t-291 -4.5q-27 -2 -54 -20.5t-35 -48.5q-5 -15 -8.5 -31t-3.5 -32q1 -33 18.5 -54.5t43.5 -35t58.5 -19.5t63.5 -8q-24 -129 -63 -257.5t-87 -258.5q-9 -26 -16 -51 t-16 -51l-17.5 -51.5l-16.5 -51.5q-9 -27 -20.5 -53l-24.5 -53l-2 -3l-5 -17q-2 -4 -6.5 -8.5t-6.5 -8.5q-40 0 -66 21t-37 52q-14 35 -18.5 75t-1.5 82q2 38 5 76t5 76q-1 22 -1 48t-4.5 49t-16.5 40.5t-36 23.5q-22 0 -45 -6t-45 -15q-23 -9 -44.5 -25.5t-27.5 -39.5 q-49 -128 -52 -246.5z" />
<glyph unicode="k" horiz-adv-x="1324" d="M186.5 137q0.5 38 8.5 77.5t20 75.5q16 54 34 108.5l36 108.5l61 167q5 14 11.5 28t11.5 28l42 120l6 11.5t5 12.5l10 25.5l10 25.5q18 46 39 91l43 92l22 46q17 29 42 65l57 80l7 8l3 4.5t4 4.5q23 28 51.5 54t76.5 36h12q2 0 5 1t5 1q42 0 73 -19.5t40 -57.5v2v-5 l64 -99q8 -12 11 -28l3 -20l51 38l57 41l58 41.5t61.5 37.5t65.5 29t71 16q48 -5 78 -32t41 -67l62 -94q19 -31 22.5 -69.5t-7.5 -80.5l-2 -7q-8 -21 -21.5 -38.5t-31 -32t-37 -25.5t-38.5 -18q-22 -11 -35 -16.5l-25 -10.5l-33 -15t-30 -16q-82 -45 -157.5 -103.5 t-144.5 -121.5q8 -17 17.5 -33.5t20.5 -33.5l22 -48q13 -28 28.5 -54l31.5 -55l49 -91.5t40.5 -96.5t22 -105t-5.5 -117l-4 -10q-15 -31 -38.5 -59t-52 -49t-61 -34.5t-65.5 -16.5q-40 0 -63.5 16t-38.5 39l-58 92q-20 17 -33 41t-22 48l-13 26q-5 17 -11.5 33t-11.5 33 l-22 67q-11 27 -21 55t-18 57q-4 -10 -7 -18.5t-8 -17.5q-8 -26 -19 -47q-11 -22 -15 -38l-7 -17q-8 -20 -15 -39.5t-11 -37.5l4 -1q-3 -8 -5 -16.5l-4 -16.5l-14.5 -55.5t-16.5 -56.5q-1 -7 -3 -13t-4 -11q-9 -23 -25 -45.5t-37 -40t-45.5 -28.5t-49.5 -11q-12 0 -27 5 l2 -2q-35 5 -56.5 20t-35.5 37l-74 114q-22 25 -30.5 59.5t-8 72.5zM232.5 112q4.5 -42 26.5 -73t70 -39q21 -6 42.5 1.5t39.5 23t30.5 36t15.5 40.5l17.5 56.5t15.5 57.5l15.5 58t18.5 58q8 27 20 53t21 53q13 27 24 54l22 53q27 -9 45.5 -26.5t32.5 -39t24.5 -46 t22.5 -46.5l45 -131.5l45 -131.5q9 -19 17.5 -40.5t20.5 -40t30 -30.5t46 -12q26 2 51.5 12.5t48 27.5t40.5 39t29 46q15 77 1.5 143.5t-40.5 126.5t-61 116.5t-60 114.5l-38 69t-35 70q78 72 162 138t177 118q32 17 65 30.5t65 30.5q28 11 56.5 32.5t38.5 51.5q9 31 7 61 t-13.5 54.5t-33 40.5t-52.5 19q-37 -4 -73 -20t-71 -38t-69 -47.5t-67 -47.5l-154.5 -119.5t-157.5 -116.5q7 28 21 57q14 38 39 80q9 20 20 40t19 40q16 38 22.5 74t-0.5 68q-8 31 -35.5 44t-63.5 9q-18 -5 -33.5 -15.5t-29 -24t-25.5 -28.5t-24 -28q-22 -29 -42.5 -60 t-38.5 -63l-52 -111.5t-48 -111.5q-11 -25 -20 -48.5t-20 -47.5l-16.5 -47.5l-17.5 -48.5q-20 -57 -41.5 -110.5t-41.5 -110.5l-35.5 -107.5t-33.5 -107.5q-13 -43 -22 -91.5t-4.5 -90.5zM617 123h1v2q-2 -2 -1 -2z" />
<glyph unicode="l" horiz-adv-x="1101" d="M184.5 149q5.5 50 16.5 100q5 25 10.5 46t12.5 43q2 5 3 10.5t3 11.5l9 22l22 57.5t24 57.5q4 9 8.5 18l8.5 17l5 16q2 5 4 9.5t5 9.5l51.5 114.5t48.5 117.5q14 36 26 71.5t22 73.5l2 3q2 11 5.5 22.5t8.5 25.5q12 41 29 84l20.5 56.5l21.5 57.5q13 34 35 69t52.5 65.5 t68 52.5t81.5 30q11 2 17 2.5t14 0.5q47 0 72 -21t34 -54l65 -101q12 -20 15.5 -47t0.5 -56.5t-10.5 -60.5t-17.5 -59l-9 -24q-28 -72 -61 -143.5l-67 -143.5l-24 -51l-68.5 -150.5t-60.5 -146.5l53.5 22l55.5 22l24 11q4 1 6 2t4 3l14 5q32 14 66 27t72 17q8 2 14 2h12 q42 0 72.5 -20.5t38.5 -56.5l66 -102q23 -37 4 -92q-2 -7 -4.5 -13t-7.5 -15h1q-29 -51 -70 -89.5t-88.5 -69t-98.5 -54.5l-99 -46q-84 -35 -171.5 -60t-171.5 -25h-25q-11 0 -20 1q-46 7 -86 23.5t-62 51.5l-67 103q-21 21 -32 49q-9 48 -3.5 98zM229 160.5 q-6 -45.5 3 -87.5q7 -20 21.5 -34.5t33 -24t40.5 -15.5t45 -9q42 -5 87 0t91.5 16.5t93.5 28t93 35.5l90 42t91 49.5t81.5 62t62.5 78.5q17 30 16 54.5t-15.5 40.5t-38.5 23t-53 2q-36 -5 -72.5 -20.5l-72.5 -31.5l-160.5 -64t-158.5 -40q8 44 19 88t27 88q32 86 69.5 170.5 l77.5 170.5l79 168.5t73 168.5q10 25 19 54.5t13.5 58.5t2.5 56t-13 46t-33 29t-58 5q-34 -5 -64 -22.5t-54.5 -42.5t-42.5 -54.5t-28 -58.5l-38 -97t-32 -97l-32 -100t-33 -100l-50 -117.5l-52 -116.5l-49 -111.5t-42 -111.5l-12 -43.5t-8 -43.5q-11 -47 -17 -92.5z" />
<glyph unicode="m" horiz-adv-x="1536" d="M195 109q-2 84 20 173t51 181l19.5 58l21.5 59q40 112 87.5 220.5t105.5 214.5q26 60 57.5 113t68.5 106q21 28 46.5 57.5t55.5 55t64.5 43.5t72.5 23h11q2 0 5.5 1t5.5 1q47 0 72 -25.5t36 -61.5l60 -94q24 -37 24 -89q0 -44 -2 -88t-2 -88l18 27.5t20 27.5l22.5 33.5 t25.5 33.5l28.5 37l30.5 39l57 74t62.5 69t73 58t89.5 40q51 -8 82 -36t48 -66l63 -99q20 -31 28 -70t8 -77h-2q4 -69 -9 -143t-37 -147q-4 -12 -7 -23t-7 -22l-10 -21.5t-7 -20.5q-5 -13 -11 -26.5t-11 -26.5l-18 -45.5l-18 -45.5q-4 -11 -9.5 -22.5t-9.5 -23.5l-9.5 -37 t-9.5 -36l-10 -39.5l-10 -39.5l-28 -101.5t-33 -104.5l-17 -45.5t-19 -43.5q-9 -18 -22.5 -39.5t-30.5 -44.5q-3 -2 -4 -3.5t-8 -14.5l-29.5 -31.5t-32.5 -30.5t-36 -24t-39 -13l-1 1q-9 -2 -14 -2.5t-10 -0.5q-36 0 -63.5 15t-42.5 40l-62 97q-24 19 -35 48t-9 63v9t2 10 q-44 -53 -93 -101.5t-107 -96.5q-42 0 -68.5 15t-40.5 38l-65 99q-2 0 -5 3q-2 -11 -5 -20.5t-5 -18.5l-14 -40q-9 -23 -20.5 -47.5t-30.5 -49.5q-29 -35 -63.5 -48t-68.5 -13h-13t-14 1q-59 9 -85 52l-63 99q-25 19 -36.5 49t-9.5 63zM242 125q0 -41 20.5 -74.5t65.5 -38.5 q12 -2 26.5 -1.5t29.5 4.5t29 12t26 22q22 29 33 60t21 62q12 35 20 68t14 66q9 35 17 69.5t21 69.5q20 63 43.5 125.5t50.5 125.5q-2 -61 -9 -121t-13 -122l-10 -119.5t-1 -117.5q1 -22 5.5 -44t15.5 -39.5t28.5 -28.5t43.5 -11q82 67 150.5 147.5t129 166.5l118 175 t117.5 172q-13 -66 -30.5 -130.5t-37.5 -130.5q-20 -63 -42.5 -126.5l-43.5 -126.5l-21 -61.5t-15 -59.5q-2 -24 6 -46t23.5 -37t38.5 -22.5t50 -2.5q29 5 52.5 26.5t43.5 43.5l34.5 49t28.5 50q35 72 55.5 143.5t38.5 143.5q11 38 20.5 77.5t20.5 77.5l27.5 69l28.5 69 q13 35 27.5 69.5t23.5 69.5q23 71 36 140.5t9 135.5q0 31 -5 63t-18.5 59t-36 45t-56.5 23q-49 -14 -89 -46.5t-75.5 -73t-67.5 -84.5t-64 -81l-139 -202.5l-141 -202.5q23 151 32 296t9 290q0 22 -6 43.5t-18 37.5t-31.5 24.5t-46.5 4.5q-29 -4 -56 -19t-51.5 -36t-46 -46 t-39.5 -49q-36 -53 -66.5 -104.5t-56.5 -106.5q-72 -136 -128.5 -272t-101.5 -273q-27 -86 -48 -172t-19 -167z" />
<glyph unicode="n" horiz-adv-x="1283" d="M162 147l34 88.5t36 81.5q20 39 37 77.5t30 76.5q2 9 5.5 18t6.5 18q4 9 5.5 18t6.5 18l33 105.5t30 105.5q5 14 9 28.5t9 28.5l41 123q9 26 20 52t21 52q17 41 40 83.5t49 85.5q3 2 6 7.5t3 4.5q0 1 1.5 2t1.5 3q0 3 5 8l7 9t5 8q3 3 4.5 5.5t4.5 5.5l30 41.5t33 38.5 t39.5 32t47.5 22q9 3 17.5 3.5t14.5 0.5q24 0 42.5 -8t32 -20.5t22.5 -29t14 -34.5l58 -91q8 -11 13 -23.5t9 -25.5l-1 1q9 -31 11.5 -64.5t7.5 -66.5l1 -2q0 -8 -0.5 -17t0.5 -17l2 -48l25 82.5t28 79.5l10 31q16 41 36.5 87t50.5 86t73 67t103 30q46 -4 66 -29t26 -57 l50 -80l1 -1l5 -6q13 -20 18.5 -45.5t9.5 -49.5q2 -42 -2.5 -86.5t-19.5 -92.5q-5 -13 -10 -24.5t-8 -21.5l-52 -144q-35 -108 -65.5 -214.5l-59.5 -213.5q-14 -60 -33.5 -120.5l-41.5 -123.5l-17 -46q-14 -35 -37.5 -72t-54.5 -68.5t-69 -54.5t-83 -31q-51 5 -81.5 25.5 t-48.5 51.5l-55 86q-17 15 -29.5 33.5t-22 39.5t-16.5 44l-14 46l-3 14q-4 9 -7.5 19.5t-7.5 19.5q-18 -51 -38.5 -100.5t-47.5 -98.5q-18 -33 -39.5 -65t-47 -57.5t-54 -41.5t-60.5 -16q-2 0 -8.5 1t-10.5 1q-64 11 -95 62l-60 93q-32 26 -44.5 67t-3.5 89zM207.5 102 q4.5 -26 16.5 -46.5t32 -35t46 -18.5q25 -5 48.5 7t44.5 33t39.5 49t34.5 57q26 49 46 97.5t38 97.5l47.5 147.5l48.5 147.5q13 -99 29 -195.5t35 -193.5q13 -35 24 -77t28 -78.5t44.5 -63t74.5 -30.5q35 6 65.5 25t55.5 45.5t44 57.5t31 61q27 71 50.5 142t40.5 142 l60 215.5t66 216.5l36 99q11 23 18 46t18 47q13 43 17 83.5t2 79.5l-6 37t-10 35t-20.5 27t-35.5 13q-49 -2 -83.5 -29.5t-59 -67t-41 -83.5l-29.5 -78q-30 -85 -54 -169.5l-47 -169.5l-25 -91.5t-23 -91.5q-36 123 -51 256q-8 66 -11 132.5t-8 132.5q-2 41 -4.5 82 t-14.5 78q-5 17 -13 33t-20 28t-29 17.5t-40 1.5q-24 -7 -43 -22.5t-35.5 -35.5t-31 -41.5l-28.5 -40.5l-52.5 -88t-43.5 -89q-29 -69 -53 -139l-46 -139q-20 -71 -42.5 -142l-44.5 -142q-14 -41 -32 -80.5l-38 -79.5l-34.5 -79.5t-30.5 -79.5q-5 -27 -0.5 -53zM1475 1249 q1 0 1 -1z" />
<glyph unicode="o" horiz-adv-x="1336" d="M249 433.5q7 112.5 51 232.5l4 8q46 129 125.5 252t191.5 231v2q53 55 116 104t131 85.5t137.5 58t136.5 21.5h10q53 0 95.5 -15t75 -41t56 -60.5t39.5 -74.5l45 -68q22 -33 36 -71t22 -77q22 -105 10.5 -222t-55.5 -238l-7 -15q-45 -125 -125.5 -243.5t-184.5 -223.5 q-53 -53 -114.5 -100.5t-127 -83.5t-133.5 -57.5t-135 -21.5h-14q-84 0 -140 34.5t-92 89.5l-51 79q-38 40 -59.5 91t-33.5 107q-17 104 -10 216.5zM294 448q-8 -111 11 -211q10 -48 29.5 -94t51 -82t76.5 -58t105 -22q63 -3 128 16.5t127.5 53.5t121 79.5t109.5 96.5 q104 104 182.5 221.5t121.5 240.5q42 116 53 228.5t-11 212.5q-9 49 -29 95t-51.5 82t-76.5 57.5t-105 21.5q-62 2 -127.5 -17t-128.5 -53t-121.5 -80t-107.5 -98q-106 -103 -183.5 -221.5t-122.5 -242.5q-44 -115 -52 -226zM553 420q5 64 23.5 130t43.5 133q24 69 60 138 t85 133q24 31 54 59t64 49.5t70 34t71 11.5q30 2 53 -8t39 -28t23 -42.5t6 -51.5q-4 -57 -22 -114l-38 -115l-33 -83.5t-37.5 -84.5t-45.5 -87t-58 -90q-20 -29 -48 -56t-59.5 -47.5t-65.5 -32t-67 -9.5q-35 -2 -59 11.5t-38.5 36.5t-19 52.5t-1.5 60.5zM672 302h6h17 q24 0 49 9.5t49 26t45.5 37t37.5 43.5q31 44 55.5 86.5t44 83.5t36 81t31.5 80l5 17l29 88.5t19 87.5h-11q-28 0 -57 -10.5t-56 -28.5t-52 -41.5t-44 -49.5q-45 -59 -79.5 -125t-59.5 -132q-23 -66 -40.5 -129.5t-24.5 -123.5z" />
<glyph unicode="p" horiz-adv-x="1125" d="M174 120.5q2 40.5 15 82.5l27.5 84.5t29.5 84.5q26 71 55.5 143.5l60.5 143.5q10 18 16 33.5l13 32.5q20 57 37 114t31 115q3 4 3.5 8t1.5 9l5 15q4 9 6 18t6 20q7 20 14 42.5t15 42.5l14 37t15 37q31 67 84.5 113.5t115.5 75t127 42t119 14.5h37q85 0 162.5 -19 t134.5 -69q37 -37 51 -84l52 -80q0 2 -1 2h-1l3 -4q20 -31 29.5 -67.5t10 -76t-6 -81.5t-19.5 -84l-5 -10q-19 -53 -52.5 -101t-76 -92t-91.5 -83t-98 -72q-101 -69 -207 -120t-214 -87q-4 -10 -4 -13l-38 -135t-43 -135q-3 -5 -4 -10t-3 -10q-11 -29 -29.5 -58.5t-43.5 -54 t-54.5 -40t-62.5 -15.5h-11t-14 2q-36 2 -61.5 19.5t-42.5 43.5l-62 97q-13 11 -22 24.5t-15 28.5q-11 36 -9 76.5zM218.5 134q-2.5 -35 8.5 -64t35.5 -50t60.5 -23q28 -7 55.5 6t50 36t38 52t21.5 54q29 78 50.5 155l43.5 154q112 35 221.5 86t213.5 122q47 31 93.5 68 t87 79t72 88t48.5 96q14 44 20.5 88.5t3 85.5t-18 76.5t-41.5 62.5q-56 49 -138.5 66.5t-172.5 13.5q-49 -2 -106 -13t-111 -35.5t-100 -63.5t-72 -95q-24 -55 -42.5 -110.5l-36.5 -111.5q-14 -57 -31.5 -115.5t-38.5 -116.5q-12 -36 -29 -70q-50 -113 -93.5 -225 t-76.5 -225q-13 -36 -15.5 -71zM686 761q14 49 32 99l36 99l23 59t30 59q21 27 53.5 41t61.5 12q65 0 117 -26q12 -6 23 -14t19 -18.5t10 -24t-4 -30.5q-11 -27 -30.5 -49t-43 -40.5t-50 -34.5l-50.5 -31q-54 -32 -111.5 -59.5t-115.5 -41.5zM898 896l1 1t6 2q4 3 8 5t9 6 l40 26t40 28h-17q-17 0 -37 -7.5t-32 -22.5q-5 -9 -9.5 -19z" />
<glyph unicode="q" horiz-adv-x="1280" d="M230.5 289.5q-2.5 55.5 4.5 113.5t21.5 117.5t35.5 119.5l5 14q46 125 113.5 247t161.5 236q48 57 108 110t127 93.5t137.5 65t139.5 24.5h22q48 0 87 -13t69.5 -35.5t53 -54t37.5 -67.5l50 -79q20 -33 33.5 -72t17.5 -82l-2 2q17 -103 1.5 -215t-54.5 -225 q-42 -116 -105 -228.5t-151 -215.5q2 -17 6.5 -31t12.5 -27q-2 -3 2 -3q9 -26 12 -56t-9 -62q-1 -4 -3 -7t-3 -7l-4 -7q-15 -26 -36.5 -49t-48 -41t-55 -30.5t-56.5 -17.5l-17 -2l-19 2l-34 9l-9 3l-15 19l-19 31q-45 -26 -92.5 -40.5t-91.5 -14.5h-15q-93 0 -163.5 38.5 t-110.5 103.5l-54 83q-27 30 -46.5 66t-27.5 78q-14 51 -16.5 106.5zM280 413q-15 -112 12 -210q12 -50 38 -92t65 -72t90 -46t112 -13q51 0 105 21t102 57q4 -17 10 -32.5t10 -32.5l9 -12l12 -5l12 -3l17 -2l13 2q22 4 44.5 13.5t43 23.5t37.5 32t29 38q14 29 13.5 56 t-8.5 50q-11 20 -18 41.5t-6 47.5q89 102 152.5 214.5t105.5 227.5q37 109 52.5 217t0.5 206q-6 49 -23.5 94.5t-48 80t-74.5 54.5t-103 19q-63 3 -128.5 -18t-128 -58.5t-119 -87.5t-102.5 -104q-94 -114 -160.5 -235t-110.5 -245q-40 -115 -55 -227zM542 416.5 q3 37.5 12.5 77.5t22.5 79l24 72q26 73 57 148t79 146q24 34 56 64t68 51.5t75 33t76 8.5q27 -1 43.5 -14t25 -35t10 -50.5t-1.5 -59.5q-9 -57 -26 -115t-37 -115q-22 -60 -49.5 -117.5t-70.5 -113.5l-17.5 33.5l-16.5 33.5q-9 17 -23.5 28.5t-34.5 15.5q-22 -1 -44 -11.5 t-41 -26.5t-34 -36t-23 -40q-10 -28 -8.5 -52t9 -46t18.5 -42l21 -39q-17 -11 -35 -17t-35 -6q-42 6 -64 26.5t-30.5 51t-5.5 68zM749 602q46 25 87 28q27 -5 48 -22t32 -41q0 -4 2 -6q20 36 35.5 73l29.5 73q20 54 35.5 109t24.5 111q-56 -7 -107 -41.5t-84 -85.5 q-34 -48 -58 -97.5t-45 -100.5zM860 -140l31 -44l-29 46z" />
<glyph unicode="r" horiz-adv-x="1384" d="M201 108q-8 48 0.5 99t23.5 104l16.5 47.5l17.5 49.5l18.5 49t21.5 50q2 8 5.5 15.5l7.5 16.5q3 8 6.5 16.5l7.5 17.5l3 9l27 60.5t25 60.5q14 40 26 78.5t23 78.5q2 9 6 19l8 20q4 11 6 20t6 20l30 83q3 8 5 15.5t4 13.5l10 26l18.5 48t20.5 47q12 28 30 57t41 55.5 t51.5 48.5t62.5 36q42 20 78.5 28t74.5 14q3 0 5.5 1t5.5 1h5q9 2 20 3t31 6q27 2 59 4t74 2h24q81 0 157 -13t133 -58q18 -17 30 -37t20 -42l56 -87q36 -57 33.5 -133t-28.5 -153l-2 -6q-14 -39 -37 -75.5t-52 -69.5t-61.5 -63.5t-65.5 -57.5q-62 -51 -128 -93.5 t-135 -73.5l12.5 -29l12.5 -29h-1q2 -8 4.5 -16.5t7.5 -16.5l15.5 -12t18.5 -11q11 -9 22 -16.5t22 -12.5q9 -5 13.5 -8.5t8.5 -5.5h-1l25 -17.5t17 -13.5l2 2q30 -24 41 -67l60 -94q14 -22 18 -49t-6 -58l-6 -14q-14 -31 -38 -56t-53 -43t-60.5 -28.5t-59.5 -13.5h-2 q-9 -2 -19.5 -3t-21.5 -1q-40 0 -74 10t-62.5 28t-52 41.5t-41.5 50.5l-50 75q-23 26 -41 56q-2 4 -3 8t-4 8l-66 128q-11 -31 -19 -61t-17 -60q-2 -12 -5.5 -21.5t-6.5 -19.5q-4 -21 -10.5 -44t-13.5 -43q-1 -8 -3.5 -14.5l-4.5 -11.5q-9 -25 -24 -51.5t-35.5 -48 t-46.5 -35.5t-58 -14h-16q-32 5 -53 19t-35 36l-60 94q-26 22 -39 55.5t-16 69.5zM247 125q1 -22 7 -43t17 -38t28.5 -29t41.5 -15q26 -3 48 9.5t39 33.5t28.5 46t16.5 46q10 32 18.5 63l17.5 63l17.5 64t19.5 64q8 23 17 45.5t17 45.5q20 -12 32.5 -29.5l25.5 -34.5 l72 -136t72 -137q17 -29 41.5 -53.5t55 -42t68.5 -24.5t82 -1q22 2 47 10t47.5 21.5t41.5 33t30 43.5q15 35 6 65t-32 47q-23 22 -51.5 37t-54.5 35q-36 23 -61.5 57.5t-42.5 73.5q-18 40 -34 81.5t-34 81.5q78 28 152.5 74t142.5 103q32 25 63 54t57.5 60.5t48 65 t33.5 68.5q13 41 20 82t5 79.5t-14.5 71.5t-38.5 57q-27 21 -61.5 33.5t-72.5 19.5t-78.5 9t-80.5 1q-32 0 -66 -2.5t-67 -6.5q-25 -5 -50.5 -8t-50.5 -7.5t-50 -12t-49 -20.5q-27 -11 -50 -28.5t-42 -39t-33 -45.5t-24 -47q-26 -58 -44.5 -114.5t-40.5 -114.5 q-20 -59 -37.5 -118t-39.5 -119q-18 -50 -39.5 -99.5l-43.5 -100.5q-21 -48 -38 -94.5t-32 -94.5q-14 -49 -21.5 -96.5t-1.5 -92.5zM708 814q3 49 19.5 100.5t37.5 102.5l8 24.5t5 23.5q7 13 16 27.5t27 16.5q31 0 62.5 3l60.5 6q32 0 64.5 3.5t63.5 1.5q12 1 24 -1t20 -8 t11.5 -15.5t-2.5 -23.5q-21 -58 -67 -109t-106 -80q-60 -35 -122 -51.5t-122 -20.5zM886 894l33 16t33 18q8 5 16.5 9.5t14.5 9.5q-48 -3 -85 -3v-5l-7 -25t-5 -20z" />
<glyph unicode="s" horiz-adv-x="1300" d="M192 200.5q-1 27.5 8 60.5l5 14q7 22 23.5 44.5t37.5 39.5t46 28t50 11q2 0 2.5 -1t2.5 -1h7q58 -5 100 -38l2 2q7 -5 14 -9.5l15 -9.5q7 -5 14 -9.5t15 -8.5q2 -3 5 -4.5l5 -2.5q5 -2 6.5 -3.5t5.5 -3.5v-2q29 -13 61.5 -18.5t68.5 -5.5q38 0 79.5 6t77.5 27l2 1 q26 20 44 40t31 42q-4 -1 -7.5 -2t-6.5 -1q-6 -2 -11.5 -3.5l-12.5 -3.5q-49 -13 -94.5 -23.5t-89.5 -10.5h-17q-63 0 -110.5 26t-75.5 70l-55 85q-28 26 -45 62t-20 78q-6 64 6.5 133t38.5 140l12.5 32l12.5 33q18 46 48 88.5t68 80.5t82 71t91 60h-2q104 60 205.5 87 t194.5 27q61 -1 116.5 -14.5t99.5 -44.5q26 -20 48 -45.5t32 -58.5l59 -89q17 -29 23 -65t-8 -80q-2 -4 -2 -7t-2 -5q-11 -31 -32 -52.5t-47 -35t-54 -20t-53 -6.5q-5 0 -11.5 0.5t-11.5 0.5q-30 3 -54 11t-47 17q-5 2 -14.5 7t-16.5 8l4 -4l-4 2q-22 9 -44.5 15.5 t-44.5 6.5h-6q-34 0 -70 -12.5t-72 -33.5q-17 -9 -31 -21t-27 -25l2 2q1 0 4 1l6 2l12 5q49 20 99 34t100 14h4q41 0 76 -11.5t63 -32t48.5 -48t32.5 -58.5q0 -2 2 -2l44 -75l7 -8l3 -4q8 -10 13 -20.5t8 -21.5q20 -61 18 -128t-28 -140l-6 -17q-41 -103 -110 -200 t-164 -174l-2 2q-46 -41 -98.5 -75t-107.5 -58t-110 -37t-107 -13h-5q-79 0 -145 22t-122 60q-26 17 -50 38.5t-42 48.5l-53 84q-17 17 -31 37.5t-22 44.5t-9 51.5zM239 197q6 -31 22 -56.5t39.5 -46.5t47.5 -38q51 -35 114.5 -55.5t136.5 -20.5q48 -1 99 10.5t102 33.5 t100 53t93 70q91 73 155.5 163.5t102.5 187.5q29 71 32.5 137.5t-17.5 123.5q-11 29 -29 53.5t-43 42.5t-56 28t-68 10q-42 0 -88 -13.5t-91 -31.5l-75.5 -26t-74.5 -18q-12 1 -19 6t-11.5 13t-7 17t-5.5 18q-2 20 -1.5 41.5t6.5 44.5q17 41 50 77.5t75 60.5q42 26 86 40.5 t86 12.5q32 0 59.5 -9t53.5 -20l53.5 -21.5t58.5 -12.5q20 -3 44.5 0t47.5 13t41 28t24 46q10 29 7.5 54.5t-13 47t-27 39t-35.5 31.5q-40 29 -91 41t-107 14q-85 0 -176 -23t-179 -74q-44 -24 -85.5 -54.5t-78 -65.5t-65 -74.5t-44.5 -82.5q-36 -81 -55 -162.5t-11 -156.5 q2 -38 17.5 -70.5t41.5 -56t62 -35.5t80 -10q45 -2 91.5 9.5t92.5 24.5l94.5 25t91.5 12q17 0 28 -8q2 -27 -5.5 -56.5t-18.5 -58.5q-8 -22 -18.5 -44.5t-25.5 -46t-36 -46t-50 -44.5q-49 -29 -99.5 -38t-96.5 -9q-82 0 -149 30l-38.5 25.5l-39.5 24.5q-17 15 -39.5 22.5 t-49.5 9.5q-17 3 -35.5 -3.5t-34 -19.5t-27.5 -30.5t-16 -34.5q-9 -37 -3 -68zM1359 705l3 -5zM1362 700q3 -3 3 -4z" />
<glyph unicode="t" horiz-adv-x="1275" d="M432 1088.5q-5 32.5 8 70.5l7 17q20 40 50 66t64.5 43t70.5 27.5t68 18.5q36 8 82.5 17l82.5 16l-3 -2q81 17 157 29t147 20q32 3 62.5 5t65.5 2h26t25 -1q33 -4 65.5 -13t60 -25t48 -38.5t29.5 -53.5l60 -94q22 -32 22 -82l-5 -17q-11 -22 -26 -42.5t-34 -37.5t-42 -29 t-48 -16q-16 -2 -31 -3.5t-33 -1.5q-11 0 -22.5 1t-23.5 1q-11 0 -22 1t-22 1q-9 0 -16.5 0.5t-15.5 0.5q-12 0 -23 -1t-22 -4l-12 -30q-6 -14 -11 -27t-9 -26l-97.5 -237.5l-90.5 -237.5l-33.5 -89.5l-34.5 -89.5l-17 -50q-12 -30 -23.5 -62.5t-24.5 -63.5 q-14 -33 -32.5 -71.5t-46 -73t-64.5 -60.5t-88 -32q-76 10 -102 58l-63 99q-32 26 -40 68t-3 90t19 99l27 95q3 6 4 12.5t3 12.5q13 36 28 68.5l30 64.5q4 8 7 15.5t7 15.5q2 7 5.5 14.5l6.5 14.5q2 5 5.5 11.5l7.5 14.5q2 4 4 7.5t3 7.5l49 100.5t43 100.5l16.5 51.5 t14.5 51.5q-11 -3 -20.5 -3.5t-20.5 -0.5h-22q-65 0 -113 29l2 -1q-9 5 -15.5 11t-11.5 14l-65 101q-29 20 -34 52.5zM477 1112.5q4 -27.5 28 -40.5q23 -16 54 -21.5t64 -2.5q24 2 47.5 6t46.5 6q26 8 51 10.5t49 6.5q-10 -73 -28.5 -146.5t-44.5 -148.5 q-23 -56 -48.5 -109.5l-52.5 -109.5l-49 -106.5t-44 -106.5l-22 -71.5t-21 -78t-12 -77t5.5 -67.5t30.5 -50.5t63 -25.5q36 4 64.5 25.5t50 51t37 63l27.5 61.5l34 88t31 88l34 88.5l33 88.5l91.5 238.5l95.5 237.5l23.5 55l22.5 55q30 13 59 14t57 -1q36 0 71.5 -3t73.5 5 q36 5 65 32.5t45 59.5q0 37 -15.5 63.5t-41.5 43.5t-59 26.5t-67 13.5q-42 2 -84.5 0.5t-86.5 -5.5q-78 -9 -157 -21.5t-158 -29.5l-72 -13.5t-72 -14.5l-57 -15.5t-59 -22t-53 -33t-39 -48.5q-15 -31 -11 -58.5z" />
<glyph unicode="u" horiz-adv-x="1295" d="M251 232q-5 60 1.5 123t21 127t35 128.5t44.5 128.5l14.5 37.5l14.5 37.5l48.5 122.5t53 123t62 123t74.5 123.5q39 48 89.5 75.5t101.5 31.5q8 2 13 2h12q38 0 60 -20.5t29 -51.5l63 -99q9 -15 12.5 -35t1.5 -40l2 -2q-3 -44 -13.5 -86t-26.5 -84l-10 -24 q-29 -78 -62.5 -155l-67.5 -154l-63 -143t-56 -140l-17 -48q48 1 89.5 28t75.5 68.5t59.5 90.5t41.5 94l9 23q35 97 63 196t46 200q8 38 18.5 82t23.5 88q0 7 2 12l5 12q10 29 28.5 59.5t43 55t55.5 40.5t66 16q5 0 12 -0.5t14 -3.5q44 -6 67.5 -31.5t34.5 -58.5l63 -97 q16 -23 21.5 -51t7.5 -57q1 -134 -33 -272.5t-83 -275.5l-5 -10q-41 -115 -110.5 -227.5t-160.5 -214.5h1q-45 -52 -99.5 -103t-115 -91.5t-125.5 -65.5t-131 -25h-20q-91 0 -158 37t-108 100l-55 85q-35 40 -55.5 89t-24.5 107zM297 249q4 -59 27 -109.5t62.5 -87t94 -56 t121.5 -16.5q59 -1 118 22.5t115 61t106.5 85t92.5 95.5q89 100 157 211t108 224q24 68 45 136t36.5 135t25 133t9.5 130q-2 24 -7.5 48t-17 43.5t-30 32.5t-46.5 16q-29 5 -55 -8t-46.5 -35.5t-35 -50.5t-20.5 -52l-21 -83t-18 -83q-18 -100 -46.5 -201.5t-66.5 -202.5 q-17 -53 -48 -114.5t-75 -114t-99.5 -87t-122.5 -31.5q-17 1 -34.5 3t-32.5 7.5t-26 14.5t-14 26q-8 31 1.5 67.5t22.5 72.5q27 80 60.5 158l69.5 156l65.5 154l63.5 154q18 46 30 91.5t16 90.5q3 19 -1 36.5t-13.5 29.5t-25.5 17.5t-38 1.5q-40 -1 -80.5 -22.5t-69.5 -57.5 q-44 -66 -79.5 -134.5t-66 -138t-58 -139.5l-54.5 -139q-23 -62 -43 -125t-34.5 -124.5t-20.5 -122t-1 -118.5zM1002 1167q0 -1 1 -1h1z" />
<glyph unicode="v" horiz-adv-x="1133" d="M321 135q-3 78 5 158t22 164q5 39 13.5 79l17.5 80v-2q0 5 1.5 9.5t1.5 9.5q9 38 16.5 74.5t14.5 74.5l4 28t5 28l10 56q8 56 17 110.5t27 120.5q0 1 1 5.5t1 9.5l2 3q0 5 1.5 12t6.5 21q2 2 3.5 7t5.5 13q11 26 27.5 55.5t39 56.5t51 48t63.5 30q8 9 20 15.5t29 6.5 q36 0 58.5 -23.5t30.5 -55.5l61 -93q12 -20 17 -43.5t4 -45.5q-4 -32 -10 -61.5t-14 -58.5q-4 -13 -7 -26t-7 -28q-8 -34 -13.5 -67t-11.5 -65l51 93v-2l72 132t88 146q5 7 10.5 13.5t11.5 17.5l43.5 58t46 51t54 38t66.5 20q47 -7 74.5 -31.5t36.5 -62.5l62 -94 q19 -31 19.5 -71t-13.5 -82l-8 -26q-34 -97 -90 -194l-130 -207h2l-80.5 -144l-85.5 -143h2l-40.5 -69.5l-41.5 -70.5l-26.5 -39.5t-26.5 -42.5l-63 -96.5t-73 -93t-89 -77.5t-110 -50q-22 1 -44.5 2.5t-43 6.5t-38 14.5t-29.5 24.5l-70 107q-4 4 -8.5 8t-8.5 9 q-20 32 -28 70.5t-6 78.5zM367 152q0 -36 6 -70.5t23 -62.5q10 -13 25 -20.5t32.5 -11.5t36.5 -5.5t37 -1.5q60 16 108.5 57t89 92.5t74.5 108t66 103.5l126.5 216t122.5 218l130 208q26 45 47 92.5t38 93.5l11 26q10 30 11 59t-8 52.5t-29 39t-51 19.5q-30 -4 -54 -20 t-45.5 -39.5t-41.5 -52.5t-42 -58q-41 -65 -80 -134l-75 -136l-130 -242q-17 -30 -30 -59.5l-26.5 -58.5t-28.5 -57.5t-34 -56.5q2 39 1.5 79t0 80.5t2.5 81t8 81.5q14 81 25 161.5t28 161.5q9 42 20 84t16 85q0 16 -3.5 34t-11 32.5t-20 24t-30.5 9.5q-5 0 -13 -8.5 t-15 -9.5q-26 -4 -48.5 -20t-41 -38t-32.5 -47t-23 -47q-4 -5 -5.5 -10t-2.5 -9q-5 -13 -5.5 -23.5t-4.5 -24.5q-22 -86 -34 -169.5t-28 -168.5q-14 -81 -33 -161t-32 -161q-13 -80 -21 -159.5t-6 -156.5z" />
<glyph unicode="w" horiz-adv-x="1584" d="M244 174q-4 67 10 138.5t36 143.5l8 26t9 27l28 70l5 13q1 4 3.5 8.5t4.5 8.5q2 5 5 11t5 11q3 12 11 24l-2 -1q11 22 19.5 42.5l16.5 40.5l15 41q11 32 21 65t18 67q3 9 5.5 18.5l5.5 20.5l4 18t6 18q8 31 18 62.5t23 66.5l18.5 50t20.5 49q2 3 3 7.5t4 8.5v-2 q3 10 8 15q12 20 25.5 39.5t36.5 39.5l25 23t28.5 22t33 16.5t37.5 6.5h7q2 0 5 1t6 1q50 0 81.5 -27.5t42.5 -71.5l58 -91q14 -19 19 -43.5t5 -51.5q32 42 69.5 81t84.5 78q22 11 37.5 16t35.5 8h21q33 0 59 -15.5t43 -39.5q3 -11 3 -19l62 -97q5 18 12 36t12 37 q2 9 5.5 20.5t7.5 22.5q7 20 17 43q12 26 28 52.5t51 52.5q36 14 58 19t39 5h16l-2 2q14 -3 29 -7t28.5 -10t25 -15.5t18.5 -22.5q1 -10 6 -24l70 -107q16 -42 18.5 -87.5t-4.5 -94t-19.5 -98.5t-26.5 -99q-7 -20 -12 -38.5l-10 -38.5l-2 -5l-8 -26.5t-9 -26.5 q-33 -93 -76 -181.5l-88 -176.5q-54 -98 -113 -195t-141 -194q-22 -23 -46.5 -45.5t-52 -41t-57.5 -31t-61 -15.5h-8q-32 0 -53 12.5t-35 33.5l-61 97q-26 20 -37.5 49t-13.5 60q-4 32 -6 65l-4 68l-35.5 -46l-38.5 -48q-17 -19 -31.5 -38t-31.5 -38l-61 -72.5t-63 -64.5 t-70 -50t-82 -28q-42 5 -69.5 24t-45.5 46l-60 95q-35 32 -48 81t-13 100zM290 183q1 -32 6.5 -64t19 -58t36.5 -44t59 -22q45 8 83.5 35.5t74.5 65.5t70.5 82.5t72.5 86.5q64 79 122 159.5l115 162.5q-13 -126 -12 -248t12 -240q2 -19 7.5 -38.5t16 -35t27.5 -24.5t41 -8 q25 3 49.5 13.5t47 26.5t43.5 35.5t39 39.5q76 88 133.5 184l110.5 193q54 100 101 201t80 203q14 56 31.5 114t28.5 115t12 110.5t-17 99.5q-8 17 -27.5 23.5t-39.5 10.5q-15 2 -35 0.5t-52 -14.5q-22 -15 -33 -35.5t-20 -41.5q-8 -19 -14 -37l-13 -38 q-45 -146 -102.5 -291.5l-119.5 -291.5q8 50 14.5 98.5t14.5 99.5q11 81 16 159t6 156q3 23 0 44t-10 42q-11 17 -31 26.5t-44 7.5q-15 -2 -28.5 -3.5t-27.5 -10.5q-39 -33 -73 -69.5t-65.5 -75.5l-61 -78.5l-60.5 -78.5l-130 -178t-122 -182q42 137 88 271.5l94 271.5 l23 61.5t15 59.5q1 25 -6.5 46.5t-23 37.5t-38 24t-50.5 5q-23 0 -45 -17.5t-40 -34.5q-21 -17 -34 -40t-26 -43q-23 -56 -43 -111.5t-34 -110.5q-17 -58 -31.5 -116t-36.5 -116q-13 -38 -30.5 -76l-34.5 -76q-14 -38 -29 -73.5t-25 -73.5q-23 -71 -35 -140.5t-10 -135.5z " />
<glyph unicode="x" horiz-adv-x="1326" d="M162.5 74.5q-9.5 53.5 9.5 113.5q14 36 34.5 68t45 62t51.5 58l54 54v0q1 0 1 2q2 1 5.5 4t5.5 4h-2q6 7 13.5 14t13.5 14q7 6 13.5 12.5t15.5 14.5h-1q15 17 32.5 33l35.5 33h-2l66.5 66.5l65.5 65.5q0 1 22 31q2 4 5 6.5t5 5.5q-2 8 -2.5 16t-2.5 16q-3 11 -5.5 23 t-4.5 32q-9 42 -17.5 87.5t-15.5 89.5q0 3 -1 6.5t-1 5.5q-1 2 -1 7q-3 29 -6.5 58.5t-3.5 60.5t5 63t17 67l3 5q12 31 33.5 55.5t48 42t56 27t57.5 12.5v1q6 2 14 2h20q33 0 60.5 -11.5t43.5 -36.5q2 -6 3.5 -11.5t3.5 -10.5l70 -109l10.5 -44.5t6.5 -39.5l46 53q2 4 4 7 t6 7l36 45.5t27 32.5v-1q3 4 8.5 10t1.5 2l12 13q2 0 3 1l1 1q0 2 1 2h1q0 1 3 3q27 31 57.5 57t78.5 30q52 -5 85.5 -33.5t44.5 -72.5l60 -90q37 -58 15 -140q-26 -60 -65 -113.5t-85 -103t-96.5 -96l-101.5 -92.5l-35 -33l-35 -33l50 -213l26 -118l27 -118q4 -20 8.5 -40 t5.5 -41.5t-2 -44.5t-12 -48v-3q-14 -31 -38.5 -56t-54 -44t-61.5 -30t-61 -14q-45 2 -71.5 18t-43.5 42l-60 92q-29 24 -42 62t-22 76q-5 12 -8.5 22t-3.5 14q-6 18 -9 46q-13 -14 -24 -27.5t-20 -26.5q-20 -23 -37 -45.5l-35 -45.5l-35.5 -47.5t-37.5 -46.5l-17 -20l-2 2 q-15 -19 -32 -38t-37 -35t-43 -27.5t-50 -14.5q-36 3 -61.5 18.5t-42.5 39.5l-60 96q-38 31 -47.5 84.5zM204 122q0 -32 11.5 -58t33.5 -42.5t56 -19.5q21 2 40.5 14t37 28.5t33 35l29.5 34.5q38 45 73 91.5l71 91.5l80.5 94t86.5 89l21.5 -148l21.5 -148q9 -27 17 -59 t21.5 -59t35.5 -45.5t59 -18.5q23 2 48 10.5t48.5 22.5t42.5 33t30 43q15 44 11 81.5t-13 73.5l-54 235.5l-53 235.5l119 108t119 111t105.5 118.5t79.5 130.5q9 31 6 60t-16 51.5t-36.5 37t-54.5 16.5q-19 -2 -35.5 -12.5t-31.5 -24.5t-28 -30.5t-26 -29.5 q-32 -35 -60.5 -70.5l-57.5 -70.5q-60 -77 -130 -144q-2 60 -8 118.5t-10 118.5l-7.5 56.5t-11.5 53.5q-14 22 -42 31t-60 3q-21 -2 -43.5 -8.5t-42.5 -18.5t-36.5 -29.5t-24.5 -39.5q-14 -35 -18.5 -68t-3.5 -65t5 -63.5l8 -61.5l25 -139.5l26 -139.5q-15 -17 -28 -34.5 t-30 -34.5l-123 -126l-124 -125l-53 -53t-51 -55.5t-44 -58t-33 -61.5q-11 -33 -11 -66z" />
<glyph unicode="y" horiz-adv-x="1172" d="M291 33q-6 36 9 81l2 5l31 93q26 69 60.5 142t82.5 146q-20 41 -29.5 81.5t-12.5 82.5t-2 85.5t3 90.5q5 82 21.5 170.5t48.5 177.5q5 14 11.5 29l12.5 29q9 24 26.5 50.5t41 50t52 40t59.5 19.5v2h2q7 2 12.5 2.5t18.5 0.5q40 0 67.5 -25.5t36.5 -62.5l60 -92 q11 -17 16.5 -38t5.5 -41q-18 -81 -28 -159l74 83l73 81l74.5 86l79.5 86q36 34 77 57.5t76 23.5q2 0 3.5 -1t3.5 -1h9q41 -4 64.5 -27t32.5 -58l61 -94q21 -32 21 -76t-14 -86v-4q-17 -36 -42 -66.5t-53 -61.5q-5 -6 -10.5 -11.5t-11.5 -12.5q-18 -19 -38 -38l-38 -37 l-35 -36.5l-36 -36.5h-2q-82 -84 -158 -170.5t-144.5 -177t-127.5 -184.5t-106 -193q-15 -34 -43 -76t-58 -73v2q-32 -36 -64 -46.5t-64 -10.5h-20q-33 0 -57 12t-35 31l-65 101q-29 19 -35 55zM335.5 74q-0.5 -22 8 -38.5t26.5 -26t45 -9.5q31 -2 58.5 3t52.5 35 q13 13 26 29.5t24.5 34.5t21 36t16.5 33q100 202 241 385t307 355l74.5 74l74.5 73l59 66t47 71q9 28 11 57.5t-5.5 53.5t-25 40.5t-47.5 18.5q-26 5 -57 -9.5t-56 -37.5l-82 -90l-80 -91l-156 -176t-151 -179q-9 72 -6 147.5t11 152.5q7 48 15.5 95l17.5 96q0 22 -7 41.5 t-20.5 33t-33.5 18.5t-45 -1q-22 -2 -42 -14t-37 -29.5t-30 -38t-21 -39.5q-42 -97 -62 -197.5t-27 -193.5q-3 -49 -4 -94.5t2.5 -87.5t14.5 -81.5t33 -77.5q-63 -91 -107.5 -192.5t-73.5 -198.5q-10 -25 -10.5 -47z" />
<glyph unicode="z" horiz-adv-x="1316" d="M205.5 94q-1.5 34 11.5 77q25 54 57 103t69 95t77.5 89.5l81.5 87.5l19 20.5l20 20.5l30 29t28 29l25.5 26.5l25.5 26.5h-1l106.5 109.5l111.5 115.5q-66 -12 -130 -15q-9 -2 -19 -2h-22q-35 0 -67.5 9t-48.5 34l-65 104q-22 14 -29.5 39t6.5 63l6 17q39 49 83.5 81.5 t92.5 54t97.5 35t97.5 24.5v2q15 4 31 7.5t30 7.5q166 36 323 36q29 0 58 -1.5t58 -3.5q42 -7 69.5 -17.5t44.5 -23.5l40.5 -47.5t29.5 -53.5l48 -78v-2l8 -10q13 -22 20 -45.5t3 -50.5l-9 -19q-63 -88 -139.5 -168.5l-157.5 -160.5h2l-147 -147l-73 -74.5l-74 -75.5h-1 q-2 -2 -3 -3.5t-3 -3.5q14 3 27.5 5l27.5 4h10q30 0 58.5 -10.5t52.5 -32.5q14 -16 19 -43l67 -100q10 -17 12.5 -40.5t-7.5 -51.5l-4 -11q-15 -41 -48 -74.5t-71 -56.5q-25 -14 -50 -25t-49 -19q-9 -5 -18 -7.5t-18 -6.5l-149.5 -51t-151 -44.5t-150 -31t-146.5 -11.5h-26 t-22 1q-27 4 -45.5 16.5t-29.5 29.5l-62 98q-31 26 -41 61q-6 26 -7.5 60zM252.5 112q2.5 -28 8.5 -52q8 -23 23 -42t44 -23q73 -5 150 5t156 29.5t159 45.5l158 53l64.5 25t63.5 30q29 18 55 43.5t37 56.5q14 26 9.5 50t-19.5 39q-35 32 -93 29q-37 -2 -74.5 -12.5 t-75.5 -24.5q-40 -16 -77.5 -28.5t-75.5 -26.5q-39 -13 -77 -27.5t-75 -37.5q48 66 103 126l112 120l124 125.5l125 125.5l111.5 114.5l114 113.5t109.5 116.5t98 122.5q7 38 -8.5 64.5t-35.5 48.5q-24 20 -52.5 33.5t-63.5 17.5q-99 11 -206 2.5t-217 -31.5 q-48 -13 -101 -25t-105 -31t-99.5 -48t-83.5 -75q-14 -32 -6 -51.5t29 -29t48.5 -11.5t52.5 1q57 3 115.5 14l118.5 22q60 12 117.5 19t114.5 9l-248 -253l-247 -253l-104 -111t-104 -111.5t-93.5 -116t-72.5 -123.5q-9 -29 -6.5 -57zM1601 1193v2q2 0 0 -2z" />
<glyph unicode="{" horiz-adv-x="945" d="M187 147.5q1 35.5 14 74.5l6 12q19 54 54 105.5t80 99.5l-54 83q-26 20 -35.5 51t7.5 77v2q13 36 37 64t53.5 48t63.5 33t67 20q-21 53 -24.5 114t20.5 131l4 8q32 80 87 153.5t131 133.5q31 26 66.5 47.5t72 36.5t73 23.5t71.5 8.5q13 0 22.5 -1t17.5 -3h3 q38 -4 68.5 -22.5t50.5 -47.5q9 -11 16.5 -25t11.5 -29l54 -84q17 -27 24 -61.5t-7 -76.5l-1 -7q-10 -26 -28.5 -47.5t-42 -36.5t-49 -23.5t-49.5 -8.5q-7 0 -12 0.5t-14 3.5q-4 1 -9 1h-8q-6 1 -16 2.5t-20 3.5l-17.5 3.5t-7.5 2.5q-23 -2 -45 -16.5t-30 -36.5l-2 -3 q-2 -8 -1 -15.5t3 -15.5q9 -13 15.5 -26l13.5 -27h1l11 -15l11 -19l11 -19l3 -7q13 -19 25.5 -40t21 -44t11.5 -49t-3 -56q-9 -26 -24.5 -48.5t-33.5 -41.5q9 -18 11.5 -41t-8.5 -52q-28 -56 -76.5 -101t-97.5 -83l-3 -2l-34 -29l-10.5 -8.5t-12.5 -8.5q31 -18 36 -53 l65 -100q11 -17 12.5 -39t-7.5 -48l-3.5 -7l-3.5 -7v-3q-15 -30 -37 -59t-49.5 -53.5t-60 -42t-66.5 -25.5q-28 -5 -60 -5q-60 0 -109.5 19.5t-84.5 54.5q-30 23 -48 54l-51 79q-22 19 -38.5 45t-25 57.5t-7.5 67zM232 155q0 -32 9.5 -60t27 -51.5t40.5 -40.5q40 -38 99 -55 t130 -6q27 6 52 20t47.5 33.5t40 43.5t29.5 48q11 22 10 42.5t-11.5 34.5t-28.5 20.5t-42 1.5q-22 -2 -40.5 2t-35.5 11.5t-32 17.5l-29 20q36 51 86 92.5l99 83.5q45 36 90 76.5t68 89.5q11 26 3.5 47t-21.5 36q22 18 41.5 40.5t28.5 46.5q5 28 1.5 52.5t-12.5 46.5 t-21.5 42l-24.5 38q-10 18 -22.5 35.5t-22.5 36t-16.5 39.5t-4.5 45q6 24 22.5 43.5t38 33t45 19t44.5 1.5q18 -2 33.5 -6l32.5 -8q18 -5 39.5 -0.5t41.5 16t36 29t22 39.5q11 35 3.5 65t-24.5 53t-42.5 38.5t-57.5 19.5q-33 6 -69.5 1t-74 -18.5t-73.5 -34t-68 -47.5 q-69 -53 -118.5 -120t-78.5 -138q-16 -42 -19.5 -81t2 -75t19 -68.5t31.5 -60.5q-32 0 -70 -6t-74.5 -21.5t-66 -41.5t-42.5 -66q-13 -35 -3.5 -58t32 -37.5t52.5 -20t59 -3.5q8 -3 24 -1.5t29 1.5q-41 -32 -79.5 -67.5t-72 -74.5t-59.5 -81t-40 -86q-12 -35 -12 -67z M939 563l8 -13q-2 4 -4 7.5t-4 5.5z" />
<glyph unicode="|" horiz-adv-x="650" d="M128 -17q0 7 2 10q6 42 17.5 90l23.5 96l82 261.5t90 260.5l32 93q11 26 20 52t20 52l21.5 53.5t19.5 53.5l51 125.5l48 125.5q12 28 27 60l25.5 59.5t33 59.5t46 56t64.5 50q14 4 25 6.5t23 2.5q38 0 59 -23t29 -54l60 -94q16 -24 19.5 -56.5t1.5 -61.5 q-7 -44 -15.5 -79.5t-17.5 -68.5q-4 -16 -6.5 -30t-6.5 -28q-29 -109 -62 -219t-75 -222v-1q-9 -20 -15.5 -37l-13.5 -35q-6 -18 -14 -37.5l-15 -37.5q-8 -18 -13.5 -35t-13.5 -35l-14 -35.5t-12 -34.5l-78 -215l-21.5 -52.5t-21.5 -48.5q-2 -8 -6.5 -17t-7.5 -17l-34.5 -69 t-43.5 -69q-12 -19 -26 -38.5t-32 -37.5t-41 -32.5t-51 -23.5h-11q-26 0 -42.5 9.5t-25.5 23.5l-66 102q-15 10 -23 25.5t-11 33.5t-3 38q0 19 1 36v-1zM174 2v-43t5 -43t19 -32.5t41 -11.5q18 5 34 16.5t29.5 26.5t25 31.5t20.5 31.5q23 32 40.5 65l33.5 66l33.5 76 t29.5 76l18 48t16 48l36 97q14 35 27 71t27 71q16 37 29.5 73l27.5 73q80 218 136 437q11 51 24 101t21 101q2 22 0 47t-11.5 44.5t-29 29t-52.5 0.5q-35 -22 -58.5 -52t-40.5 -63.5t-30.5 -68t-28.5 -65.5q-22 -62 -47 -124l-51 -124q-23 -64 -48 -127t-47 -127 q-53 -143 -99.5 -284t-88.5 -284l-22 -90.5t-19 -90.5z" />
<glyph unicode="}" horiz-adv-x="944" d="M134 34.5q-6 34.5 9 78.5v5l4 7q9 27 29 48.5t45 36t52 22t50 7.5q6 0 14 -0.5t15 -2.5q9 -5 17.5 -7l16.5 -4h1l2 2q6 -3 14 -3q1 -2 10 -2q5 -2 9 -2q22 0 44.5 14.5t30.5 35.5q0 28 -14 51l-29 46q-7 8 -15.5 21.5l-13.5 21.5h2l-26 41t-22 45t-12 51t5 59 q9 24 23.5 45.5t32.5 39.5q-9 20 -11.5 43t8.5 51q26 51 67 91t85 75q2 2 6.5 5.5t7.5 6.5q3 1 8 6l27 24q4 3 6 5.5t6 5.5l14 10t15 12q-11 8 -17 20l-65 103q-24 17 -32 46.5t5 67.5l5 14q14 32 37 62.5t51 55t60.5 42.5t66.5 24q14 2 31.5 3.5t37.5 1.5q59 0 108 -17.5 t84 -52.5v2q51 -40 70 -103l55 -83q26 -40 32.5 -91t-13.5 -111l-2 -8q-20 -54 -53.5 -103.5t-76.5 -96.5l6 -11.5t3 -12.5l61 -94l4 -6q23 -35 3 -93l-2 -3q-13 -37 -37 -65.5t-54 -48.5t-64.5 -33t-67.5 -19q22 -51 26.5 -112.5t-19.5 -131.5l-4 -10q-32 -78 -85 -151 t-128 -132v2q-67 -54 -143 -84.5t-147 -30.5h-21q-9 0 -15 2h-2q-38 6 -68.5 25.5t-47.5 46.5l-61 95q-9 8 -16.5 17.5t-14.5 20.5q-17 27 -23 61.5zM180.5 47.5q7.5 -29.5 24.5 -52.5q15 -25 41 -41t59 -21q69 -8 145 18.5t142 80.5q67 54 116.5 121t78.5 139 q16 42 20 80.5t-2 74.5t-19.5 68t-31.5 60q31 -1 69.5 5.5t75 22.5t66.5 42.5t44 66.5q13 35 3 57.5t-32.5 35.5t-53 18.5t-57.5 5.5q-9 2 -24.5 0.5t-28.5 -0.5q40 31 78.5 67t71.5 75t58.5 81t40.5 86q12 35 12 67q0 33 -9 61.5t-25.5 52t-38.5 41.5q-40 38 -101 54.5 t-132 3.5q-26 -5 -50.5 -19t-46.5 -33.5t-39.5 -43t-28.5 -47.5q-12 -23 -11 -42.5t11.5 -34t29 -21t42.5 -1.5q22 2 40.5 -2t35 -11.5t31.5 -17t29 -19.5q-36 -51 -85.5 -93l-100.5 -84l-45 -38t-44.5 -40t-40.5 -43.5t-32 -47.5q-9 -27 -1 -47t21 -37q-22 -18 -41.5 -39.5 t-28.5 -45.5q-6 -27 -2.5 -51.5t12.5 -47t22 -42.5l25 -38q10 -17 22.5 -34t23 -35.5t17 -39.5t5.5 -45q-6 -24 -22.5 -43.5t-38 -33t-46 -20t-45.5 -2.5l-33 7.5t-33 8.5q-18 3 -39.5 -1t-42 -14.5t-36 -27.5t-19.5 -39q-13 -36 -5.5 -65.5zM435 404q3 -2 3 -6q0 -3 4 -5z M515 563q3 -4 7 -7z" />
<glyph unicode="~" horiz-adv-x="1285" d="M340 729l5 13q13 37 38 66.5t55.5 53.5t64.5 43.5t67 36.5l-2 -5l2 2q4 1 6 2t4 3q60 26 117 46t112 20h14q41 0 67.5 -16.5t48.5 -36.5q15 -13 31 -24.5t34 -14.5q26 4 52 13t52 25q38 18 79 32t79 14h5q52 -4 90.5 -29t49.5 -70l64 -97q23 -37 13 -87l-5 -18 q-10 -26 -28.5 -48t-42 -39t-48.5 -29.5t-48 -19.5q-23 -9 -48.5 -20t-52.5 -24l-5 -2q-60 -22 -119.5 -40.5t-119.5 -21.5q-42 0 -72.5 16.5t-55.5 38.5h-2l-31 26t-33 17q-23 -3 -48 -13.5t-50 -26.5t-49 -36l-46 -40h-29q-3 0 -6.5 0.5t-5.5 0.5q-32 4 -55 18.5t-36 36.5 l-61 96q-8 6 -15 13.5t-12 16.5q-35 44 -24 108zM386 737q-4 -26 1 -48t21 -39q11 -18 28 -30t42 -14q5 0 9.5 -1t9.5 -1q23 21 49 41t53.5 36t56 26.5t56.5 12.5q27 -4 45.5 -19l36.5 -30q22 -20 47.5 -34t61.5 -14q58 2 116 21.5l118 41.5q24 13 50 23.5l49 19.5 q20 6 41 16.5t39 24.5t32 31.5t19 38.5q4 27 -3 48.5t-22.5 36.5t-38 24t-47.5 10q-33 2 -69 -11t-71 -28q-62 -36 -128 -44q-28 2 -48 16t-37 30q-20 17 -44.5 32.5t-59.5 13.5q-27 0 -55.5 -6t-57.5 -16t-58 -22.5l-58 -24.5l-55.5 -30t-54 -35.5t-45.5 -43t-29 -53.5z M759 642q0 -2 2 -2l4 2h-6z" />
<glyph unicode="&#x85;" horiz-adv-x="1384" d="M137 147q17 46 54.5 81t74.5 62q38 29 78 46.5t83 21.5h8q38 0 63.5 -20.5t32.5 -52.5l19 -29q10 11 19.5 20t21.5 19q38 32 82 54.5t86 22.5q43 0 74.5 -21.5t40.5 -58.5l29 -41q6 8 12.5 14.5l14.5 14.5h-2q31 32 71 54.5t78 22.5h10q44 0 73.5 -21.5t46.5 -53.5v1 q2 -8 4.5 -14.5l5.5 -14.5l72 -112q13 -30 11.5 -67t-15.5 -75l-5 -15q-15 -39 -45 -71t-66.5 -55t-76.5 -35.5t-75 -12.5h-5q-28 0 -52 11t-37 31l-36 55q-35 -42 -84.5 -68t-97.5 -26q-4 0 -7 1t-7 1h-8q-40 0 -66 18.5t-42 42.5l-24 38q-6 -12 -14.5 -23.5t-19.5 -22.5 q-42 -36 -77 -47t-66 -11h-10q-42 1 -73.5 17.5t-49.5 45.5l-62 97q-6 7 -13 14t-12 15q-45 59 -17 147zM173.5 82q3.5 -31 22.5 -53q16 -23 42 -37t59 -16q24 -2 53 6.5t66 39.5q20 20 29 44t19 47q11 35 19 70.5t5 67.5q0 29 -21 48t-54 17q-32 -3 -65.5 -18.5 t-64.5 -38.5q-31 -22 -61 -49.5t-41 -61.5q-11 -35 -7.5 -66zM515 87q2 -30 16 -55q14 -22 36.5 -37.5t55.5 -13.5q28 -4 59.5 6.5t59 30t48.5 46.5t29 57q16 38 19 73.5t-5 66.5q-4 32 -29 50t-60 18q-32 0 -64.5 -16.5t-61.5 -39.5q-29 -27 -56 -57.5t-38 -65.5 q-11 -33 -9 -63zM866.5 83.5q-5.5 -32.5 3.5 -59.5q7 -25 28.5 -37.5t50.5 -10.5q29 0 61 10t61.5 28t53.5 43.5t36 56.5q15 35 18 70t-10 62q-11 28 -35.5 48t-61.5 20q-27 4 -56 -11.5t-52 -37.5q-27 -26 -50 -55.5t-33 -61.5q-9 -32 -14.5 -64.5z" />
<glyph unicode="&#x2026;" horiz-adv-x="1384" d="M137 147q17 46 54.5 81t74.5 62q38 29 78 46.5t83 21.5h8q38 0 63.5 -20.5t32.5 -52.5l19 -29q10 11 19.5 20t21.5 19q38 32 82 54.5t86 22.5q43 0 74.5 -21.5t40.5 -58.5l29 -41q6 8 12.5 14.5l14.5 14.5h-2q31 32 71 54.5t78 22.5h10q44 0 73.5 -21.5t46.5 -53.5v1 q2 -8 4.5 -14.5l5.5 -14.5l72 -112q13 -30 11.5 -67t-15.5 -75l-5 -15q-15 -39 -45 -71t-66.5 -55t-76.5 -35.5t-75 -12.5h-5q-28 0 -52 11t-37 31l-36 55q-35 -42 -84.5 -68t-97.5 -26q-4 0 -7 1t-7 1h-8q-40 0 -66 18.5t-42 42.5l-24 38q-6 -12 -14.5 -23.5t-19.5 -22.5 q-42 -36 -77 -47t-66 -11h-10q-42 1 -73.5 17.5t-49.5 45.5l-62 97q-6 7 -13 14t-12 15q-45 59 -17 147zM173.5 82q3.5 -31 22.5 -53q16 -23 42 -37t59 -16q24 -2 53 6.5t66 39.5q20 20 29 44t19 47q11 35 19 70.5t5 67.5q0 29 -21 48t-54 17q-32 -3 -65.5 -18.5 t-64.5 -38.5q-31 -22 -61 -49.5t-41 -61.5q-11 -35 -7.5 -66zM515 87q2 -30 16 -55q14 -22 36.5 -37.5t55.5 -13.5q28 -4 59.5 6.5t59 30t48.5 46.5t29 57q16 38 19 73.5t-5 66.5q-4 32 -29 50t-60 18q-32 0 -64.5 -16.5t-61.5 -39.5q-29 -27 -56 -57.5t-38 -65.5 q-11 -33 -9 -63zM866.5 83.5q-5.5 -32.5 3.5 -59.5q7 -25 28.5 -37.5t50.5 -10.5q29 0 61 10t61.5 28t53.5 43.5t36 56.5q15 35 18 70t-10 62q-11 28 -35.5 48t-61.5 20q-27 4 -56 -11.5t-52 -37.5q-27 -26 -50 -55.5t-33 -61.5q-9 -32 -14.5 -64.5z" />
<glyph horiz-adv-x="628" d="M473.5 1160q-0.5 73 28.5 158q15 32 40 54t55 36.5t61.5 21t58.5 7.5q35 -15 54 -42t29 -60l53 -82q20 -31 28 -68.5t13 -75.5q0 -9 2 -16.5t3 -15.5q3 -32 6.5 -64.5t3.5 -66.5t-5 -69.5t-18 -72.5v-4q-11 -27 -32 -51.5t-48 -43.5t-57.5 -30.5t-60.5 -12.5 q-25 9 -43 24t-29 33l-58 90q-18 15 -30 35t-19 42t-11 46t-6 48q-2 5 -3 10t-3 10l-1 21q-11 66 -11.5 139zM519 1172.5q1 -68.5 12 -133.5q5 -29 9 -61t13 -62t26 -53.5t47 -34.5q21 0 42.5 8.5t40.5 22.5t34 32.5t23 38.5q23 69 21 132.5t-10 125.5q-5 28 -8.5 59.5 t-12 60t-23.5 51.5t-42 35q-18 0 -40 -4.5t-42.5 -14t-38 -24.5t-27.5 -37q-25 -73 -24 -141.5z" />
<glyph unicode="&#x2018;" horiz-adv-x="628" d="M473.5 1160q-0.5 73 28.5 158q15 32 40 54t55 36.5t61.5 21t58.5 7.5q35 -15 54 -42t29 -60l53 -82q20 -31 28 -68.5t13 -75.5q0 -9 2 -16.5t3 -15.5q3 -32 6.5 -64.5t3.5 -66.5t-5 -69.5t-18 -72.5v-4q-11 -27 -32 -51.5t-48 -43.5t-57.5 -30.5t-60.5 -12.5 q-25 9 -43 24t-29 33l-58 90q-18 15 -30 35t-19 42t-11 46t-6 48q-2 5 -3 10t-3 10l-1 21q-11 66 -11.5 139zM519 1172.5q1 -68.5 12 -133.5q5 -29 9 -61t13 -62t26 -53.5t47 -34.5q21 0 42.5 8.5t40.5 22.5t34 32.5t23 38.5q23 69 21 132.5t-10 125.5q-5 28 -8.5 59.5 t-12 60t-23.5 51.5t-42 35q-18 0 -40 -4.5t-42.5 -14t-38 -24.5t-27.5 -37q-25 -73 -24 -141.5z" />
<glyph horiz-adv-x="620" d="M370 908q3 24 12 48q26 72 71.5 137.5t96.5 130.5q10 10 18 19t16 17q2 4 5.5 7.5t6.5 7.5l42.5 51t48 47.5t54.5 38t63 22.5q48 0 73 -23t34 -56l62 -97q18 -27 18 -65t-11 -73l-5 -14q-31 -84 -87 -164t-127 -154l-4.5 -5t-8.5 -12l-41 -40.5t-44.5 -37t-49 -28.5 t-55.5 -15q-31 2 -50.5 13.5t-33.5 31.5l-63 97q-17 12 -27 30.5t-13.5 40t-0.5 45.5zM414.5 907.5q-1.5 -24.5 5.5 -44.5t23.5 -33t42.5 -14q25 3 48 15t44 29.5t41 37.5l38 39q69 71 122.5 149.5t80.5 161.5q8 24 10 49.5t-4.5 46t-22.5 34t-44 13.5q-35 -7 -64 -27.5 t-55.5 -47.5t-50 -56.5t-47.5 -54.5l-46 -60.5t-44 -61.5t-38 -62.5t-29 -64.5q-9 -24 -10.5 -48.5z" />
<glyph unicode="&#x2019;" horiz-adv-x="620" d="M370 908q3 24 12 48q26 72 71.5 137.5t96.5 130.5q10 10 18 19t16 17q2 4 5.5 7.5t6.5 7.5l42.5 51t48 47.5t54.5 38t63 22.5q48 0 73 -23t34 -56l62 -97q18 -27 18 -65t-11 -73l-5 -14q-31 -84 -87 -164t-127 -154l-4.5 -5t-8.5 -12l-41 -40.5t-44.5 -37t-49 -28.5 t-55.5 -15q-31 2 -50.5 13.5t-33.5 31.5l-63 97q-17 12 -27 30.5t-13.5 40t-0.5 45.5zM414.5 907.5q-1.5 -24.5 5.5 -44.5t23.5 -33t42.5 -14q25 3 48 15t44 29.5t41 37.5l38 39q69 71 122.5 149.5t80.5 161.5q8 24 10 49.5t-4.5 46t-22.5 34t-44 13.5q-35 -7 -64 -27.5 t-55.5 -47.5t-50 -56.5t-47.5 -54.5l-46 -60.5t-44 -61.5t-38 -62.5t-29 -64.5q-9 -24 -10.5 -48.5z" />
<glyph horiz-adv-x="971" d="M487.5 1116q-1.5 70 27.5 152l4 9q16 34 42 56t56 35t61.5 19t58.5 9q30 -14 46.5 -36t25.5 -49l3 13q13 33 36 54.5t50 34.5t55 18.5t52 5.5h21q33 -15 51 -39.5t27 -52.5l55 -85v-4l7 -5q15 -27 22 -58.5t13 -62.5l2 -2q3 -14 5.5 -28.5t6.5 -27.5q-2 -4 -2 -10h2 q4 -30 7 -61t3 -64q0 -32 -5 -65.5t-17 -69.5v-2q-13 -29 -35 -53t-49 -42t-56.5 -28t-57.5 -10q-26 8 -42.5 21.5t-27.5 30.5l-29 42v-7l-3 -8q-10 -28 -29 -51t-43 -39.5t-51.5 -25.5t-54.5 -9h-18q-44 20 -67 57l-56 90q-19 15 -31 34t-19.5 40.5t-12.5 45t-9 46.5 q-2 6 -4.5 12t-4.5 8h2q-2 7 -3.5 14t-1.5 12q-11 66 -12.5 136zM535.5 1132q-0.5 -34 2.5 -67t8 -65q8 -29 13.5 -61.5t15.5 -61.5t27 -53t47 -37q20 -2 41.5 4t40.5 18.5t33.5 30t20.5 39.5q10 36 12.5 70.5t1.5 68t-4 66t-5 65.5q-6 27 -9.5 57t-10 58.5t-19.5 52 t-39 35.5q-20 -2 -42 -6t-42.5 -13t-38.5 -23.5t-28 -36.5q-14 -36 -19.5 -71.5t-6 -69.5zM839.5 1177.5q1.5 -35.5 5.5 -70.5t7 -69q7 -28 10.5 -60t11 -61t23 -52t45.5 -32q21 0 42 7.5t40.5 20t35 30.5t24.5 39q12 34 16.5 67t4 65t-4.5 63l-8 61q-6 28 -10.5 59 t-12.5 60t-23 52.5t-42 36.5q-18 1 -40 -1t-43 -10t-39 -22.5t-27 -36.5q-11 -38 -14 -74.5t-1.5 -72zM1159 1256v4q2 0 1 -1t-1 -3z" />
<glyph unicode="&#x201c;" horiz-adv-x="971" d="M487.5 1116q-1.5 70 27.5 152l4 9q16 34 42 56t56 35t61.5 19t58.5 9q30 -14 46.5 -36t25.5 -49l3 13q13 33 36 54.5t50 34.5t55 18.5t52 5.5h21q33 -15 51 -39.5t27 -52.5l55 -85v-4l7 -5q15 -27 22 -58.5t13 -62.5l2 -2q3 -14 5.5 -28.5t6.5 -27.5q-2 -4 -2 -10h2 q4 -30 7 -61t3 -64q0 -32 -5 -65.5t-17 -69.5v-2q-13 -29 -35 -53t-49 -42t-56.5 -28t-57.5 -10q-26 8 -42.5 21.5t-27.5 30.5l-29 42v-7l-3 -8q-10 -28 -29 -51t-43 -39.5t-51.5 -25.5t-54.5 -9h-18q-44 20 -67 57l-56 90q-19 15 -31 34t-19.5 40.5t-12.5 45t-9 46.5 q-2 6 -4.5 12t-4.5 8h2q-2 7 -3.5 14t-1.5 12q-11 66 -12.5 136zM535.5 1132q-0.5 -34 2.5 -67t8 -65q8 -29 13.5 -61.5t15.5 -61.5t27 -53t47 -37q20 -2 41.5 4t40.5 18.5t33.5 30t20.5 39.5q10 36 12.5 70.5t1.5 68t-4 66t-5 65.5q-6 27 -9.5 57t-10 58.5t-19.5 52 t-39 35.5q-20 -2 -42 -6t-42.5 -13t-38.5 -23.5t-28 -36.5q-14 -36 -19.5 -71.5t-6 -69.5zM839.5 1177.5q1.5 -35.5 5.5 -70.5t7 -69q7 -28 10.5 -60t11 -61t23 -52t45.5 -32q21 0 42 7.5t40.5 20t35 30.5t24.5 39q12 34 16.5 67t4 65t-4.5 63l-8 61q-6 28 -10.5 59 t-12.5 60t-23 52.5t-42 36.5q-18 1 -40 -1t-43 -10t-39 -22.5t-27 -36.5q-11 -38 -14 -74.5t-1.5 -72zM1159 1256v4q2 0 1 -1t-1 -3z" />
<glyph horiz-adv-x="944" d="M382 859q-6 43 11 90l5 10q26 71 71.5 135t97.5 126q5 5 8.5 10.5t8.5 10.5q1 5 5.5 9.5l9.5 9.5l46 52.5t51 49.5t58.5 42t69.5 30h12q3 0 6.5 0.5t5.5 0.5q38 0 59.5 -20t27.5 -50l41 -70q23 22 51.5 37.5t63.5 19.5q46 0 72 -22.5t35 -56.5l62 -99q17 -27 17.5 -62 t-12.5 -71l-7 -19q-31 -85 -86.5 -162.5t-121.5 -146.5l-14 -13.5t-15 -13.5h-2l-40 -38t-42 -35t-46 -28t-51 -17h-11q-31 0 -57 13t-40 35l-53 82q-23 -18 -49.5 -30t-56.5 -14h-6q-30 0 -49.5 11.5t-32.5 29.5l-63 99q-34 22 -40 65zM426 903.5q-1 -24.5 7 -43.5 t25.5 -30.5t44.5 -10.5q24 2 46 13.5t42.5 28.5t39.5 36.5l36 37.5q71 74 125.5 155t86.5 168q11 24 13.5 49.5t-4 45.5t-24 31t-47.5 7q-35 -10 -64.5 -31t-56.5 -47.5t-51 -56t-48 -55.5q-49 -59 -93 -121t-67 -128q-10 -24 -11 -48.5zM679 790q4 -18 16.5 -31t31 -19.5 t39.5 -5.5q25 4 48 17.5t45 31t42 37.5l39 38q70 70 124.5 148.5t80.5 162.5q10 25 11.5 50t-6.5 45t-25 32.5t-45 12.5q-26 -3 -47.5 -17t-41 -33.5t-36.5 -41.5l-32 -41q-32 -51 -67.5 -100t-67.5 -100l-34.5 -48t-36.5 -47q-11 -12 -20.5 -24.5t-13.5 -25.5 q-8 -23 -4 -41z" />
<glyph unicode="&#x201d;" horiz-adv-x="944" d="M382 859q-6 43 11 90l5 10q26 71 71.5 135t97.5 126q5 5 8.5 10.5t8.5 10.5q1 5 5.5 9.5l9.5 9.5l46 52.5t51 49.5t58.5 42t69.5 30h12q3 0 6.5 0.5t5.5 0.5q38 0 59.5 -20t27.5 -50l41 -70q23 22 51.5 37.5t63.5 19.5q46 0 72 -22.5t35 -56.5l62 -99q17 -27 17.5 -62 t-12.5 -71l-7 -19q-31 -85 -86.5 -162.5t-121.5 -146.5l-14 -13.5t-15 -13.5h-2l-40 -38t-42 -35t-46 -28t-51 -17h-11q-31 0 -57 13t-40 35l-53 82q-23 -18 -49.5 -30t-56.5 -14h-6q-30 0 -49.5 11.5t-32.5 29.5l-63 99q-34 22 -40 65zM426 903.5q-1 -24.5 7 -43.5 t25.5 -30.5t44.5 -10.5q24 2 46 13.5t42.5 28.5t39.5 36.5l36 37.5q71 74 125.5 155t86.5 168q11 24 13.5 49.5t-4 45.5t-24 31t-47.5 7q-35 -10 -64.5 -31t-56.5 -47.5t-51 -56t-48 -55.5q-49 -59 -93 -121t-67 -128q-10 -24 -11 -48.5zM679 790q4 -18 16.5 -31t31 -19.5 t39.5 -5.5q25 4 48 17.5t45 31t42 37.5l39 38q70 70 124.5 148.5t80.5 162.5q10 25 11.5 50t-6.5 45t-25 32.5t-45 12.5q-26 -3 -47.5 -17t-41 -33.5t-36.5 -41.5l-32 -41q-32 -51 -67.5 -100t-67.5 -100l-34.5 -48t-36.5 -47q-11 -12 -20.5 -24.5t-13.5 -25.5 q-8 -23 -4 -41z" />
<glyph horiz-adv-x="855" d="M300.5 540q-1.5 40 7 83t23.5 84l14 41q22 61 65.5 119.5t100 104t121 73t129.5 27.5h19q55 0 94.5 -25.5t64.5 -63.5q4 -9 8.5 -18t6.5 -20l61 -93q21 -38 28.5 -84.5t-12.5 -101.5l-7 -17q-26 -71 -70 -138.5t-106 -123.5h-1q-32 -31 -68.5 -56t-75 -43t-77.5 -27.5 t-76 -9.5h-11q-45 4 -75 21t-48 44l-61 94q-27 23 -40 56.5t-14.5 73.5zM350 526q8 -45 37.5 -75.5t85.5 -34.5q68 -2 140.5 31.5t130.5 90.5q60 55 102.5 121t64.5 135q17 46 11 86.5t-26 73.5q-20 32 -53.5 53.5t-79.5 21.5q-40 3 -80.5 -7t-79.5 -31t-74.5 -50t-64.5 -64 t-50.5 -73.5t-32.5 -76.5q-21 -49 -30 -102.5t-1 -98.5z" />
<glyph unicode="&#x2022;" horiz-adv-x="855" d="M300.5 540q-1.5 40 7 83t23.5 84l14 41q22 61 65.5 119.5t100 104t121 73t129.5 27.5h19q55 0 94.5 -25.5t64.5 -63.5q4 -9 8.5 -18t6.5 -20l61 -93q21 -38 28.5 -84.5t-12.5 -101.5l-7 -17q-26 -71 -70 -138.5t-106 -123.5h-1q-32 -31 -68.5 -56t-75 -43t-77.5 -27.5 t-76 -9.5h-11q-45 4 -75 21t-48 44l-61 94q-27 23 -40 56.5t-14.5 73.5zM350 526q8 -45 37.5 -75.5t85.5 -34.5q68 -2 140.5 31.5t130.5 90.5q60 55 102.5 121t64.5 135q17 46 11 86.5t-26 73.5q-20 32 -53.5 53.5t-79.5 21.5q-40 3 -80.5 -7t-79.5 -31t-74.5 -50t-64.5 -64 t-50.5 -73.5t-32.5 -76.5q-21 -49 -30 -102.5t-1 -98.5z" />
<glyph horiz-adv-x="954" d="M324.5 638.5q-3.5 32.5 10.5 69.5q30 49 68 77t78.5 42t82 18.5t78.5 6.5q4 0 7.5 0.5t7.5 0.5h14l55 -2t56 -1q32 -1 68 -4.5t67.5 -14.5t54.5 -31.5t28 -53.5l63 -97q12 -17 15 -40t-6 -54l-4 -9q-13 -27 -35.5 -51t-49.5 -42t-56.5 -29.5t-57.5 -13.5l-133.5 -6 t-133.5 -3q-19 0 -38.5 1t-39.5 1q-57 2 -87 44l-65 99q-18 14 -29 38q-15 22 -18.5 54.5zM370 654q3 -24 17 -41q8 -21 27 -32t43 -13q84 -2 170.5 0.5t172.5 6.5q21 2 43.5 10.5t43 22.5t37.5 32t28 39q12 42 -3.5 67t-45 38.5t-67 18t-70.5 4.5q-28 0 -55 1t-56 3 q-33 -3 -72 -5.5t-77 -12t-72.5 -30t-58.5 -58.5q-8 -27 -5 -51z" />
<glyph unicode="&#x2013;" horiz-adv-x="954" d="M324.5 638.5q-3.5 32.5 10.5 69.5q30 49 68 77t78.5 42t82 18.5t78.5 6.5q4 0 7.5 0.5t7.5 0.5h14l55 -2t56 -1q32 -1 68 -4.5t67.5 -14.5t54.5 -31.5t28 -53.5l63 -97q12 -17 15 -40t-6 -54l-4 -9q-13 -27 -35.5 -51t-49.5 -42t-56.5 -29.5t-57.5 -13.5l-133.5 -6 t-133.5 -3q-19 0 -38.5 1t-39.5 1q-57 2 -87 44l-65 99q-18 14 -29 38q-15 22 -18.5 54.5zM370 654q3 -24 17 -41q8 -21 27 -32t43 -13q84 -2 170.5 0.5t172.5 6.5q21 2 43.5 10.5t43 22.5t37.5 32t28 39q12 42 -3.5 67t-45 38.5t-67 18t-70.5 4.5q-28 0 -55 1t-56 3 q-33 -3 -72 -5.5t-77 -12t-72.5 -30t-58.5 -58.5q-8 -27 -5 -51z" />
<glyph horiz-adv-x="1347" d="M333 619q-11 32 5 76l7 17q33 46 71.5 72t79 39.5t82 18.5t79.5 8q4 0 11.5 1l15.5 2h244q60 0 118 -0.5t116 -2.5q33 -1 70 -5t69.5 -15.5t56 -32t30.5 -55.5l64 -97q11 -17 14 -37.5t-2 -47.5l-1 -7q-12 -32 -34.5 -57t-51 -42.5t-59.5 -28.5t-58 -14q-25 -1 -49 -2.5 t-49 -4.5l-63 -5q-94 -8 -188 -13t-186 -7h-13q-44 0 -86.5 6.5t-84.5 17.5q-36 11 -65 28t-44 42l-62 92q-26 22 -37 54zM375.5 654.5q3.5 -21.5 18.5 -38t38.5 -28.5t50.5 -21q42 -11 85 -17.5t89 -5.5q91 2 183.5 7.5t186.5 13.5q40 2 81.5 6t79.5 6q21 3 44.5 11 t45.5 21t39.5 31t25.5 41q8 41 -9.5 65.5t-48.5 37.5t-69 17.5t-71 5.5q-58 3 -115 3.5t-117 0.5q-58 2 -118 1t-119 -1l-74.5 -6.5t-79 -13t-75.5 -30t-63 -58.5q-12 -27 -8.5 -48.5z" />
<glyph unicode="&#x2014;" horiz-adv-x="1347" d="M333 619q-11 32 5 76l7 17q33 46 71.5 72t79 39.5t82 18.5t79.5 8q4 0 11.5 1l15.5 2h244q60 0 118 -0.5t116 -2.5q33 -1 70 -5t69.5 -15.5t56 -32t30.5 -55.5l64 -97q11 -17 14 -37.5t-2 -47.5l-1 -7q-12 -32 -34.5 -57t-51 -42.5t-59.5 -28.5t-58 -14q-25 -1 -49 -2.5 t-49 -4.5l-63 -5q-94 -8 -188 -13t-186 -7h-13q-44 0 -86.5 6.5t-84.5 17.5q-36 11 -65 28t-44 42l-62 92q-26 22 -37 54zM375.5 654.5q3.5 -21.5 18.5 -38t38.5 -28.5t50.5 -21q42 -11 85 -17.5t89 -5.5q91 2 183.5 7.5t186.5 13.5q40 2 81.5 6t79.5 6q21 3 44.5 11 t45.5 21t39.5 31t25.5 41q8 41 -9.5 65.5t-48.5 37.5t-69 17.5t-71 5.5q-58 3 -115 3.5t-117 0.5q-58 2 -118 1t-119 -1l-74.5 -6.5t-79 -13t-75.5 -30t-63 -58.5q-12 -27 -8.5 -48.5z" />
<glyph horiz-adv-x="1476" d="M508.5 682.5q-9.5 30.5 3.5 70.5l9 27q4 8 5 14.5t5 14.5q6 20 14 39.5l16 38.5l32.5 69.5t29.5 69.5l8 24l7 18l-65 99q-15 9 -22.5 24t-7.5 33q-3 15 0.5 37t11.5 45q13 24 31.5 41t39.5 28.5t43 17.5t41 6l106.5 10t105.5 13h8q43 2 80 6q11 0 21.5 1t21.5 3t22 2 q12 0 22 1q43 0 70 -27q18 11 37.5 16.5t36.5 5.5q40 0 62 -23t30 -54l48 -76q5 8 8.5 11.5t8.5 10.5l30 39t32.5 34.5t38.5 26t47 14.5q24 -1 41.5 -9t29.5 -20t19.5 -27t12.5 -31l58 -90q10 -17 14.5 -35.5t9.5 -36.5q4 -38 3 -80t-14 -86l-25 -68q-2 -6 -5.5 -13.5 t-5.5 -13.5q-13 -25 -20 -43q-2 -6 -3.5 -14.5t-3.5 -17.5l-8 -36l-21 -55q-4 -10 -6 -19t-6 -20l-13 -31.5t-18 -33.5q-8 -18 -21 -34.5t-26 -30.5v-1q-22 -21 -48 -38.5t-53 -25.5q-8 -2 -13.5 -2.5t-10.5 -0.5q-22 0 -38 9t-25 23l-48 72l-35 -30.5t-38 -29.5 q-29 0 -47.5 9.5t-29.5 25.5q-23 -36 -59.5 -63.5t-80.5 -27.5h-7q-26 0 -41.5 9.5t-26.5 24.5l-63 101q-12 5 -19 15v-1q-4 -7 -7.5 -11.5l-7.5 -9.5h1q-8 -15 -14 -25t-16 -21q-10 -12 -22 -25t-26.5 -23.5t-31 -17.5t-35.5 -7h-7q-57 0 -81 41l-65 97q-25 17 -34.5 47.5z M555 754q-13 -41 9 -67.5t64 -24.5q22 0 41.5 18t33.5 35q8 9 15 21.5t21 34.5q4 8 7.5 16t6.5 17l83.5 203l90.5 203q35 -2 71 4.5t74 19.5q-43 -82 -75.5 -164.5t-61.5 -166.5q-15 -38 -27 -77t-22 -77q-3 -17 -3 -34t6 -31t18 -22.5t32 -7.5q22 -2 41 8t35 26t27.5 35.5 t17.5 37.5q8 17 12.5 33.5t11.5 33.5l8 35t11 35l5 12q-3 -32 -7 -65t-5 -65q-2 -27 9 -48.5t40 -21.5q36 26 68 59t61 68.5t56 72l54 71.5l-22.5 -65.5t-25.5 -65.5l-21.5 -57.5t-15.5 -56.5q-8 -31 7.5 -53t50.5 -16q19 5 35.5 15.5t30.5 24.5q13 14 25.5 29t20.5 32 q22 36 33 72.5t25 74.5q7 19 10 36.5t9 36.5q7 18 15 35l16 35l24 68q11 39 12.5 76.5t-2.5 72.5q-3 16 -7.5 33t-13 30.5t-22 22.5t-34.5 9q-20 -2 -36.5 -14.5t-31.5 -30.5t-30.5 -40l-32.5 -44q-31 -38 -58.5 -78.5l-54.5 -80.5q5 60 6.5 117.5t-4.5 114.5 q-2 29 -18.5 51.5t-48.5 22.5q-19 0 -39 -10.5t-37 -27.5q-8 20 -24.5 31.5t-40.5 11.5q-43 -3 -86 -7.5t-85 -6.5q-54 -8 -107.5 -13t-107.5 -9q-13 0 -27.5 -3.5t-28.5 -10t-26.5 -17.5t-19.5 -26q-5 -14 -7 -28.5t0 -27.5q0 -13 3.5 -23t15.5 -14q29 0 58.5 0.5t58.5 0.5 q-10 -46 -27 -92l-34 -92q-13 -35 -28 -69t-32 -69q-29 -65 -49 -132z" />
<glyph unicode="&#x2122;" horiz-adv-x="1476" d="M508.5 682.5q-9.5 30.5 3.5 70.5l9 27q4 8 5 14.5t5 14.5q6 20 14 39.5l16 38.5l32.5 69.5t29.5 69.5l8 24l7 18l-65 99q-15 9 -22.5 24t-7.5 33q-3 15 0.5 37t11.5 45q13 24 31.5 41t39.5 28.5t43 17.5t41 6l106.5 10t105.5 13h8q43 2 80 6q11 0 21.5 1t21.5 3t22 2 q12 0 22 1q43 0 70 -27q18 11 37.5 16.5t36.5 5.5q40 0 62 -23t30 -54l48 -76q5 8 8.5 11.5t8.5 10.5l30 39t32.5 34.5t38.5 26t47 14.5q24 -1 41.5 -9t29.5 -20t19.5 -27t12.5 -31l58 -90q10 -17 14.5 -35.5t9.5 -36.5q4 -38 3 -80t-14 -86l-25 -68q-2 -6 -5.5 -13.5 t-5.5 -13.5q-13 -25 -20 -43q-2 -6 -3.5 -14.5t-3.5 -17.5l-8 -36l-21 -55q-4 -10 -6 -19t-6 -20l-13 -31.5t-18 -33.5q-8 -18 -21 -34.5t-26 -30.5v-1q-22 -21 -48 -38.5t-53 -25.5q-8 -2 -13.5 -2.5t-10.5 -0.5q-22 0 -38 9t-25 23l-48 72l-35 -30.5t-38 -29.5 q-29 0 -47.5 9.5t-29.5 25.5q-23 -36 -59.5 -63.5t-80.5 -27.5h-7q-26 0 -41.5 9.5t-26.5 24.5l-63 101q-12 5 -19 15v-1q-4 -7 -7.5 -11.5l-7.5 -9.5h1q-8 -15 -14 -25t-16 -21q-10 -12 -22 -25t-26.5 -23.5t-31 -17.5t-35.5 -7h-7q-57 0 -81 41l-65 97q-25 17 -34.5 47.5z M555 754q-13 -41 9 -67.5t64 -24.5q22 0 41.5 18t33.5 35q8 9 15 21.5t21 34.5q4 8 7.5 16t6.5 17l83.5 203l90.5 203q35 -2 71 4.5t74 19.5q-43 -82 -75.5 -164.5t-61.5 -166.5q-15 -38 -27 -77t-22 -77q-3 -17 -3 -34t6 -31t18 -22.5t32 -7.5q22 -2 41 8t35 26t27.5 35.5 t17.5 37.5q8 17 12.5 33.5t11.5 33.5l8 35t11 35l5 12q-3 -32 -7 -65t-5 -65q-2 -27 9 -48.5t40 -21.5q36 26 68 59t61 68.5t56 72l54 71.5l-22.5 -65.5t-25.5 -65.5l-21.5 -57.5t-15.5 -56.5q-8 -31 7.5 -53t50.5 -16q19 5 35.5 15.5t30.5 24.5q13 14 25.5 29t20.5 32 q22 36 33 72.5t25 74.5q7 19 10 36.5t9 36.5q7 18 15 35l16 35l24 68q11 39 12.5 76.5t-2.5 72.5q-3 16 -7.5 33t-13 30.5t-22 22.5t-34.5 9q-20 -2 -36.5 -14.5t-31.5 -30.5t-30.5 -40l-32.5 -44q-31 -38 -58.5 -78.5l-54.5 -80.5q5 60 6.5 117.5t-4.5 114.5 q-2 29 -18.5 51.5t-48.5 22.5q-19 0 -39 -10.5t-37 -27.5q-8 20 -24.5 31.5t-40.5 11.5q-43 -3 -86 -7.5t-85 -6.5q-54 -8 -107.5 -13t-107.5 -9q-13 0 -27.5 -3.5t-28.5 -10t-26.5 -17.5t-19.5 -26q-5 -14 -7 -28.5t0 -27.5q0 -13 3.5 -23t15.5 -14q29 0 58.5 0.5t58.5 0.5 q-10 -46 -27 -92l-34 -92q-13 -35 -28 -69t-32 -69q-29 -65 -49 -132z" />
<glyph unicode="&#xa2;" horiz-adv-x="1070" d="M239.5 550.5q-2.5 77.5 26.5 157.5q31 87 87.5 165.5t126.5 147.5q30 31 65 60.5t73.5 55t81 46t87.5 32.5q5 14 11 27.5t11 28.5q11 29 25 55.5t35 52.5v-2q0 3 3 5l2 6q19 26 43.5 50t67.5 33h13q44 0 80.5 -20.5t44.5 -62.5l63 -99q8 -12 11.5 -25t2.5 -30 q-2 -20 -4.5 -41t-7.5 -41q22 -28 37 -61q0 -5 2.5 -8.5t4.5 -5.5l48 -75q7 -11 12 -22l10 -23q22 -45 28 -101.5t-14 -118.5l-4 -12q-9 -26 -26 -50.5t-39.5 -43.5t-49.5 -30.5t-57 -11.5h-7q-22 0 -39.5 4t-31.5 15q2 -7 4 -12.5t4 -13.5l68 -104q14 -22 12.5 -53 t-12.5 -60l-5 -13q-21 -46 -54 -81t-72 -61.5t-82 -45.5t-84 -34l-13 -34q-18 -43 -38.5 -84.5t-48.5 -83.5q-13 -20 -29 -42t-36.5 -41.5t-46 -35t-56.5 -21.5h-5q-28 0 -51.5 11.5t-36.5 31.5l-65 101q-18 13 -27.5 33.5t-6.5 46.5q4 29 10.5 54.5l12.5 49.5q2 4 2 7 q0 4 2 8q2 3 2 6q0 4 1 8l2 7q2 5 3 12.5t6 16.5l-1 1t-1 2q-11 12 -20.5 25t-17.5 27l-47 75q-21 20 -36.5 43.5t-27.5 49.5q-29 69 -31.5 146.5zM282.5 567q0.5 -68 26.5 -125q24 -60 70.5 -105t112.5 -67l-17 -56l-16 -55q-11 -34 -20 -68t-14 -67q-2 -35 21.5 -53.5 t56.5 -16.5q21 4 39.5 16.5t33.5 28.5t28 34t24 35q26 38 45.5 77.5t36.5 79.5l10.5 29t11.5 29q39 13 81 31t81 42t71 55t50 72q9 19 12.5 40t-0.5 38t-16 27.5t-36 8.5q-38 -4 -75 -20t-72 -39l40 104l40 104q17 46 31.5 91l29.5 91q5 -28 8.5 -56.5t5.5 -57.5 q7 -27 28.5 -43.5t53.5 -16.5q23 -2 44.5 7.5t39.5 25.5t30.5 36.5t18.5 41.5q17 56 11 106.5t-26 91.5q-18 47 -53 81t-84 51l21 78.5t12 76.5q1 21 -7 36t-22.5 24.5t-33 14t-38.5 3.5q-26 -4 -43.5 -25l-33.5 -41q-17 -22 -28 -45t-21 -46q-8 -23 -17.5 -45t-18.5 -45 q-42 -6 -83.5 -23.5t-80.5 -42.5t-75 -55t-68 -63q-66 -65 -119 -138t-81 -151q-27 -73 -26.5 -141zM533 631q-1 20 6 43q12 31 30.5 61t41.5 57.5t49 54l52 51.5l-69 -184.5l-68 -184.5q-11 14 -20.5 30t-15 34t-6.5 38zM1033 633q1 0 3 -1t2 -2q0 3 -2 5l-2 3z" />
<glyph unicode="&#xa3;" horiz-adv-x="1457" d="M308 743q-2 29 9 61l4 8q27 47 62.5 74.5t74 42t78.5 19.5t77 8q32 73 64 133.5t67 120.5l15 27q39 43 81.5 71t85.5 45t85.5 27t82.5 18l27 5q58 11 115.5 15t115.5 4q32 0 62.5 -1.5t60.5 -3.5q45 -5 76.5 -29.5t42.5 -63.5l63 -99q14 -23 17.5 -51.5t-5.5 -60.5 l-5 -14q-8 -24 -25 -46t-38.5 -38.5t-46.5 -27.5t-50 -14q-22 -3 -46 -4t-50 -1q-18 0 -36 0.5t-36 0.5h-29q-46 0 -97.5 -11t-93.5 -42q24 -18 33 -51l63 -100q13 -20 14 -46t-13 -62l-1 -7q-10 -26 -28 -49t-41.5 -41t-50 -30t-53.5 -16q-31 -3 -62 -3.5t-62 -1.5h-4 l-20 -53t-21 -52l40.5 18l41.5 20q5 2 9.5 4t9.5 5l5 1l2 2q76 37 155 63.5t157 30.5h16q24 0 47 -6t42 -18t32.5 -29t19.5 -39l63 -99q17 -26 17 -63l-1 -4q0 -4 -1 -6t-1 -4l-5 5l-5 -29q-36 -42 -77.5 -74t-86 -58.5t-91 -48.5l-92.5 -44l-55.5 -25.5l-53.5 -25.5 q-20 -8 -40.5 -17.5l-41.5 -18.5l-101.5 -43t-101.5 -38t-102.5 -29t-103.5 -15q-40 3 -75 15t-55 41l-62 99q-10 7 -16 15.5t-13 17.5q-13 24 -15 49.5t-2 51.5q0 2 1 5.5t-1 5.5q2 5 1 8.5t-1 7.5v15q7 75 22.5 151.5t44.5 155.5q2 5 3 11.5t4 12.5l8 24l12 33q-6 4 -8 12 l-63 99q-24 15 -31 40q-11 25 -13 54zM353.5 759.5q1.5 -23.5 10.5 -42.5q6 -21 24.5 -32t41.5 -13q23 -1 46 -0.5t46 0.5l-44.5 -107.5t-38.5 -107.5q-27 -75 -42 -148t-22 -145q0 -34 -0.5 -67.5t14.5 -60.5q14 -27 44.5 -38t66.5 -13q58 4 116.5 19.5t118 37.5t118.5 48 l118 50q55 28 113.5 54t115.5 55.5t109.5 66t95.5 85.5v14q0 24 -10.5 42t-28.5 29t-41 16t-48 3q-71 -4 -145 -29t-146 -60l-144.5 -65.5t-146.5 -56.5q2 46 11.5 92.5t27.5 94.5l35.5 95.5l37.5 95.5q42 2 80.5 2.5t80.5 4.5q20 3 40 12t37 23.5t30 32.5t19 38 q16 44 3 70.5t-42 41t-67.5 18.5t-71.5 3q14 23 24 46t24 46q26 42 63 67.5t78.5 39t84 17t78.5 1.5q42 -2 82 -2t82 5q19 2 38 11t35.5 22.5t28 31t16.5 36.5q8 27 4.5 51t-17 42t-34.5 29t-47 13q-82 8 -167.5 5t-174.5 -19q-38 -8 -80 -16t-83.5 -22t-80.5 -36.5 t-71 -58.5l-86 -154t-73 -155q-33 -3 -71.5 -6t-77 -13t-72 -31t-55.5 -59q-12 -26 -10.5 -49.5z" />
<glyph unicode="&#xa5;" horiz-adv-x="1224" d="M195 183q-11 43 3 92q26 59 69.5 87t94.5 39l-22 32q-34 23 -43.5 65.5t7.5 88.5q9 26 25.5 47t37.5 37t45 28t49 21q-3 66 -0.5 126.5t10.5 116.5l23.5 110t34.5 118l10.5 29t11.5 28q10 24 26.5 49t39 46t50 36t57.5 19v1q8 2 17 3t22 1q42 0 70 -24t36 -61l59 -93 q22 -32 19 -76q-8 -40 -14.5 -78l-12.5 -76l5 5l5 5q3 2 9 9l6 7l-3 -2l5.5 5l11.5 10l-3 -1l96 108l93 108q14 13 21 20.5t13 15.5v-2q0 2 4 6l27 32.5t27 26.5q29 25 64.5 42.5t68.5 17.5q7 0 12.5 -0.5t11.5 -2.5q38 -5 61.5 -27t31.5 -54l64 -97h-1l1 -2 q20 -29 21 -70.5t-12 -82.5l-2 -4q-17 -38 -46 -73t-60 -68q-4 -4 -7.5 -8t-7.5 -8h2l-37.5 -38l-37.5 -37l-36 -36.5l-36 -36.5h-2l-63.5 -66.5l-62.5 -66.5l53 -82q11 -20 13.5 -44t-8.5 -55l-7 -19q-10 -27 -29 -50.5t-43 -41.5t-51 -30.5t-54 -17.5l46 -73 q10 -17 11.5 -41t-10.5 -55l-5 -12q-14 -33 -40 -60t-57.5 -46t-65.5 -30t-64 -14q-35 -2 -70 -2t-70 -1q-17 -26 -39 -51t-48.5 -44t-56 -30.5t-60.5 -11.5h-11q-31 0 -51.5 11.5t-31.5 29.5l-65 102q-8 7 -13.5 14t-10.5 15q-9 7 -16 14t-11 17l-62 94q-31 24 -42 67z M236 225.5q2 -23.5 12 -42t27.5 -31t41.5 -15.5q14 0 26.5 -3t26.5 -3q-10 -26 -12.5 -51.5t4.5 -46.5t24 -34.5t46 -13.5q28 -3 55 8.5t51 31.5t43.5 45t32.5 51q43 0 85 1t86 3q24 2 50.5 10.5t51 23t45 34.5t31.5 46q12 28 10 49t-13.5 35t-31.5 22.5t-42.5 13t-46.5 6 t-45 0.5h-48l28 42.5t30 41.5q61 3 124 3q24 -1 51 6.5t51 22.5t42 36.5t25 47.5q15 33 11 57.5t-20.5 41t-42 25.5t-52.5 11q45 55 94 107.5l97 103.5l74.5 74l74.5 73l59.5 69t47.5 73q10 28 11 56t-7.5 51.5t-27 38.5t-47.5 18q-26 5 -54 -7.5t-52 -32.5 q-23 -22 -42.5 -47t-42.5 -48l-95 -108.5l-97 -108.5l-100 -114.5l-96 -115.5q-11 71 -6 147l10 151l15.5 95.5t16.5 95.5q1 22 -6 40.5t-20.5 30.5t-34 16.5t-46.5 -1.5q-22 -2 -41.5 -13t-36 -27t-29 -35t-20.5 -38q-31 -68 -47.5 -136t-27.5 -135q-9 -71 -11.5 -140.5 t1.5 -137.5q-22 -5 -46.5 -13t-46.5 -20.5t-40 -30.5t-26 -42t-7.5 -47t9.5 -41t26.5 -29.5t41.5 -12.5q29 -2 56.5 -3.5t54.5 -3.5l-23 -38.5t-23 -39.5l-63 -4.5t-69.5 -11.5t-64 -28t-45.5 -55q-7 -26 -5 -49.5z" />
<glyph unicode="&#xa9;" horiz-adv-x="1623" d="M212.5 378.5q3.5 55.5 24.5 114.5l10 29q26 70 65 139t88.5 134t109 125.5t127.5 113.5q64 56 137 103t149.5 81.5t154 54t151.5 19.5h25q67 0 125 -17.5t104.5 -48.5t81 -75t56.5 -96l48 -72q13 -20 23.5 -44t19.5 -48l1 -4q43 -106 36 -234.5t-56 -263.5l-12 -34 q-24 -60 -61.5 -117t-85.5 -108.5t-104 -96t-116 -79.5q-117 -69 -240.5 -104.5t-240.5 -35.5h-16q-118 0 -215 38t-172 104q-45 37 -75 85l-43 63q-33 34 -56.5 77t-35 92.5t-8 105zM258 379q-1 -55 14 -103.5t43 -89.5t64 -72q73 -66 171 -101.5t216 -32.5q111 0 227 33 t229 100q56 33 108.5 74t96.5 88.5t79 100.5t56 109q55 137 64.5 268t-32.5 240q-18 56 -51 103.5t-79 82t-105.5 53t-129.5 17.5q-71 3 -145.5 -14.5t-148.5 -50.5t-145.5 -79t-134.5 -100q-65 -53 -123.5 -113t-107 -125t-85.5 -134.5t-59 -139.5q-21 -59 -22 -114z M500.5 416.5q-2.5 32.5 11.5 69.5q32 97 95.5 191t151.5 170q41 39 89 72.5t98.5 57.5t102.5 37t101 12q47 1 86 -13t68.5 -39t48 -60t24.5 -76q16 -82 1 -174t-50 -186q-25 -66 -80 -121.5t-123 -86.5q-69 -35 -139 -49t-136 -14q-73 0 -138 15.5t-116 50.5 q-25 15 -46.5 36t-34 48t-15 59.5zM566 434.5q4 -56.5 36 -96.5q32 -42 83.5 -63t114.5 -21q45 0 91.5 10t94.5 24q42 12 79 41.5t53 71.5q9 24 8 46t-11.5 38.5t-28.5 26t-42 9.5q-39 -3 -78 -16q-20 -8 -41 -10.5t-41 -4.5q-14 -1 -27.5 2t-22.5 10.5t-11.5 19.5t5.5 29 q15 32 45 59.5t59 51.5q32 23 65 43.5t68 24.5q15 -4 29 -9.5t29 -7.5q24 0 49.5 10t48 27t39.5 39t25 46q11 31 4 57t-28 42q-20 17 -47.5 24.5t-58.5 7.5q-41 0 -83.5 -10.5t-85 -29t-84 -43t-79.5 -52.5q-37 -27 -74 -58.5t-69 -67t-57 -73.5t-38 -79q-23 -62 -19 -118.5 z" />
<glyph unicode="&#xad;" d="M317 634q-7 30 7 67l4 12q33 47 72 74t81 41t84 18.5t80 6.5h15q5 0 8.5 1t7.5 1q11 -2 20 -2h21q5 0 10 -0.5t12 -0.5h24q5 0 10.5 -1t11.5 -1h26q11 -2 21 -2h21q44 0 91.5 -2.5t98.5 -9.5q18 -5 35.5 -12.5t32 -19t24 -27t12.5 -35.5l65 -97q10 -18 13 -41t-8 -54 l-2 -6q-14 -29 -37.5 -52.5t-52 -41.5t-59 -28.5t-57.5 -13.5q-66 -4 -129.5 -5.5t-126.5 -1.5q-44 0 -88 1t-88 1h-58q-31 5 -55 18.5t-37 35.5l-65 98q-15 14 -22 27q-16 22 -23 52zM362.5 654.5q6.5 -23.5 19.5 -41.5q25 -38 74 -45l240 -2t243 7q22 2 45.5 10.5t45 22.5 t39.5 32t28 40q10 25 5.5 45t-17 34.5t-31.5 23.5t-39 14q-44 5 -88 8t-89 3q-23 0 -45 1.5t-45 1.5q-23 2 -46 2q-22 0 -45 1q-34 -2 -73.5 -5t-79 -12.5t-75.5 -30.5t-62 -59q-11 -27 -4.5 -50.5z" />
<glyph unicode="&#xae;" horiz-adv-x="1691" d="M238 348.5q-3 61.5 8.5 127.5t35.5 132l5 15q27 75 70 147t98.5 139.5t121.5 129t140 115.5v-2q68 52 141.5 95t149.5 74t152.5 48t150.5 17h24q70 0 131 -18t111 -51t87 -78.5t60 -100.5l46 -70q11 -19 21 -38.5t18 -41.5l-2 2q48 -113 40 -247.5t-58 -274.5l-7 -17 q-24 -64 -62.5 -125t-87.5 -116.5t-107 -105t-119 -89.5q3 -11 0.5 -25t-7.5 -29l-3 -9q-11 -28 -32 -50t-46.5 -37t-53.5 -23.5t-52 -10.5q-35 2 -70 5.5t-62 20.5q-66 -21 -134.5 -32t-134.5 -11q-65 0 -126.5 11.5t-115 35t-97.5 59t-74 83.5l-7 11q-3 2 -6 4.5t-4 7.5 l-36 56q-11 11 -18.5 23l-15.5 25q-34 45 -52 101t-21 117.5zM282.5 364q2.5 -58 19 -110t48.5 -94q28 -46 69.5 -79.5t93 -56t110 -33.5t121.5 -11q66 0 135 12t140 35q22 -20 55.5 -24.5t67.5 -5.5q18 1 38.5 7t39.5 16.5t34 26t23 35.5q18 40 1 70q63 38 122 86 t109.5 102.5t89.5 115t63 123.5q54 139 63 271.5t-37 243.5q-20 55 -55 101.5t-83.5 80t-109.5 51t-131 16.5q-71 2 -146 -14t-150 -46.5t-148 -73.5t-140 -95q-68 -50 -130.5 -108.5t-114.5 -123t-92 -133.5t-64 -141q-23 -62 -33.5 -124t-8 -120zM523.5 420.5 q-1.5 43.5 7.5 90.5t25 93q35 100 108 191t167 159q-11 -15 -18.5 -31.5t-12.5 -33.5l-33 -92t-30 -92q-13 -47 -24.5 -93.5t-28.5 -92.5q-20 -62 -51 -123q-11 -31 -22.5 -60t-25.5 -60q-31 26 -45.5 63.5t-16 81zM775 210l9.5 32.5t10.5 32.5l5 17q5 10 8.5 20t8.5 21 q29 -23 46 -55.5t31 -65.5q-17 -2 -34 -3t-34 -1h-27q-13 0 -24 2zM918 609q7 38 16.5 74.5t24.5 74.5q3 11 4.5 22t4.5 22l1 5l17 10q25 0 51 1.5t50 4.5q27 1 52.5 3t51.5 2q13 1 22.5 -6.5t5.5 -21.5q-14 -41 -47.5 -79t-75.5 -61q-44 -23 -89 -35t-89 -16zM956 1036 q73 38 148 62t147 22q47 2 86.5 -11.5t69.5 -38t49.5 -59t26.5 -74.5q8 -41 6.5 -85t-9.5 -90t-21.5 -92.5t-30.5 -92.5q-17 -47 -47 -91t-69 -82t-85.5 -69t-94.5 -53q-20 40 -37.5 79.5t-32.5 82.5q59 22 113.5 58.5t106.5 76.5q49 42 93 89.5t64 102.5q11 32 17.5 65 t5 63.5t-12 56t-32.5 42.5q-23 17 -50.5 26.5t-58 15t-62.5 7t-63 3.5q-57 0 -112.5 -1.5t-114.5 -12.5z" />
<glyph unicode="&#xb4;" horiz-adv-x="568" d="M585.5 1436.5q-7.5 28.5 3.5 60.5q6 15 10.5 28t11.5 26q23 51 56.5 94.5t71.5 83.5q18 20 40 41t47 38.5t53 28.5t58 11h3q36 0 58.5 -19.5t30.5 -48.5l65 -102q11 -20 12.5 -44t-7.5 -50l-2 -5q-4 -8 -8.5 -15.5t-8.5 -13.5l2 -2l-7 -12.5t-3 -8.5q-26 -41 -60.5 -88 t-76 -87t-90 -66t-103.5 -26h-5q-19 1 -32 9t-22 21l-67 104q-23 14 -30.5 42.5zM633 1498q-9 -26 2 -48.5t37 -24.5q46 -1 87.5 22t77 58t65 76.5t52.5 77.5q5 14 13.5 26.5t12.5 26.5q7 18 6 35.5t-9 30.5t-22 20.5t-33 7.5q-22 0 -43 -9.5t-40.5 -23.5t-37.5 -32l-33 -34 q-35 -38 -65.5 -77.5t-50.5 -81.5q-7 -13 -11 -24.5t-8 -25.5z" />
<glyph unicode="&#x2000;" horiz-adv-x="925" />
<glyph unicode="&#x2001;" horiz-adv-x="1850" />
<glyph unicode="&#x2002;" horiz-adv-x="925" />
<glyph unicode="&#x2003;" horiz-adv-x="1850" />
<glyph unicode="&#x2004;" horiz-adv-x="616" />
<glyph unicode="&#x2005;" horiz-adv-x="462" />
<glyph unicode="&#x2006;" horiz-adv-x="308" />
<glyph unicode="&#x2007;" horiz-adv-x="308" />
<glyph unicode="&#x2008;" horiz-adv-x="231" />
<glyph unicode="&#x2009;" horiz-adv-x="370" />
<glyph unicode="&#x200a;" horiz-adv-x="102" />
<glyph unicode="&#x2010;" d="M317 634q-7 30 7 67l4 12q33 47 72 74t81 41t84 18.5t80 6.5h15q5 0 8.5 1t7.5 1q11 -2 20 -2h21q5 0 10 -0.5t12 -0.5h24q5 0 10.5 -1t11.5 -1h26q11 -2 21 -2h21q44 0 91.5 -2.5t98.5 -9.5q18 -5 35.5 -12.5t32 -19t24 -27t12.5 -35.5l65 -97q10 -18 13 -41t-8 -54 l-2 -6q-14 -29 -37.5 -52.5t-52 -41.5t-59 -28.5t-57.5 -13.5q-66 -4 -129.5 -5.5t-126.5 -1.5q-44 0 -88 1t-88 1h-58q-31 5 -55 18.5t-37 35.5l-65 98q-15 14 -22 27q-16 22 -23 52zM362.5 654.5q6.5 -23.5 19.5 -41.5q25 -38 74 -45l240 -2t243 7q22 2 45.5 10.5t45 22.5 t39.5 32t28 40q10 25 5.5 45t-17 34.5t-31.5 23.5t-39 14q-44 5 -88 8t-89 3q-23 0 -45 1.5t-45 1.5q-23 2 -46 2q-22 0 -45 1q-34 -2 -73.5 -5t-79 -12.5t-75.5 -30.5t-62 -59q-11 -27 -4.5 -50.5z" />
<glyph unicode="&#x2011;" d="M317 634q-7 30 7 67l4 12q33 47 72 74t81 41t84 18.5t80 6.5h15q5 0 8.5 1t7.5 1q11 -2 20 -2h21q5 0 10 -0.5t12 -0.5h24q5 0 10.5 -1t11.5 -1h26q11 -2 21 -2h21q44 0 91.5 -2.5t98.5 -9.5q18 -5 35.5 -12.5t32 -19t24 -27t12.5 -35.5l65 -97q10 -18 13 -41t-8 -54 l-2 -6q-14 -29 -37.5 -52.5t-52 -41.5t-59 -28.5t-57.5 -13.5q-66 -4 -129.5 -5.5t-126.5 -1.5q-44 0 -88 1t-88 1h-58q-31 5 -55 18.5t-37 35.5l-65 98q-15 14 -22 27q-16 22 -23 52zM362.5 654.5q6.5 -23.5 19.5 -41.5q25 -38 74 -45l240 -2t243 7q22 2 45.5 10.5t45 22.5 t39.5 32t28 40q10 25 5.5 45t-17 34.5t-31.5 23.5t-39 14q-44 5 -88 8t-89 3q-23 0 -45 1.5t-45 1.5q-23 2 -46 2q-22 0 -45 1q-34 -2 -73.5 -5t-79 -12.5t-75.5 -30.5t-62 -59q-11 -27 -4.5 -50.5z" />
<glyph unicode="&#x2012;" d="M317 634q-7 30 7 67l4 12q33 47 72 74t81 41t84 18.5t80 6.5h15q5 0 8.5 1t7.5 1q11 -2 20 -2h21q5 0 10 -0.5t12 -0.5h24q5 0 10.5 -1t11.5 -1h26q11 -2 21 -2h21q44 0 91.5 -2.5t98.5 -9.5q18 -5 35.5 -12.5t32 -19t24 -27t12.5 -35.5l65 -97q10 -18 13 -41t-8 -54 l-2 -6q-14 -29 -37.5 -52.5t-52 -41.5t-59 -28.5t-57.5 -13.5q-66 -4 -129.5 -5.5t-126.5 -1.5q-44 0 -88 1t-88 1h-58q-31 5 -55 18.5t-37 35.5l-65 98q-15 14 -22 27q-16 22 -23 52zM362.5 654.5q6.5 -23.5 19.5 -41.5q25 -38 74 -45l240 -2t243 7q22 2 45.5 10.5t45 22.5 t39.5 32t28 40q10 25 5.5 45t-17 34.5t-31.5 23.5t-39 14q-44 5 -88 8t-89 3q-23 0 -45 1.5t-45 1.5q-23 2 -46 2q-22 0 -45 1q-34 -2 -73.5 -5t-79 -12.5t-75.5 -30.5t-62 -59q-11 -27 -4.5 -50.5z" />
<glyph unicode="&#x202f;" horiz-adv-x="370" />
<glyph unicode="&#x205f;" horiz-adv-x="462" />
<glyph unicode="&#x20ac;" horiz-adv-x="1423" d="M202 422.5q-9 41.5 8 87.5q11 30 29 52t40 38t47 26t51 17l-12 19q-31 22 -39 62t9 87l3 10q21 42 52.5 69.5t68.5 45t77 26.5t77 14q59 85 129 160.5t151 140.5q40 33 85 60t92.5 46.5t95 30.5t92.5 11h22q46 -1 84.5 -14t70 -34.5t56.5 -50t45 -60.5l24 -46l49 -77 q0 -2 2 -4t2 -4q19 -31 33 -65.5t21 -73t5 -81t-15 -87.5l-2 -2q-1 -4 -1 -8t-2 -9q-10 -28 -29 -56t-43.5 -50t-54.5 -35.5t-61 -13.5h-11t-11 1q-35 0 -61.5 14.5t-42.5 38.5l-61 94q-36 27 -41 74q-5 11 -6.5 24t-4.5 27q-10 -3 -20 -7t-21 -9q5 -6 7 -13.5l4 -15.5 l65 -99q13 -20 15 -47.5t-12 -63.5l-5 -15q-11 -31 -32 -54.5t-47 -40t-55.5 -26t-56.5 -12.5l41 -65l8 -22q18 6 34.5 8.5t33.5 5.5h7q2 0 3.5 0.5t3.5 0.5h7q2 0 4 1t4 1q36 0 55 -17.5t24 -43.5l67 -103q13 -20 12.5 -49t-11.5 -60q-4 -11 -8.5 -19.5t-8.5 -14.5v-2 q-2 -6 -4.5 -12t-9.5 -17l-1 -3q-25 -39 -57.5 -70.5t-68.5 -57t-73.5 -46.5t-72.5 -38q-72 -35 -144 -59t-144 -28h-7q-81 0 -145.5 30t-101.5 88l-53 85q-12 11 -22.5 23.5t-16.5 27.5q-41 63 -53 147q-46 14 -65 50l-62 93q-31 23 -40 64.5zM245 460.5 q2 -23.5 13.5 -41.5t31 -29t45.5 -11q17 -3 36 -3t39 -2q-8 -78 5 -148.5t48 -128.5q32 -58 95.5 -88.5t142.5 -28.5q66 4 133 26.5t134 54.5q33 16 67 34.5t66 41t60 49t49 58.5l10 18t7 20q13 22 18.5 46.5t1 44t-19.5 30.5t-44 7q-22 -3 -46.5 -7t-47.5 -19 q-25 -11 -48 -27l-46 -31q-62 -38 -126.5 -50.5t-124.5 -12.5q-19 1 -29.5 11t-14.5 25.5t-3.5 33.5t3.5 34q41 2 80 0.5t80 6.5q19 3 39.5 11.5t38 21.5t31 30t19.5 37q19 45 7 73.5t-40.5 44t-67.5 20.5t-73 4h-22q-10 0 -19 2q8 18 16.5 35t16.5 35q39 0 78.5 0.5 t79.5 -0.5q24 -2 52 4t53.5 19.5t45.5 34t28 49.5q18 44 6.5 73.5t-39.5 47t-66.5 23.5t-74.5 3h-10q21 26 46 53.5t53.5 50t59 36.5t63.5 14q33 -2 54.5 -22.5t25.5 -51.5q7 -32 8.5 -64.5t12.5 -63.5q5 -33 32 -54.5t67 -18.5q27 -5 52.5 6t46.5 31t36 46t20 50 q13 41 14.5 79.5t-5 74.5t-20 68t-30.5 61q-17 30 -40 55.5t-51.5 45t-63 31.5t-75.5 13q-42 3 -87.5 -5.5t-91 -26.5t-90 -44t-83.5 -58q-85 -67 -155 -145.5t-127 -163.5q-30 -4 -66.5 -10t-72 -19t-65.5 -35.5t-48 -58.5q-10 -24 -10 -47t9.5 -41t27.5 -29t43 -11 q11 1 21 -0.5t22 0.5q-5 -17 -13 -34t-15 -34q-26 -3 -58 -8.5t-62 -17.5t-54.5 -32t-36.5 -52q-10 -26 -8 -49.5zM358 333l4 -5q0 1 -1 1h-1v4h-2zM1101 466l3 -3z" />
<glyph unicode="&#xe000;" horiz-adv-x="1415" d="M0 1415h1415v-1415h-1415v1415z" />
<glyph unicode="&#xfb01;" horiz-adv-x="1778" d="M1261 82.5q3 33.5 7 64.5q9 55 25 114.5t38 122.5l33 96l35 97l35.5 97t38.5 97l35.5 95.5l35.5 96.5q12 28 23.5 58l23.5 59l16 40t14 39q0 2 2 3.5t3 3.5q3 5 4 8t3 5l26.5 58t36.5 58q14 20 31 40.5t37.5 38.5t45.5 32t57 22h10q3 0 4.5 1t4.5 1q45 0 73.5 -25.5 t38.5 -63.5l62 -95q13 -25 19 -51q1 -40 -5.5 -82t-22.5 -84q-38 -111 -83 -222q-7 -19 -15 -38t-14 -37q-16 -38 -30 -75.5l-28 -74.5q-14 -38 -25.5 -76l-22.5 -76l-27 -87q-5 -17 -10.5 -33.5t-10.5 -33.5q-9 -32 -20 -66.5t-24 -67.5l-11 -29q-15 -44 -38 -85t-52 -81 q-15 -23 -35.5 -45.5t-45 -41t-51.5 -31t-56 -15.5h-7q-32 0 -50 11t-30 27l-63 100q-15 9 -23.5 22.5t-12.5 27.5q-8 47 -5 80.5zM1307.5 99q-2.5 -29 1.5 -56q3 -12 8.5 -24t14.5 -21t21 -14t29 -4q22 2 42.5 12t39 25t34.5 33.5t29 36.5q26 38 48 76t36 78 q23 57 40 113.5l35 113.5q20 60 36.5 120t38.5 122q20 57 43.5 113.5l45.5 113.5l42.5 110l41.5 110q14 38 20 76.5t3 73.5q-5 36 -31.5 60.5t-70.5 18.5q-20 -5 -37.5 -15.5t-32.5 -24.5t-27.5 -30.5t-23.5 -32.5q-25 -31 -40.5 -64.5l-31.5 -66.5l-74.5 -191l-73.5 -191 l-70.5 -192l-69.5 -192q-20 -58 -35.5 -115t-24.5 -114q-4 -29 -6.5 -58zM165 92q-2 33 3.5 68.5t15.5 69.5l7 19q8 26 19 46q5 11 8 20t7 18l7 20q3 5 5.5 10.5t4.5 10.5l27 64t25 65l11 29q20 58 38 117l31 89l30 88l54 144t59 144q6 10 9 21q4 11 6.5 18.5t6.5 13.5 q16 30 39.5 55.5t52 46.5t60 37.5t63.5 28.5q5 1 12 3t12 3q51 14 100.5 25.5t96.5 19.5l-4 -2q36 8 67.5 13.5t57.5 10.5v-2q3 0 7 2q4 0 8 1t7 2q5 0 12.5 1t16.5 3q15 2 32 2.5t40 0.5h17q10 0 22 -1l-2 1q47 -9 76.5 -32t44.5 -55q4 -9 9.5 -18t9.5 -19l48 -75 q2 -5 5.5 -10.5l6.5 -10.5q14 -28 23 -61t-3 -77l-1 -5q-11 -29 -31.5 -48t-45 -30.5t-50 -17t-46.5 -7.5q-53 0 -108 -4.5t-112 -10.5q-22 -2 -43.5 -7.5t-43.5 -16.5q19 -1 38.5 -3t38.5 -6.5t36 -12.5t32 -21q11 -11 19 -24t10 -29l62 -95l3 -3q20 -30 17.5 -69.5 t-17.5 -81.5l-3 -12q-9 -22 -24.5 -42t-36 -36t-43.5 -26.5t-45 -14.5q-35 -4 -67.5 -4.5t-67.5 -0.5q-13 -2 -27 -2h-26h-1q-43 -2 -83 -5.5t-78 -20.5q-17 -35 -29 -70.5l-25 -70.5l-45 -121q-2 -12 -6 -23.5t-9 -24.5q-13 -36 -28 -70.5t-32 -66.5q-13 -23 -31 -45.5 t-40 -40.5t-47.5 -29t-52.5 -11h-10t-12 2q-35 4 -55.5 18t-34.5 36l-62 98q-24 18 -35 46t-13 61zM210.5 155.5q-4.5 -39.5 3 -72.5t29 -56.5t62.5 -28.5q20 -5 40 2t38 21t33.5 33t25.5 38q43 87 72 174l52 145.5t59 143.5q32 18 63.5 26t63 11t62.5 3q32 0 62 2 q33 0 65.5 0.5t67.5 4.5q16 3 33 11t31 19.5t24.5 26t15.5 30.5q17 42 16.5 82.5t-26.5 64.5q-14 12 -31 19t-36.5 10.5t-40 4.5l-41.5 2q-26 2 -52.5 0.5t-53.5 -3.5q-27 -4 -53.5 -5t-53.5 -6q11 36 30.5 72.5t42.5 71.5q18 24 41.5 41.5t49 29.5t52.5 19.5t52 10.5 q57 6 112.5 10.5t109.5 4.5q16 1 35.5 4.5t37.5 11.5t32.5 20.5t20.5 31.5q10 35 1.5 63.5t-22.5 52.5q-13 27 -34 45.5t-53 24.5q-35 7 -70.5 3t-72.5 -6q-38 -7 -78.5 -13.5t-78.5 -15.5q-51 -9 -100 -21l-100 -25q-25 -9 -49.5 -22.5t-47 -30.5t-41.5 -37.5t-32 -44.5 q-7 -12 -10.5 -24.5t-10.5 -23.5q-31 -72 -57.5 -142.5l-53.5 -142.5q-27 -73 -50.5 -146.5l-48.5 -147.5q-18 -50 -39 -99.5l-41 -99.5q-9 -26 -20.5 -50.5t-20.5 -50.5q-12 -37 -16.5 -76.5z" />
<glyph unicode="&#xfb02;" horiz-adv-x="2200" d="M1283.5 149q5.5 50 16.5 100q5 25 10.5 46t12.5 43q2 5 3 10.5t3 11.5l9 22l22 57.5t24 57.5q4 9 8.5 18l8.5 17l5 16q2 5 4 9.5t5 9.5l51.5 114.5t48.5 117.5q14 36 26 71.5t22 73.5l2 3q2 11 5.5 22.5t8.5 25.5q12 41 29 84l20.5 56.5l21.5 57.5q13 34 35 69t52.5 65.5 t68 52.5t81.5 30q11 2 17 2.5t14 0.5q47 0 72 -21t34 -54l65 -101q12 -20 15.5 -47t0.5 -56.5t-10.5 -60.5t-17.5 -59l-9 -24q-28 -72 -61 -143.5l-67 -143.5l-24 -51l-68.5 -150.5t-60.5 -146.5l53.5 22l55.5 22l24 11q4 1 6 2t4 3l14 5q32 14 66 27t72 17q8 2 14 2h12 q42 0 72.5 -20.5t38.5 -56.5l66 -102q23 -37 4 -92q-2 -7 -4.5 -13t-7.5 -15h1q-29 -51 -70 -89.5t-88.5 -69t-98.5 -54.5l-99 -46q-84 -35 -171.5 -60t-171.5 -25h-25q-11 0 -20 1q-46 7 -86 23.5t-62 51.5l-67 103q-21 21 -32 49q-9 48 -3.5 98zM1328 160.5 q-6 -45.5 3 -87.5q7 -20 21.5 -34.5t33 -24t40.5 -15.5t45 -9q42 -5 87 0t91.5 16.5t93.5 28t93 35.5l90 42t91 49.5t81.5 62t62.5 78.5q17 30 16 54.5t-15.5 40.5t-38.5 23t-53 2q-36 -5 -72.5 -20.5l-72.5 -31.5l-160.5 -64t-158.5 -40q8 44 19 88t27 88q32 86 69.5 170.5 l77.5 170.5l79 168.5t73 168.5q10 25 19 54.5t13.5 58.5t2.5 56t-13 46t-33 29t-58 5q-34 -5 -64 -22.5t-54.5 -42.5t-42.5 -54.5t-28 -58.5l-38 -97t-32 -97l-32 -100t-33 -100l-50 -117.5l-52 -116.5l-49 -111.5t-42 -111.5l-12 -43.5t-8 -43.5q-11 -47 -17 -92.5zM165 92 q-2 33 3.5 68.5t15.5 69.5l7 19q8 26 19 46q5 11 8 20t7 18l7 20q3 5 5.5 10.5t4.5 10.5l27 64t25 65l11 29q20 58 38 117l31 89l30 88l54 144t59 144q6 10 9 21q4 11 6.5 18.5t6.5 13.5q16 30 39.5 55.5t52 46.5t60 37.5t63.5 28.5q5 1 12 3t12 3q51 14 100.5 25.5 t96.5 19.5l-4 -2q36 8 67.5 13.5t57.5 10.5v-2q3 0 7 2q4 0 8 1t7 2q5 0 12.5 1t16.5 3q15 2 32 2.5t40 0.5h17q10 0 22 -1l-2 1q47 -9 76.5 -32t44.5 -55q4 -9 9.5 -18t9.5 -19l48 -75q2 -5 5.5 -10.5l6.5 -10.5q14 -28 23 -61t-3 -77l-1 -5q-11 -29 -31.5 -48t-45 -30.5 t-50 -17t-46.5 -7.5q-53 0 -108 -4.5t-112 -10.5q-22 -2 -43.5 -7.5t-43.5 -16.5q19 -1 38.5 -3t38.5 -6.5t36 -12.5t32 -21q11 -11 19 -24t10 -29l62 -95l3 -3q20 -30 17.5 -69.5t-17.5 -81.5l-3 -12q-9 -22 -24.5 -42t-36 -36t-43.5 -26.5t-45 -14.5q-35 -4 -67.5 -4.5 t-67.5 -0.5q-13 -2 -27 -2h-26h-1q-43 -2 -83 -5.5t-78 -20.5q-17 -35 -29 -70.5l-25 -70.5l-45 -121q-2 -12 -6 -23.5t-9 -24.5q-13 -36 -28 -70.5t-32 -66.5q-13 -23 -31 -45.5t-40 -40.5t-47.5 -29t-52.5 -11h-10t-12 2q-35 4 -55.5 18t-34.5 36l-62 98q-24 18 -35 46 t-13 61zM210.5 155.5q-4.5 -39.5 3 -72.5t29 -56.5t62.5 -28.5q20 -5 40 2t38 21t33.5 33t25.5 38q43 87 72 174l52 145.5t59 143.5q32 18 63.5 26t63 11t62.5 3q32 0 62 2q33 0 65.5 0.5t67.5 4.5q16 3 33 11t31 19.5t24.5 26t15.5 30.5q17 42 16.5 82.5t-26.5 64.5 q-14 12 -31 19t-36.5 10.5t-40 4.5l-41.5 2q-26 2 -52.5 0.5t-53.5 -3.5q-27 -4 -53.5 -5t-53.5 -6q11 36 30.5 72.5t42.5 71.5q18 24 41.5 41.5t49 29.5t52.5 19.5t52 10.5q57 6 112.5 10.5t109.5 4.5q16 1 35.5 4.5t37.5 11.5t32.5 20.5t20.5 31.5q10 35 1.5 63.5 t-22.5 52.5q-13 27 -34 45.5t-53 24.5q-35 7 -70.5 3t-72.5 -6q-38 -7 -78.5 -13.5t-78.5 -15.5q-51 -9 -100 -21l-100 -25q-25 -9 -49.5 -22.5t-47 -30.5t-41.5 -37.5t-32 -44.5q-7 -12 -10.5 -24.5t-10.5 -23.5q-31 -72 -57.5 -142.5l-53.5 -142.5q-27 -73 -50.5 -146.5 l-48.5 -147.5q-18 -50 -39 -99.5l-41 -99.5q-9 -26 -20.5 -50.5t-20.5 -50.5q-12 -37 -16.5 -76.5z" />
<glyph unicode="&#xfb03;" horiz-adv-x="2877" d="M2360 82.5q3 33.5 7 64.5q9 55 25 114.5t38 122.5l33 96l35 97l35.5 97t38.5 97l35.5 95.5l35.5 96.5q12 28 23.5 58l23.5 59l16 40t14 39q0 2 2 3.5t3 3.5q3 5 4 8t3 5l26.5 58t36.5 58q14 20 31 40.5t37.5 38.5t45.5 32t57 22h10q3 0 4.5 1t4.5 1q45 0 73.5 -25.5 t38.5 -63.5l62 -95q13 -25 19 -51q1 -40 -5.5 -82t-22.5 -84q-38 -111 -83 -222q-7 -19 -15 -38t-14 -37q-16 -38 -30 -75.5l-28 -74.5q-14 -38 -25.5 -76l-22.5 -76l-27 -87q-5 -17 -10.5 -33.5t-10.5 -33.5q-9 -32 -20 -66.5t-24 -67.5l-11 -29q-15 -44 -38 -85t-52 -81 q-15 -23 -35.5 -45.5t-45 -41t-51.5 -31t-56 -15.5h-7q-32 0 -50 11t-30 27l-63 100q-15 9 -23.5 22.5t-12.5 27.5q-8 47 -5 80.5zM2406.5 99q-2.5 -29 1.5 -56q3 -12 8.5 -24t14.5 -21t21 -14t29 -4q22 2 42.5 12t39 25t34.5 33.5t29 36.5q26 38 48 76t36 78 q23 57 40 113.5l35 113.5q20 60 36.5 120t38.5 122q20 57 43.5 113.5l45.5 113.5l42.5 110l41.5 110q14 38 20 76.5t3 73.5q-5 36 -31.5 60.5t-70.5 18.5q-20 -5 -37.5 -15.5t-32.5 -24.5t-27.5 -30.5t-23.5 -32.5q-25 -31 -40.5 -64.5l-31.5 -66.5l-74.5 -191l-73.5 -191 l-70.5 -192l-69.5 -192q-20 -58 -35.5 -115t-24.5 -114q-4 -29 -6.5 -58zM1264 92q-2 33 3.5 68.5t15.5 69.5l7 19q8 26 19 46q5 11 8 20t7 18l7 20q3 5 5.5 10.5t4.5 10.5l27 64t25 65l11 29q20 58 38 117l31 89l30 88l54 144t59 144q6 10 9 21q4 11 6.5 18.5t6.5 13.5 q16 30 39.5 55.5t52 46.5t60 37.5t63.5 28.5q5 1 12 3t12 3q51 14 100.5 25.5t96.5 19.5l-4 -2q36 8 67.5 13.5t57.5 10.5v-2q3 0 7 2q4 0 8 1t7 2q5 0 12.5 1t16.5 3q15 2 32 2.5t40 0.5h17q10 0 22 -1l-2 1q47 -9 76.5 -32t44.5 -55q4 -9 9.5 -18t9.5 -19l48 -75 q2 -5 5.5 -10.5l6.5 -10.5q14 -28 23 -61t-3 -77l-1 -5q-11 -29 -31.5 -48t-45 -30.5t-50 -17t-46.5 -7.5q-53 0 -108 -4.5t-112 -10.5q-22 -2 -43.5 -7.5t-43.5 -16.5q19 -1 38.5 -3t38.5 -6.5t36 -12.5t32 -21q11 -11 19 -24t10 -29l62 -95l3 -3q20 -30 17.5 -69.5 t-17.5 -81.5l-3 -12q-9 -22 -24.5 -42t-36 -36t-43.5 -26.5t-45 -14.5q-35 -4 -67.5 -4.5t-67.5 -0.5q-13 -2 -27 -2h-26h-1q-43 -2 -83 -5.5t-78 -20.5q-17 -35 -29 -70.5l-25 -70.5l-45 -121q-2 -12 -6 -23.5t-9 -24.5q-13 -36 -28 -70.5t-32 -66.5q-13 -23 -31 -45.5 t-40 -40.5t-47.5 -29t-52.5 -11h-10t-12 2q-35 4 -55.5 18t-34.5 36l-62 98q-24 18 -35 46t-13 61zM1309.5 155.5q-4.5 -39.5 3 -72.5t29 -56.5t62.5 -28.5q20 -5 40 2t38 21t33.5 33t25.5 38q43 87 72 174l52 145.5t59 143.5q32 18 63.5 26t63 11t62.5 3q32 0 62 2 q33 0 65.5 0.5t67.5 4.5q16 3 33 11t31 19.5t24.5 26t15.5 30.5q17 42 16.5 82.5t-26.5 64.5q-14 12 -31 19t-36.5 10.5t-40 4.5l-41.5 2q-26 2 -52.5 0.5t-53.5 -3.5q-27 -4 -53.5 -5t-53.5 -6q11 36 30.5 72.5t42.5 71.5q18 24 41.5 41.5t49 29.5t52.5 19.5t52 10.5 q57 6 112.5 10.5t109.5 4.5q16 1 35.5 4.5t37.5 11.5t32.5 20.5t20.5 31.5q10 35 1.5 63.5t-22.5 52.5q-13 27 -34 45.5t-53 24.5q-35 7 -70.5 3t-72.5 -6q-38 -7 -78.5 -13.5t-78.5 -15.5q-51 -9 -100 -21l-100 -25q-25 -9 -49.5 -22.5t-47 -30.5t-41.5 -37.5t-32 -44.5 q-7 -12 -10.5 -24.5t-10.5 -23.5q-31 -72 -57.5 -142.5l-53.5 -142.5q-27 -73 -50.5 -146.5l-48.5 -147.5q-18 -50 -39 -99.5l-41 -99.5q-9 -26 -20.5 -50.5t-20.5 -50.5q-12 -37 -16.5 -76.5zM165 92q-2 33 3.5 68.5t15.5 69.5l7 19q8 26 19 46q5 11 8 20t7 18l7 20 q3 5 5.5 10.5t4.5 10.5l27 64t25 65l11 29q20 58 38 117l31 89l30 88l54 144t59 144q6 10 9 21q4 11 6.5 18.5t6.5 13.5q16 30 39.5 55.5t52 46.5t60 37.5t63.5 28.5q5 1 12 3t12 3q51 14 100.5 25.5t96.5 19.5l-4 -2q36 8 67.5 13.5t57.5 10.5v-2q3 0 7 2q4 0 8 1t7 2 q5 0 12.5 1t16.5 3q15 2 32 2.5t40 0.5h17q10 0 22 -1l-2 1q47 -9 76.5 -32t44.5 -55q4 -9 9.5 -18t9.5 -19l48 -75q2 -5 5.5 -10.5l6.5 -10.5q14 -28 23 -61t-3 -77l-1 -5q-11 -29 -31.5 -48t-45 -30.5t-50 -17t-46.5 -7.5q-53 0 -108 -4.5t-112 -10.5q-22 -2 -43.5 -7.5 t-43.5 -16.5q19 -1 38.5 -3t38.5 -6.5t36 -12.5t32 -21q11 -11 19 -24t10 -29l62 -95l3 -3q20 -30 17.5 -69.5t-17.5 -81.5l-3 -12q-9 -22 -24.5 -42t-36 -36t-43.5 -26.5t-45 -14.5q-35 -4 -67.5 -4.5t-67.5 -0.5q-13 -2 -27 -2h-26h-1q-43 -2 -83 -5.5t-78 -20.5 q-17 -35 -29 -70.5l-25 -70.5l-45 -121q-2 -12 -6 -23.5t-9 -24.5q-13 -36 -28 -70.5t-32 -66.5q-13 -23 -31 -45.5t-40 -40.5t-47.5 -29t-52.5 -11h-10t-12 2q-35 4 -55.5 18t-34.5 36l-62 98q-24 18 -35 46t-13 61zM210.5 155.5q-4.5 -39.5 3 -72.5t29 -56.5t62.5 -28.5 q20 -5 40 2t38 21t33.5 33t25.5 38q43 87 72 174l52 145.5t59 143.5q32 18 63.5 26t63 11t62.5 3q32 0 62 2q33 0 65.5 0.5t67.5 4.5q16 3 33 11t31 19.5t24.5 26t15.5 30.5q17 42 16.5 82.5t-26.5 64.5q-14 12 -31 19t-36.5 10.5t-40 4.5l-41.5 2q-26 2 -52.5 0.5 t-53.5 -3.5q-27 -4 -53.5 -5t-53.5 -6q11 36 30.5 72.5t42.5 71.5q18 24 41.5 41.5t49 29.5t52.5 19.5t52 10.5q57 6 112.5 10.5t109.5 4.5q16 1 35.5 4.5t37.5 11.5t32.5 20.5t20.5 31.5q10 35 1.5 63.5t-22.5 52.5q-13 27 -34 45.5t-53 24.5q-35 7 -70.5 3t-72.5 -6 q-38 -7 -78.5 -13.5t-78.5 -15.5q-51 -9 -100 -21l-100 -25q-25 -9 -49.5 -22.5t-47 -30.5t-41.5 -37.5t-32 -44.5q-7 -12 -10.5 -24.5t-10.5 -23.5q-31 -72 -57.5 -142.5l-53.5 -142.5q-27 -73 -50.5 -146.5l-48.5 -147.5q-18 -50 -39 -99.5l-41 -99.5q-9 -26 -20.5 -50.5 t-20.5 -50.5q-12 -37 -16.5 -76.5z" />
<glyph unicode="&#xfb04;" horiz-adv-x="3299" d="M2382.5 149q5.5 50 16.5 100q5 25 10.5 46t12.5 43q2 5 3 10.5t3 11.5l9 22l22 57.5t24 57.5q4 9 8.5 18l8.5 17l5 16q2 5 4 9.5t5 9.5l51.5 114.5t48.5 117.5q14 36 26 71.5t22 73.5l2 3q2 11 5.5 22.5t8.5 25.5q12 41 29 84l20.5 56.5l21.5 57.5q13 34 35 69t52.5 65.5 t68 52.5t81.5 30q11 2 17 2.5t14 0.5q47 0 72 -21t34 -54l65 -101q12 -20 15.5 -47t0.5 -56.5t-10.5 -60.5t-17.5 -59l-9 -24q-28 -72 -61 -143.5l-67 -143.5l-24 -51l-68.5 -150.5t-60.5 -146.5l53.5 22l55.5 22l24 11q4 1 6 2t4 3l14 5q32 14 66 27t72 17q8 2 14 2h12 q42 0 72.5 -20.5t38.5 -56.5l66 -102q23 -37 4 -92q-2 -7 -4.5 -13t-7.5 -15h1q-29 -51 -70 -89.5t-88.5 -69t-98.5 -54.5l-99 -46q-84 -35 -171.5 -60t-171.5 -25h-25q-11 0 -20 1q-46 7 -86 23.5t-62 51.5l-67 103q-21 21 -32 49q-9 48 -3.5 98zM2427 160.5 q-6 -45.5 3 -87.5q7 -20 21.5 -34.5t33 -24t40.5 -15.5t45 -9q42 -5 87 0t91.5 16.5t93.5 28t93 35.5l90 42t91 49.5t81.5 62t62.5 78.5q17 30 16 54.5t-15.5 40.5t-38.5 23t-53 2q-36 -5 -72.5 -20.5l-72.5 -31.5l-160.5 -64t-158.5 -40q8 44 19 88t27 88q32 86 69.5 170.5 l77.5 170.5l79 168.5t73 168.5q10 25 19 54.5t13.5 58.5t2.5 56t-13 46t-33 29t-58 5q-34 -5 -64 -22.5t-54.5 -42.5t-42.5 -54.5t-28 -58.5l-38 -97t-32 -97l-32 -100t-33 -100l-50 -117.5l-52 -116.5l-49 -111.5t-42 -111.5l-12 -43.5t-8 -43.5q-11 -47 -17 -92.5z M1264 92q-2 33 3.5 68.5t15.5 69.5l7 19q8 26 19 46q5 11 8 20t7 18l7 20q3 5 5.5 10.5t4.5 10.5l27 64t25 65l11 29q20 58 38 117l31 89l30 88l54 144t59 144q6 10 9 21q4 11 6.5 18.5t6.5 13.5q16 30 39.5 55.5t52 46.5t60 37.5t63.5 28.5q5 1 12 3t12 3q51 14 100.5 25.5 t96.5 19.5l-4 -2q36 8 67.5 13.5t57.5 10.5v-2q3 0 7 2q4 0 8 1t7 2q5 0 12.5 1t16.5 3q15 2 32 2.5t40 0.5h17q10 0 22 -1l-2 1q47 -9 76.5 -32t44.5 -55q4 -9 9.5 -18t9.5 -19l48 -75q2 -5 5.5 -10.5l6.5 -10.5q14 -28 23 -61t-3 -77l-1 -5q-11 -29 -31.5 -48t-45 -30.5 t-50 -17t-46.5 -7.5q-53 0 -108 -4.5t-112 -10.5q-22 -2 -43.5 -7.5t-43.5 -16.5q19 -1 38.5 -3t38.5 -6.5t36 -12.5t32 -21q11 -11 19 -24t10 -29l62 -95l3 -3q20 -30 17.5 -69.5t-17.5 -81.5l-3 -12q-9 -22 -24.5 -42t-36 -36t-43.5 -26.5t-45 -14.5q-35 -4 -67.5 -4.5 t-67.5 -0.5q-13 -2 -27 -2h-26h-1q-43 -2 -83 -5.5t-78 -20.5q-17 -35 -29 -70.5l-25 -70.5l-45 -121q-2 -12 -6 -23.5t-9 -24.5q-13 -36 -28 -70.5t-32 -66.5q-13 -23 -31 -45.5t-40 -40.5t-47.5 -29t-52.5 -11h-10t-12 2q-35 4 -55.5 18t-34.5 36l-62 98q-24 18 -35 46 t-13 61zM1309.5 155.5q-4.5 -39.5 3 -72.5t29 -56.5t62.5 -28.5q20 -5 40 2t38 21t33.5 33t25.5 38q43 87 72 174l52 145.5t59 143.5q32 18 63.5 26t63 11t62.5 3q32 0 62 2q33 0 65.5 0.5t67.5 4.5q16 3 33 11t31 19.5t24.5 26t15.5 30.5q17 42 16.5 82.5t-26.5 64.5 q-14 12 -31 19t-36.5 10.5t-40 4.5l-41.5 2q-26 2 -52.5 0.5t-53.5 -3.5q-27 -4 -53.5 -5t-53.5 -6q11 36 30.5 72.5t42.5 71.5q18 24 41.5 41.5t49 29.5t52.5 19.5t52 10.5q57 6 112.5 10.5t109.5 4.5q16 1 35.5 4.5t37.5 11.5t32.5 20.5t20.5 31.5q10 35 1.5 63.5 t-22.5 52.5q-13 27 -34 45.5t-53 24.5q-35 7 -70.5 3t-72.5 -6q-38 -7 -78.5 -13.5t-78.5 -15.5q-51 -9 -100 -21l-100 -25q-25 -9 -49.5 -22.5t-47 -30.5t-41.5 -37.5t-32 -44.5q-7 -12 -10.5 -24.5t-10.5 -23.5q-31 -72 -57.5 -142.5l-53.5 -142.5q-27 -73 -50.5 -146.5 l-48.5 -147.5q-18 -50 -39 -99.5l-41 -99.5q-9 -26 -20.5 -50.5t-20.5 -50.5q-12 -37 -16.5 -76.5zM165 92q-2 33 3.5 68.5t15.5 69.5l7 19q8 26 19 46q5 11 8 20t7 18l7 20q3 5 5.5 10.5t4.5 10.5l27 64t25 65l11 29q20 58 38 117l31 89l30 88l54 144t59 144q6 10 9 21 q4 11 6.5 18.5t6.5 13.5q16 30 39.5 55.5t52 46.5t60 37.5t63.5 28.5q5 1 12 3t12 3q51 14 100.5 25.5t96.5 19.5l-4 -2q36 8 67.5 13.5t57.5 10.5v-2q3 0 7 2q4 0 8 1t7 2q5 0 12.5 1t16.5 3q15 2 32 2.5t40 0.5h17q10 0 22 -1l-2 1q47 -9 76.5 -32t44.5 -55q4 -9 9.5 -18 t9.5 -19l48 -75q2 -5 5.5 -10.5l6.5 -10.5q14 -28 23 -61t-3 -77l-1 -5q-11 -29 -31.5 -48t-45 -30.5t-50 -17t-46.5 -7.5q-53 0 -108 -4.5t-112 -10.5q-22 -2 -43.5 -7.5t-43.5 -16.5q19 -1 38.5 -3t38.5 -6.5t36 -12.5t32 -21q11 -11 19 -24t10 -29l62 -95l3 -3 q20 -30 17.5 -69.5t-17.5 -81.5l-3 -12q-9 -22 -24.5 -42t-36 -36t-43.5 -26.5t-45 -14.5q-35 -4 -67.5 -4.5t-67.5 -0.5q-13 -2 -27 -2h-26h-1q-43 -2 -83 -5.5t-78 -20.5q-17 -35 -29 -70.5l-25 -70.5l-45 -121q-2 -12 -6 -23.5t-9 -24.5q-13 -36 -28 -70.5t-32 -66.5 q-13 -23 -31 -45.5t-40 -40.5t-47.5 -29t-52.5 -11h-10t-12 2q-35 4 -55.5 18t-34.5 36l-62 98q-24 18 -35 46t-13 61zM210.5 155.5q-4.5 -39.5 3 -72.5t29 -56.5t62.5 -28.5q20 -5 40 2t38 21t33.5 33t25.5 38q43 87 72 174l52 145.5t59 143.5q32 18 63.5 26t63 11t62.5 3 q32 0 62 2q33 0 65.5 0.5t67.5 4.5q16 3 33 11t31 19.5t24.5 26t15.5 30.5q17 42 16.5 82.5t-26.5 64.5q-14 12 -31 19t-36.5 10.5t-40 4.5l-41.5 2q-26 2 -52.5 0.5t-53.5 -3.5q-27 -4 -53.5 -5t-53.5 -6q11 36 30.5 72.5t42.5 71.5q18 24 41.5 41.5t49 29.5t52.5 19.5 t52 10.5q57 6 112.5 10.5t109.5 4.5q16 1 35.5 4.5t37.5 11.5t32.5 20.5t20.5 31.5q10 35 1.5 63.5t-22.5 52.5q-13 27 -34 45.5t-53 24.5q-35 7 -70.5 3t-72.5 -6q-38 -7 -78.5 -13.5t-78.5 -15.5q-51 -9 -100 -21l-100 -25q-25 -9 -49.5 -22.5t-47 -30.5t-41.5 -37.5 t-32 -44.5q-7 -12 -10.5 -24.5t-10.5 -23.5q-31 -72 -57.5 -142.5l-53.5 -142.5q-27 -73 -50.5 -146.5l-48.5 -147.5q-18 -50 -39 -99.5l-41 -99.5q-9 -26 -20.5 -50.5t-20.5 -50.5q-12 -37 -16.5 -76.5z" />
</font>
</defs>
</svg>
